  0
SECTION
  2
HEADER
  9
$ACADVER
  1
AC1021
  9
$ACADMAINTVER
 70
     1
  9
$DWGCODEPAGE
  3
ANSI_932
  9
$LASTSAVEDBY
  1
kida10
  9
$INSBASE
 10
0.0
 20
0.0
 30
0.0
  9
$EXTMIN
 10
-0.9999999485270759
 20
-1.000000095529258
 30
0.0
  9
$EXTMAX
 10
19.02245095190939
 20
8.464079710563781
 30
0.0
  9
$LIMMIN
 10
0.0
 20
0.0
  9
$LIMMAX
 10
12.0
 20
9.0
  9
$ORTHOMODE
 70
     0
  9
$REGENMODE
 70
     1
  9
$FILLMODE
 70
     1
  9
$QTEXTMODE
 70
     0
  9
$MIRRTEXT
 70
     0
  9
$LTSCALE
 40
1.0
  9
$ATTMODE
 70
     1
  9
$TEXTSIZE
 40
0.2
  9
$TRACEWID
 40
0.05
  9
$TEXTSTYLE
  7
Standard
  9
$CLAYER
  8
0
  9
$CELTYPE
  6
ByLayer
  9
$CECOLOR
 62
   256
  9
$CELTSCALE
 40
1.0
  9
$DISPSILH
 70
     0
  9
$DIMSCALE
 40
1.0
  9
$DIMASZ
 40
0.5
  9
$DIMEXO
 40
0.5
  9
$DIMDLI
 40
0.38
  9
$DIMRND
 40
0.0
  9
$DIMDLE
 40
0.0
  9
$DIMEXE
 40
0.5
  9
$DIMTP
 40
0.0
  9
$DIMTM
 40
0.0
  9
$DIMTXT
 40
1.0
  9
$DIMCEN
 40
0.5
  9
$DIMTSZ
 40
0.0
  9
$DIMTOL
 70
     0
  9
$DIMLIM
 70
     0
  9
$DIMTIH
 70
     0
  9
$DIMTOH
 70
     0
  9
$DIMSE1
 70
     0
  9
$DIMSE2
 70
     0
  9
$DIMTAD
 70
     1
  9
$DIMZIN
 70
     0
  9
$DIMBLK
  1
Open30
  9
$DIMASO
 70
     1
  9
$DIMSHO
 70
     1
  9
$DIMPOST
  1

  9
$DIMAPOST
  1

  9
$DIMALT
 70
     0
  9
$DIMALTD
 70
     2
  9
$DIMALTF
 40
25.4
  9
$DIMLFAC
 40
1.0
  9
$DIMTOFL
 70
     1
  9
$DIMTVP
 40
0.0
  9
$DIMTIX
 70
     0
  9
$DIMSOXD
 70
     0
  9
$DIMSAH
 70
     0
  9
$DIMBLK1
  1

  9
$DIMBLK2
  1

  9
$DIMSTYLE
  2
Standard
  9
$DIMCLRD
 70
     0
  9
$DIMCLRE
 70
     0
  9
$DIMCLRT
 70
     0
  9
$DIMTFAC
 40
1.0
  9
$DIMGAP
 40
0.3
  9
$DIMJUST
 70
     0
  9
$DIMSD1
 70
     0
  9
$DIMSD2
 70
     0
  9
$DIMTOLJ
 70
     1
  9
$DIMTZIN
 70
     0
  9
$DIMALTZ
 70
     0
  9
$DIMALTTZ
 70
     0
  9
$DIMUPT
 70
     0
  9
$DIMDEC
 70
     1
  9
$DIMTDEC
 70
     1
  9
$DIMALTU
 70
     2
  9
$DIMALTTD
 70
     2
  9
$DIMTXSTY
  7
Standard
  9
$DIMAUNIT
 70
     0
  9
$DIMADEC
 70
     0
  9
$DIMALTRND
 40
0.0
  9
$DIMAZIN
 70
     0
  9
$DIMDSEP
 70
    46
  9
$DIMATFIT
 70
     3
  9
$DIMFRAC
 70
     0
  9
$DIMLDRBLK
  1
Open30
  9
$DIMLUNIT
 70
     2
  9
$DIMLWD
 70
    -2
  9
$DIMLWE
 70
    -2
  9
$DIMTMOVE
 70
     0
  9
$DIMFXL
 40
1.0
  9
$DIMFXLON
 70
     0
  9
$DIMJOGANG
 40
0.7853981633974483
  9
$DIMTFILL
 70
     0
  9
$DIMTFILLCLR
 70
     0
  9
$DIMARCSYM
 70
     0
  9
$DIMLTYPE
  6

  9
$DIMLTEX1
  6

  9
$DIMLTEX2
  6

  9
$LUNITS
 70
     2
  9
$LUPREC
 70
     4
  9
$SKETCHINC
 40
0.1
  9
$FILLETRAD
 40
0.0
  9
$AUNITS
 70
     0
  9
$AUPREC
 70
     0
  9
$MENU
  1
.
  9
$ELEVATION
 40
0.0
  9
$PELEVATION
 40
0.0
  9
$THICKNESS
 40
0.0
  9
$LIMCHECK
 70
     0
  9
$CHAMFERA
 40
0.0
  9
$CHAMFERB
 40
0.0
  9
$CHAMFERC
 40
0.0
  9
$CHAMFERD
 40
0.0
  9
$SKPOLY
 70
     0
  9
$TDCREATE
 40
2455313.497140046
  9
$TDUCREATE
 40
2455313.122140046
  9
$TDUPDATE
 40
2455327.615302500
  9
$TDUUPDATE
 40
2455327.240302500
  9
$TDINDWG
 40
0.1733710995
  9
$TDUSRTIMER
 40
0.1733665856
  9
$USRTIMER
 70
     1
  9
$ANGBASE
 50
0.0
  9
$ANGDIR
 70
     0
  9
$PDMODE
 70
     0
  9
$PDSIZE
 40
0.0
  9
$PLINEWID
 40
0.0
  9
$SPLFRAME
 70
     0
  9
$SPLINETYPE
 70
     6
  9
$SPLINESEGS
 70
     8
  9
$HANDSEED
  5
BE8
  9
$SURFTAB1
 70
     6
  9
$SURFTAB2
 70
     6
  9
$SURFTYPE
 70
     6
  9
$SURFU
 70
     6
  9
$SURFV
 70
     6
  9
$UCSBASE
  2

  9
$UCSNAME
  2

  9
$UCSORG
 10
0.0
 20
0.0
 30
0.0
  9
$UCSXDIR
 10
1.0
 20
0.0
 30
0.0
  9
$UCSYDIR
 10
0.0
 20
1.0
 30
0.0
  9
$UCSORTHOREF
  2

  9
$UCSORTHOVIEW
 70
     0
  9
$UCSORGTOP
 10
0.0
 20
0.0
 30
0.0
  9
$UCSORGBOTTOM
 10
0.0
 20
0.0
 30
0.0
  9
$UCSORGLEFT
 10
0.0
 20
0.0
 30
0.0
  9
$UCSORGRIGHT
 10
0.0
 20
0.0
 30
0.0
  9
$UCSORGFRONT
 10
0.0
 20
0.0
 30
0.0
  9
$UCSORGBACK
 10
0.0
 20
0.0
 30
0.0
  9
$PUCSBASE
  2

  9
$PUCSNAME
  2

  9
$PUCSORG
 10
0.0
 20
0.0
 30
0.0
  9
$PUCSXDIR
 10
1.0
 20
0.0
 30
0.0
  9
$PUCSYDIR
 10
0.0
 20
1.0
 30
0.0
  9
$PUCSORTHOREF
  2

  9
$PUCSORTHOVIEW
 70
     0
  9
$PUCSORGTOP
 10
0.0
 20
0.0
 30
0.0
  9
$PUCSORGBOTTOM
 10
0.0
 20
0.0
 30
0.0
  9
$PUCSORGLEFT
 10
0.0
 20
0.0
 30
0.0
  9
$PUCSORGRIGHT
 10
0.0
 20
0.0
 30
0.0
  9
$PUCSORGFRONT
 10
0.0
 20
0.0
 30
0.0
  9
$PUCSORGBACK
 10
0.0
 20
0.0
 30
0.0
  9
$USERI1
 70
     0
  9
$USERI2
 70
     0
  9
$USERI3
 70
     0
  9
$USERI4
 70
     0
  9
$USERI5
 70
     0
  9
$USERR1
 40
0.0
  9
$USERR2
 40
0.0
  9
$USERR3
 40
0.0
  9
$USERR4
 40
0.0
  9
$USERR5
 40
0.0
  9
$WORLDVIEW
 70
     1
  9
$SHADEDGE
 70
     3
  9
$SHADEDIF
 70
    70
  9
$TILEMODE
 70
     0
  9
$MAXACTVP
 70
    64
  9
$PINSBASE
 10
0.0
 20
0.0
 30
0.0
  9
$PLIMCHECK
 70
     0
  9
$PEXTMIN
 10
0.2684868503613375
 20
0.268492814002694
 30
0.0
  9
$PEXTMAX
 10
11.16801751038457
 20
7.744705180083613
 30
0.0
  9
$PLIMMIN
 10
-0.1249999981226884
 20
-0.1249999981226884
  9
$PLIMMAX
 10
11.56499980002877
 20
8.141666444267812
  9
$UNITMODE
 70
     0
  9
$VISRETAIN
 70
     1
  9
$PLINEGEN
 70
     0
  9
$PSLTSCALE
 70
     1
  9
$TREEDEPTH
 70
  3020
  9
$CMLSTYLE
  2
Standard
  9
$CMLJUST
 70
     0
  9
$CMLSCALE
 40
1.0
  9
$PROXYGRAPHICS
 70
     1
  9
$MEASUREMENT
 70
     1
  9
$CELWEIGHT
370
    -1
  9
$ENDCAPS
280
     0
  9
$JOINSTYLE
280
     0
  9
$LWDISPLAY
290
     0
  9
$INSUNITS
 70
     1
  9
$HYPERLINKBASE
  1

  9
$STYLESHEET
  1
MONOCHROME.CTB
  9
$XEDIT
290
     1
  9
$CEPSNTYPE
380
     0
  9
$PSTYLEMODE
290
     1
  9
$FINGERPRINTGUID
  2
{159714D0-F369-46FE-BD47-CEAC894CE2B4}
  9
$VERSIONGUID
  2
{1794E2D9-7A76-4498-9B6D-F9108A190D9A}
  9
$EXTNAMES
290
     1
  9
$PSVPSCALE
 40
0.0
  9
$OLESTARTUP
290
     0
  9
$SORTENTS
280
   127
  9
$INDEXCTL
280
     0
  9
$HIDETEXT
280
     1
  9
$XCLIPFRAME
290
     0
  9
$HALOGAP
280
     0
  9
$OBSCOLOR
 70
   257
  9
$OBSLTYPE
280
     0
  9
$INTERSECTIONDISPLAY
280
     0
  9
$INTERSECTIONCOLOR
 70
   257
  9
$DIMASSOC
280
     2
  9
$PROJECTNAME
  1

  9
$CAMERADISPLAY
290
     0
  9
$LENSLENGTH
 40
50.0
  9
$CAMERAHEIGHT
 40
0.0
  9
$STEPSPERSEC
 40
2.0
  9
$STEPSIZE
 40
6.0
  9
$3DDWFPREC
 40
2.0
  9
$PSOLWIDTH
 40
0.25
  9
$PSOLHEIGHT
 40
4.0
  9
$LOFTANG1
 40
1.570796326794896
  9
$LOFTANG2
 40
1.570796326794896
  9
$LOFTMAG1
 40
0.0
  9
$LOFTMAG2
 40
0.0
  9
$LOFTPARAM
 70
     7
  9
$LOFTNORMALS
280
     1
  9
$LATITUDE
 40
37.795
  9
$LONGITUDE
 40
-122.394
  9
$NORTHDIRECTION
 40
0.0
  9
$TIMEZONE
 70
 -8000
  9
$LIGHTGLYPHDISPLAY
280
     1
  9
$TILEMODELIGHTSYNCH
280
     1
  9
$CMATERIAL
347
96
  9
$SOLIDHIST
280
     1
  9
$SHOWHIST
280
     1
  9
$DWFFRAME
280
     2
  9
$DGNFRAME
280
     0
  9
$REALWORLDSCALE
290
     1
  9
$INTERFERECOLOR
 62
     1
  9
$INTERFEREOBJVS
345
A3
  9
$INTERFEREVPVS
346
A0
  9
$CSHADOW
280
     0
  9
$SHADOWPLANELOCATION
 40
0.0
  0
ENDSEC
  0
SECTION
  2
CLASSES
  0
CLASS
  1
ACDBDICTIONARYWDFLT
  2
AcDbDictionaryWithDefault
  3
ObjectDBX Classes
 90
        0
 91
        1
280
     0
281
     0
  0
CLASS
  1
DICTIONARYVAR
  2
AcDbDictionaryVar
  3
ObjectDBX Classes
 90
        0
 91
        3
280
     0
281
     0
  0
CLASS
  1
TABLESTYLE
  2
AcDbTableStyle
  3
ObjectDBX Classes
 90
     4095
 91
        1
280
     0
281
     0
  0
CLASS
  1
MATERIAL
  2
AcDbMaterial
  3
ObjectDBX Classes
 90
     1024
 91
        3
280
     0
281
     0
  0
CLASS
  1
VISUALSTYLE
  2
AcDbVisualStyle
  3
ObjectDBX Classes
 90
     4095
 91
       16
280
     0
281
     0
  0
CLASS
  1
SORTENTSTABLE
  2
AcDbSortentsTable
  3
ObjectDBX Classes
 90
        0
 91
        5
280
     0
281
     0
  0
CLASS
  1
ACAD_EVALUATION_GRAPH
  2
AcDbEvalGraph
  3
ObjectDBX Classes
 90
     1153
 91
        0
280
     0
281
     0
  0
CLASS
  1
ACAECUSTOBJ
  2
AcAeEditorObj
  3
AcAeEditorObj
 90
     1024
 91
        0
280
     0
281
     0
  0
CLASS
  1
ACDB_DYNAMICBLOCKPURGEPREVENTER_VERSION
  2
AcDbDynamicBlockPurgePreventer
  3
ObjectDBX Classes
 90
     1153
 91
        0
280
     0
281
     0
  0
CLASS
  1
DIMASSOC
  2
AcDbDimAssoc
  3
"AcDbDimAssoc|Product Desc:     AcDim ARX App For Dimension|Company:          Autodesk, Inc.|WEB Address:      www.autodesk.com"
 90
        0
 91
        3
280
     0
281
     0
  0
CLASS
  1
PLOTSETTINGS
  2
AcDbPlotSettings
  3
ObjectDBX Classes
 90
        0
 91
        1
280
     0
281
     0
  0
ENDSEC
  0
SECTION
  2
TABLES
  0
TABLE
  2
VPORT
  5
8
330
0
100
AcDbSymbolTable
 70
     1
  0
VPORT
  5
94
330
8
100
AcDbSymbolTableRecord
100
AcDbViewportTableRecord
  2
*Active
 70
     0
 10
0.0
 20
0.0
 11
1.0
 21
1.0
 12
6.690062221249895
 22
2.696501222686951
 13
0.0
 23
0.0
 14
0.5
 24
0.5
 15
0.5
 25
0.5
 16
0.0
 26
0.0
 36
1.0
 17
0.0
 27
0.0
 37
0.0
 40
36.7226525780808
 41
1.19546027742749
 42
50.0
 43
0.0
 44
0.0
 50
0.0
 51
0.0
 71
     0
 72
  1000
 73
     1
 74
     3
 75
     0
 76
     0
 77
     0
 78
     0
281
     0
 65
     1
110
0.0
120
0.0
130
0.0
111
1.0
121
0.0
131
0.0
112
0.0
122
1.0
132
0.0
 79
     0
146
0.0
348
9F
 60
     2
 61
     5
292
     1
282
     1
141
0.0
142
0.0
 63
   250
421
  3355443
  0
ENDTAB
  0
TABLE
  2
LTYPE
  5
5
330
0
100
AcDbSymbolTable
 70
     2
  0
LTYPE
  5
14
330
5
100
AcDbSymbolTableRecord
100
AcDbLinetypeTableRecord
  2
ByBlock
 70
     0
  3

 72
    65
 73
     0
 40
0.0
  0
LTYPE
  5
15
330
5
100
AcDbSymbolTableRecord
100
AcDbLinetypeTableRecord
  2
ByLayer
 70
     0
  3

 72
    65
 73
     0
 40
0.0
  0
LTYPE
  5
16
330
5
100
AcDbSymbolTableRecord
100
AcDbLinetypeTableRecord
  2
Continuous
 70
     0
  3
Solid line
 72
    65
 73
     0
 40
0.0
  0
LTYPE
  5
AF2
330
5
100
AcDbSymbolTableRecord
100
AcDbLinetypeTableRecord
  2
CENTER
 70
     0
  3
Center ____ _ ____ _ ____ _ ____ _ ____ _ ____
 72
    65
 73
     4
 40
50.8
 49
31.75
 74
     0
 49
-6.349999999999997
 74
     0
 49
6.349999999999997
 74
     0
 49
-6.349999999999997
 74
     0
  0
ENDTAB
  0
TABLE
  2
LAYER
  5
2
102
{ACAD_XDICTIONARY
360
D2
102
}
330
0
100
AcDbSymbolTable
 70
     6
  0
LAYER
  5
10
330
2
100
AcDbSymbolTableRecord
100
AcDbLayerTableRecord
  2
0
 70
     0
 62
     7
  6
Continuous
370
    -3
390
F
347
98
  0
LAYER
  5
61A
330
2
100
AcDbSymbolTableRecord
100
AcDbLayerTableRecord
  2
Defpoints
 70
     0
 62
     7
  6
Continuous
290
     0
370
    -3
390
F
347
98
  0
LAYER
  5
AEB
330
2
100
AcDbSymbolTableRecord
100
AcDbLayerTableRecord
  2
visible1
 70
     0
 62
     7
  6
Continuous
370
    20
390
F
347
98
1001
AcAecLayerStandard
1000

1000

  0
LAYER
  5
AED
330
2
100
AcDbSymbolTableRecord
100
AcDbLayerTableRecord
  2
visible2
 70
     0
 62
     7
  6
Continuous
370
    13
390
F
347
98
1001
AcAecLayerStandard
1000

1000

  0
LAYER
  5
AEE
330
2
100
AcDbSymbolTableRecord
100
AcDbLayerTableRecord
  2
center
 70
     0
 62
     1
  6
CENTER
370
    13
390
F
347
98
1001
AcAecLayerStandard
1000

1000

  0
LAYER
  5
AEF
330
2
100
AcDbSymbolTableRecord
100
AcDbLayerTableRecord
  2
dimention
 70
     0
 62
     5
  6
Continuous
370
    13
390
F
347
98
1001
AcAecLayerStandard
1000

1000

  0
ENDTAB
  0
TABLE
  2
STYLE
  5
3
330
0
100
AcDbSymbolTable
 70
     8
  0
STYLE
  5
11
330
3
100
AcDbSymbolTableRecord
100
AcDbTextStyleTableRecord
  2
Standard
 70
     0
 40
0.0
 41
1.0
 50
0.0
 71
     0
 42
0.2
  3
txt.shx
  4
extfont2.shx
  0
STYLE
  5
AF1
330
3
100
AcDbSymbolTableRecord
100
AcDbTextStyleTableRecord
  2

 70
     1
 40
0.0
 41
1.0
 50
0.0
 71
     0
 42
0.2
  3
ltypeshp.shx
  4

  0
ENDTAB
  0
TABLE
  2
VIEW
  5
6
330
0
100
AcDbSymbolTable
 70
     3
  0
ENDTAB
  0
TABLE
  2
UCS
  5
7
330
0
100
AcDbSymbolTable
 70
     0
  0
ENDTAB
  0
TABLE
  2
APPID
  5
9
330
0
100
AcDbSymbolTable
 70
     8
  0
APPID
  5
12
330
9
100
AcDbSymbolTableRecord
100
AcDbRegAppTableRecord
  2
ACAD
 70
     0
  0
APPID
  5
C9
330
9
100
AcDbSymbolTableRecord
100
AcDbRegAppTableRecord
  2
ACAD_PSEXT
 70
     0
  0
APPID
  5
4D2
330
9
100
AcDbSymbolTableRecord
100
AcDbRegAppTableRecord
  2
ACAUTHENVIRON
 70
     0
  0
APPID
  5
52A
330
9
100
AcDbSymbolTableRecord
100
AcDbRegAppTableRecord
  2
AcDbDynamicBlockTrueName
 70
     0
  0
APPID
  5
52B
330
9
100
AcDbSymbolTableRecord
100
AcDbRegAppTableRecord
  2
AcDbDynamicBlockGUID
 70
     0
  0
APPID
  5
52D
330
9
100
AcDbSymbolTableRecord
100
AcDbRegAppTableRecord
  2
AcDbBlockRepETag
 70
     0
  0
APPID
  5
AEC
330
9
100
AcDbSymbolTableRecord
100
AcDbRegAppTableRecord
  2
AcAecLayerStandard
 70
     0
  0
APPID
  5
B30
330
9
100
AcDbSymbolTableRecord
100
AcDbRegAppTableRecord
  2
ACAD_EXEMPT_FROM_CAD_STANDARDS
 70
     0
  0
ENDTAB
  0
TABLE
  2
DIMSTYLE
  5
A
330
0
100
AcDbSymbolTable
 70
     8
100
AcDbDimStyleTable
 71
     1
340
27
  0
DIMSTYLE
105
27
102
{ACAD_REACTORS
330
9C0
330
9D8
330
9FF
330
A17
102
}
330
A
100
AcDbSymbolTableRecord
100
AcDbDimStyleTableRecord
  2
Standard
 70
     0
 41
0.5
 42
0.5
 44
0.5
 73
     0
 74
     0
 77
     1
140
1.0
141
0.5
147
0.3
172
     1
271
     1
272
     1
340
11
341
CC
342
CC
  0
DIMSTYLE
105
8F0
330
A
100
AcDbSymbolTableRecord
100
AcDbDimStyleTableRecord
  2
ISO-25
 70
     0
 41
1.8
 42
0.625
 43
3.75
 44
1.25
 73
     0
 74
     0
 77
     1
 78
     8
140
2.2
141
2.5
143
0.03937007874016
147
0.625
171
     3
172
     1
271
     2
272
     2
274
     3
278
    44
283
     0
284
     8
340
11
341
CC
342
CC
  0
ENDTAB
  0
TABLE
  2
BLOCK_RECORD
  5
1
330
0
100
AcDbSymbolTable
 70
    22
  0
BLOCK_RECORD
  5
1F
102
{ACAD_XDICTIONARY
360
B2A
102
}
330
1
100
AcDbSymbolTableRecord
100
AcDbBlockTableRecord
  2
*Model_Space
340
22
 70
     0
280
     1
281
     0
  0
BLOCK_RECORD
  5
58
330
1
100
AcDbSymbolTableRecord
100
AcDbBlockTableRecord
  2
*Paper_Space
340
59
 70
     0
280
     1
281
     0
  0
BLOCK_RECORD
  5
CC
330
1
100
AcDbSymbolTableRecord
100
AcDbBlockTableRecord
  2
_Open30
340
0
102
{BLKREFS
331
8DD
331
8DE
331
8E9
331
8EA
331
97A
331
97B
331
984
331
985
331
AFA
331
AFB
331
B05
331
B06
331
B0E
331
B0F
331
B17
331
B18
102
}
 70
     0
280
     1
281
     0
  0
BLOCK_RECORD
  5
223
102
{ACAD_XDICTIONARY
360
272
102
}
330
1
100
AcDbSymbolTableRecord
100
AcDbBlockTableRecord
  2
A$C4D404F4F
340
0
 70
     1
280
     1
281
     0
  0
BLOCK_RECORD
  5
276
102
{ACAD_XDICTIONARY
360
2C5
102
}
330
1
100
AcDbSymbolTableRecord
100
AcDbBlockTableRecord
  2
A$C2CA859AB
340
0
 70
     1
280
     1
281
     0
  0
BLOCK_RECORD
  5
31E
330
1
100
AcDbSymbolTableRecord
100
AcDbBlockTableRecord
  2
A$C539F4AFD
340
0
 70
     1
280
     1
281
     0
  0
BLOCK_RECORD
  5
42F
102
{ACAD_XDICTIONARY
360
527
102
}
330
1
100
AcDbSymbolTableRecord
100
AcDbBlockTableRecord
  2
A$C1BB53514
340
0
 70
     1
280
     1
281
     0
1001
AcDbDynamicBlockGUID
1000
{90423CEA-54F4-42B6-B145-098392DF75EF}
1001
AcDbBlockRepETag
1070
     1
1071
       70
  0
BLOCK_RECORD
  5
534
102
{ACAD_XDICTIONARY
360
5CF
102
}
330
1
100
AcDbSymbolTableRecord
100
AcDbBlockTableRecord
  2
A$C783F31C3
340
0
 70
     1
280
     1
281
     0
1001
AcDbDynamicBlockGUID
1000
{A8D883BD-1CC2-42D7-B30B-58AC648400C6}
1001
AcDbBlockRepETag
1070
     1
1071
       66
  0
BLOCK_RECORD
  5
7A7
102
{ACAD_XDICTIONARY
360
7F6
102
}
330
1
100
AcDbSymbolTableRecord
100
AcDbBlockTableRecord
  2
A$C66450189
340
0
 70
     1
280
     1
281
     0
  0
BLOCK_RECORD
  5
7FA
102
{ACAD_XDICTIONARY
360
8C1
102
}
330
1
100
AcDbSymbolTableRecord
100
AcDbBlockTableRecord
  2
A$C77245723
340
0
102
{BLKREFS
331
84D
102
}
 70
     1
280
     1
281
     0
1001
AcDbDynamicBlockGUID
1000
{F29643EE-5C68-4348-84B6-BF90D78144BC}
1001
AcDbBlockRepETag
1070
     1
1071
       66
  0
BLOCK_RECORD
  5
8D8
330
1
100
AcDbSymbolTableRecord
100
AcDbBlockTableRecord
  2
*D8
340
0
 70
     0
280
     1
281
     0
  0
BLOCK_RECORD
  5
8E4
330
1
100
AcDbSymbolTableRecord
100
AcDbBlockTableRecord
  2
*D9
340
0
 70
     0
280
     1
281
     0
  0
BLOCK_RECORD
  5
96B
330
1
100
AcDbSymbolTableRecord
100
AcDbBlockTableRecord
  2
*D10
340
0
 70
     0
280
     1
281
     0
  0
BLOCK_RECORD
  5
980
330
1
100
AcDbSymbolTableRecord
100
AcDbBlockTableRecord
  2
*D11
340
0
 70
     0
280
     1
281
     0
  0
BLOCK_RECORD
  5
9C1
330
1
100
AcDbSymbolTableRecord
100
AcDbBlockTableRecord
  2
*D12
340
0
 70
     0
280
     1
281
     0
  0
BLOCK_RECORD
  5
9D9
330
1
100
AcDbSymbolTableRecord
100
AcDbBlockTableRecord
  2
*D13
340
0
 70
     0
280
     1
281
     0
  0
BLOCK_RECORD
  5
A00
330
1
100
AcDbSymbolTableRecord
100
AcDbBlockTableRecord
  2
*D14
340
0
 70
     0
280
     1
281
     0
  0
BLOCK_RECORD
  5
A18
330
1
100
AcDbSymbolTableRecord
100
AcDbBlockTableRecord
  2
*D15
340
0
 70
     0
280
     1
281
     0
  0
ENDTAB
  0
ENDSEC
  0
SECTION
  2
BLOCKS
  0
BLOCK
  5
20
330
1F
100
AcDbEntity
  8
0
100
AcDbBlockBegin
  2
*Model_Space
 70
     0
 10
0.0
 20
0.0
 30
0.0
  3
*Model_Space
  1

  0
ENDBLK
  5
21
330
1F
100
AcDbEntity
  8
0
100
AcDbBlockEnd
  0
BLOCK
  5
5A
330
58
100
AcDbEntity
 67
     1
  8
0
100
AcDbBlockBegin
  2
*Paper_Space
 70
     0
 10
0.0
 20
0.0
 30
0.0
  3
*Paper_Space
  1

  0
ENDBLK
  5
5B
330
58
100
AcDbEntity
 67
     1
  8
0
100
AcDbBlockEnd
  0
BLOCK
  5
CD
330
CC
100
AcDbEntity
  8
0
100
AcDbBlockBegin
  2
_Open30
 70
     0
 10
0.0
 20
0.0
 30
0.0
  3
_Open30
  1

  0
LINE
  5
CE
330
CC
100
AcDbEntity
  8
0
  6
ByBlock
 62
     0
370
    -2
100
AcDbLine
 10
-1.0
 20
0.26794919
 30
0.0
 11
0.0
 21
0.0
 31
0.0
  0
LINE
  5
CF
330
CC
100
AcDbEntity
  8
0
  6
ByBlock
 62
     0
370
    -2
100
AcDbLine
 10
0.0
 20
0.0
 30
0.0
 11
-1.0
 21
-0.26794919
 31
0.0
  0
LINE
  5
D0
330
CC
100
AcDbEntity
  8
0
  6
ByBlock
 62
     0
370
    -2
100
AcDbLine
 10
0.0
 20
0.0
 30
0.0
 11
-1.0
 21
0.0
 31
0.0
  0
ENDBLK
  5
D1
330
CC
100
AcDbEntity
  8
0
100
AcDbBlockEnd
  0
BLOCK
  5
274
330
223
100
AcDbEntity
  8
0
100
AcDbBlockBegin
  2
A$C4D404F4F
 70
     0
 10
0.0
 20
0.0
 30
0.0
  3
A$C4D404F4F
  1

  0
LINE
  5
224
330
223
100
AcDbEntity
  8
0
100
AcDbLine
 10
15.0
 20
15.0
 30
0.0
 11
15.00000000000001
 21
195.0
 31
0.0
  0
LINE
  5
225
330
223
100
AcDbEntity
  8
0
100
AcDbLine
 10
0.0000000000000001
 20
0.0000000000000018
 30
0.0
 11
0.0000000000000008
 21
15.0
 31
0.0
  0
LINE
  5
226
330
223
100
AcDbEntity
  8
0
100
AcDbLine
 10
0.0000000000000091
 20
195.0
 30
0.0
 11
0.0000000000000098
 21
210.0
 31
0.0
  0
LINE
  5
227
330
223
100
AcDbEntity
  8
0
100
AcDbLine
 10
15.00000000000001
 20
195.0
 30
0.0
 11
282.0
 21
195.0
 31
0.0
  0
LINE
  5
228
330
223
100
AcDbEntity
  8
0
100
AcDbLine
 10
0.0000000000000098
 20
210.0
 30
0.0
 11
15.00000000000001
 21
210.0
 31
0.0
  0
LINE
  5
229
330
223
100
AcDbEntity
  8
0
100
AcDbLine
 10
282.0
 20
210.0
 30
0.0
 11
297.0
 21
210.0
 31
0.0
  0
LINE
  5
22A
330
223
100
AcDbEntity
  8
0
100
AcDbLine
 10
282.0
 20
195.0
 30
0.0
 11
281.9999999999999
 21
15.0
 31
0.0
  0
LINE
  5
22B
330
223
100
AcDbEntity
  8
0
100
AcDbLine
 10
297.0
 20
210.0
 30
0.0
 11
297.0
 21
195.0
 31
0.0
  0
LINE
  5
22C
330
223
100
AcDbEntity
  8
0
100
AcDbLine
 10
296.9999999999999
 20
15.0
 30
0.0
 11
296.9999999999999
 21
0.0
 31
0.0
  0
LINE
  5
22D
330
223
100
AcDbEntity
  8
0
100
AcDbLine
 10
281.9999999999999
 20
15.0
 30
0.0
 11
15.0
 21
15.0
 31
0.0
  0
LINE
  5
22E
330
223
100
AcDbEntity
  8
0
100
AcDbLine
 10
296.9999999999999
 20
0.0
 30
0.0
 11
281.9999999999999
 21
0.0000000000000001
 31
0.0
  0
LINE
  5
22F
330
223
100
AcDbEntity
  8
0
100
AcDbLine
 10
15.0
 20
0.0000000000000017
 30
0.0
 11
0.0
 21
0.0000000000000018
 31
0.0
  0
LINE
  5
230
330
223
100
AcDbEntity
  8
0
100
AcDbLine
 10
281.9999999999999
 20
30.00000000000001
 30
0.0
 11
212.096194219452
 21
30.00000000000002
 31
0.0
  0
LINE
  5
231
330
223
100
AcDbEntity
  8
0
100
AcDbLine
 10
181.9999999999999
 20
50.0
 30
0.0
 11
181.9999999999999
 21
15.0
 31
0.0
  0
LINE
  5
232
330
223
100
AcDbEntity
  8
0
100
AcDbLine
 10
181.9999999999999
 20
40.0
 30
0.0
 11
281.9999999999999
 21
40.0
 31
0.0
  0
LINE
  5
233
330
223
100
AcDbEntity
  8
0
100
AcDbLine
 10
181.9999999999999
 20
35.00000000000002
 30
0.0
 11
212.096194219452
 21
35.0
 31
0.0
  0
LINE
  5
234
330
223
100
AcDbEntity
  8
0
100
AcDbLine
 10
181.9999999999999
 20
30.00000000000002
 30
0.0
 11
212.096194219452
 21
30.0
 31
0.0
  0
LINE
  5
235
330
223
100
AcDbEntity
  8
0
100
AcDbLine
 10
181.9999999999999
 20
25.00000000000002
 30
0.0
 11
212.096194219452
 21
25.00000000000001
 31
0.0
  0
LINE
  5
236
330
223
100
AcDbEntity
  8
0
100
AcDbLine
 10
181.9999999999999
 20
20.00000000000001
 30
0.0
 11
212.096194219452
 21
20.00000000000001
 31
0.0
  0
LINE
  5
237
330
223
100
AcDbEntity
  8
0
100
AcDbLine
 10
181.9999999999999
 20
50.0
 30
0.0
 11
281.9999999999999
 21
50.0
 31
0.0
  0
LINE
  5
238
330
223
100
AcDbEntity
  8
0
100
AcDbLine
 10
212.096194219452
 20
50.0
 30
0.0
 11
212.096194219452
 21
15.00000000000001
 31
0.0
  0
MTEXT
  5
239
330
223
100
AcDbEntity
  8
0
100
AcDbMText
 10
247.048097109726
 20
23.00000000000001
 30
0.0
 40
20.0
 41
69.90380578054788
 46
14.0
 71
     5
 72
     5
  1
{\fArial Black|b0|i0|c0|p34;\H0.25x;KDA\H0.6x; Corporation}
 73
     1
 44
1.0
  0
MTEXT
  5
23A
330
223
100
AcDbEntity
  8
0
100
AcDbMText
 10
217.0961942194521
 20
44.99999999999999
 30
0.0
 40
3.5
 41
64.90380578054793
 46
10.00000000000002
 71
     4
 72
     5
  1
{\fMS Gothic|b0|i0|c128|p49; \H0.7143x;ARM05-10 アルミナ六角ボルトM5x10L}
 73
     1
 44
1.0
  0
MTEXT
  5
23B
330
223
100
AcDbEntity
  8
0
100
AcDbMText
 10
217.0961942194521
 20
35.0
 30
0.0
 40
3.5
 41
64.90380578054793
 46
10.00000000000001
 71
     4
 72
     5
  1
{\fMS Gothic|b0|i0|c128|p49; \H0.7143x;ZRM05-10 ジルコニア六角ボルトM5x10L}
 73
     1
 44
1.0
  0
MTEXT
  5
23C
330
223
100
AcDbEntity
  8
0
100
AcDbMText
 10
197.0480971097259
 20
32.50000000000002
 30
0.0
 40
2.0
 41
30.09619421945209
 46
5.000000000000011
 71
     5
 72
     5
  1
{\fMS PGothic|b0|i0|c128|p50;W.O 20100422}
 73
     1
 44
1.0
  0
LINE
  5
23D
330
223
100
AcDbEntity
  8
0
100
AcDbLine
 10
148.4999999999999
 20
15.0
 30
0.0
 11
148.4999999999999
 21
10.0
 31
0.0
  0
LINE
  5
23E
330
223
100
AcDbEntity
  8
0
100
AcDbLine
 10
192.9999999999999
 20
15.0
 30
0.0
 11
192.9999999999999
 21
10.0
 31
0.0
  0
LINE
  5
23F
330
223
100
AcDbEntity
  8
0
100
AcDbLine
 10
237.5
 20
15.0
 30
0.0
 11
237.5
 21
10.0
 31
0.0
  0
LINE
  5
240
330
223
100
AcDbEntity
  8
0
100
AcDbLine
 10
104.0
 20
15.0
 30
0.0
 11
104.0
 21
10.0
 31
0.0
  0
LINE
  5
241
330
223
100
AcDbEntity
  8
0
100
AcDbLine
 10
59.49999999999997
 20
15.0
 30
0.0
 11
59.49999999999997
 21
10.0
 31
0.0
  0
LINE
  5
242
330
223
100
AcDbEntity
  8
0
100
AcDbLine
 10
15.0
 20
105.0
 30
0.0
 11
10.0
 21
105.0
 31
0.0
  0
LINE
  5
243
330
223
100
AcDbEntity
  8
0
100
AcDbLine
 10
15.0
 20
150.0
 30
0.0
 11
10.0
 21
150.0
 31
0.0
  0
LINE
  5
244
330
223
100
AcDbEntity
  8
0
100
AcDbLine
 10
15.0
 20
60.0
 30
0.0
 11
10.0
 21
60.0
 31
0.0
  0
LINE
  5
245
330
223
100
AcDbEntity
  8
0
100
AcDbLine
 10
148.4999999999999
 20
195.0
 30
0.0
 11
148.4999999999999
 21
200.0
 31
0.0
  0
LINE
  5
246
330
223
100
AcDbEntity
  8
0
100
AcDbLine
 10
192.9999999999999
 20
195.0
 30
0.0
 11
192.9999999999999
 21
200.0
 31
0.0
  0
LINE
  5
247
330
223
100
AcDbEntity
  8
0
100
AcDbLine
 10
237.5
 20
195.0
 30
0.0
 11
237.5
 21
200.0
 31
0.0
  0
LINE
  5
248
330
223
100
AcDbEntity
  8
0
100
AcDbLine
 10
104.0
 20
195.0
 30
0.0
 11
104.0
 21
200.0
 31
0.0
  0
LINE
  5
249
330
223
100
AcDbEntity
  8
0
100
AcDbLine
 10
59.49999999999997
 20
195.0
 30
0.0
 11
59.49999999999997
 21
200.0
 31
0.0
  0
LINE
  5
24A
330
223
100
AcDbEntity
  8
0
100
AcDbLine
 10
281.9999999999999
 20
105.0
 30
0.0
 11
287.0
 21
105.0
 31
0.0
  0
LINE
  5
24B
330
223
100
AcDbEntity
  8
0
100
AcDbLine
 10
281.9999999999999
 20
150.0
 30
0.0
 11
287.0
 21
150.0
 31
0.0
  0
LINE
  5
24C
330
223
100
AcDbEntity
  8
0
100
AcDbLine
 10
281.9999999999999
 20
60.0
 30
0.0
 11
287.0
 21
60.0
 31
0.0
  0
MTEXT
  5
24D
330
223
100
AcDbEntity
  8
0
100
AcDbMText
 10
37.25
 20
197.5
 30
0.0
 40
2.0
 41
44.49999999999996
 46
5.0
 71
     5
 72
     5
  1
{\fMS PGothic|b0|i0|c128|p50;1}
 73
     1
 44
1.0
  0
MTEXT
  5
24E
330
223
100
AcDbEntity
  8
0
100
AcDbMText
 10
81.74999999999995
 20
197.5
 30
0.0
 40
2.0
 41
44.49999999999996
 46
5.0
 71
     5
 72
     5
  1
{\fMS PGothic|b0|i0|c128|p50;2}
 73
     1
 44
1.0
  0
MTEXT
  5
24F
330
223
100
AcDbEntity
  8
0
100
AcDbMText
 10
126.2499999999999
 20
197.5
 30
0.0
 40
2.0
 41
44.49999999999996
 46
5.0
 71
     5
 72
     5
  1
{\fMS PGothic|b0|i0|c128|p50;3}
 73
     1
 44
1.0
  0
MTEXT
  5
250
330
223
100
AcDbEntity
  8
0
100
AcDbMText
 10
170.7499999999999
 20
197.5
 30
0.0
 40
2.0
 41
44.49999999999996
 46
5.0
 71
     5
 72
     5
  1
{\fMS PGothic|b0|i0|c128|p50;4}
 73
     1
 44
1.0
  0
MTEXT
  5
251
330
223
100
AcDbEntity
  8
0
100
AcDbMText
 10
215.2499999999999
 20
197.5
 30
0.0
 40
2.0
 41
44.49999999999996
 46
5.0
 71
     5
 72
     5
  1
{\fMS PGothic|b0|i0|c128|p50;5}
 73
     1
 44
1.0
  0
MTEXT
  5
252
330
223
100
AcDbEntity
  8
0
100
AcDbMText
 10
259.75
 20
197.5
 30
0.0
 40
2.0
 41
44.49999999999996
 46
5.0
 71
     5
 72
     5
  1
{\fMS PGothic|b0|i0|c128|p50;6}
 73
     1
 44
1.0
  0
MTEXT
  5
253
330
223
100
AcDbEntity
  8
0
100
AcDbMText
 10
37.25
 20
12.5
 30
0.0
 40
2.0
 41
44.49999999999996
 46
5.0
 71
     5
 72
     5
  1
{\fMS PGothic|b0|i0|c128|p50;1}
 73
     1
 44
1.0
  0
MTEXT
  5
254
330
223
100
AcDbEntity
  8
0
100
AcDbMText
 10
81.74999999999995
 20
12.5
 30
0.0
 40
2.0
 41
44.49999999999996
 46
5.0
 71
     5
 72
     5
  1
{\fMS PGothic|b0|i0|c128|p50;2}
 73
     1
 44
1.0
  0
MTEXT
  5
255
330
223
100
AcDbEntity
  8
0
100
AcDbMText
 10
126.2499999999999
 20
12.5
 30
0.0
 40
2.0
 41
44.49999999999996
 46
5.0
 71
     5
 72
     5
  1
{\fMS PGothic|b0|i0|c128|p50;3}
 73
     1
 44
1.0
  0
MTEXT
  5
256
330
223
100
AcDbEntity
  8
0
100
AcDbMText
 10
170.7499999999999
 20
12.5
 30
0.0
 40
2.0
 41
44.49999999999996
 46
5.0
 71
     5
 72
     5
  1
{\fMS PGothic|b0|i0|c128|p50;4}
 73
     1
 44
1.0
  0
MTEXT
  5
257
330
223
100
AcDbEntity
  8
0
100
AcDbMText
 10
215.2499999999999
 20
12.5
 30
0.0
 40
2.0
 41
44.49999999999996
 46
5.0
 71
     5
 72
     5
  1
{\fMS PGothic|b0|i0|c128|p50;5}
 73
     1
 44
1.0
  0
MTEXT
  5
258
330
223
100
AcDbEntity
  8
0
100
AcDbMText
 10
259.75
 20
12.5
 30
0.0
 40
2.0
 41
44.49999999999996
 46
5.0
 71
     5
 72
     5
  1
{\fMS PGothic|b0|i0|c128|p50;6}
 73
     1
 44
1.0
  0
MTEXT
  5
259
330
223
100
AcDbEntity
  8
0
100
AcDbMText
 10
12.5
 20
172.5
 30
0.0
 40
2.0
 41
4.999999999999992
 46
45.0
 71
     5
 72
     5
  1
{\fMS PGothic|b0|i0|c128|p50;A}
 73
     1
 44
1.0
  0
MTEXT
  5
25A
330
223
100
AcDbEntity
  8
0
100
AcDbMText
 10
12.5
 20
127.5
 30
0.0
 40
2.0
 41
4.999999999999992
 46
45.0
 71
     5
 72
     5
  1
{\fMS PGothic|b0|i0|c128|p50;B}
 73
     1
 44
1.0
  0
MTEXT
  5
25B
330
223
100
AcDbEntity
  8
0
100
AcDbMText
 10
12.5
 20
82.5
 30
0.0
 40
2.0
 41
4.999999999999992
 46
45.0
 71
     5
 72
     5
  1
{\fMS PGothic|b0|i0|c128|p50;C}
 73
     1
 44
1.0
  0
MTEXT
  5
25C
330
223
100
AcDbEntity
  8
0
100
AcDbMText
 10
12.5
 20
37.5
 30
0.0
 40
2.0
 41
4.999999999999992
 46
45.0
 71
     5
 72
     5
  1
{\fMS PGothic|b0|i0|c128|p50;D}
 73
     1
 44
1.0
  0
MTEXT
  5
25D
330
223
100
AcDbEntity
  8
0
100
AcDbMText
 10
284.5
 20
172.4999999999999
 30
0.0
 40
2.0
 41
4.999999999999992
 46
45.0
 71
     5
 72
     5
  1
{\fMS PGothic|b0|i0|c128|p50;A}
 73
     1
 44
1.0
  0
MTEXT
  5
25E
330
223
100
AcDbEntity
  8
0
100
AcDbMText
 10
284.5
 20
127.4999999999999
 30
0.0
 40
2.0
 41
4.999999999999992
 46
45.0
 71
     5
 72
     5
  1
{\fMS PGothic|b0|i0|c128|p50;B}
 73
     1
 44
1.0
  0
MTEXT
  5
25F
330
223
100
AcDbEntity
  8
0
100
AcDbMText
 10
284.5
 20
82.49999999999991
 30
0.0
 40
2.0
 41
4.999999999999992
 46
45.0
 71
     5
 72
     5
  1
{\fMS PGothic|b0|i0|c128|p50;C}
 73
     1
 44
1.0
  0
MTEXT
  5
260
330
223
100
AcDbEntity
  8
0
100
AcDbMText
 10
284.5
 20
37.49999999999992
 30
0.0
 40
2.0
 41
4.999999999999992
 46
45.0
 71
     5
 72
     5
  1
{\fMS PGothic|b0|i0|c128|p50;D}
 73
     1
 44
1.0
  0
CIRCLE
  5
261
330
223
100
AcDbEntity
  8
0
100
AcDbCircle
 10
192.0812866212884
 20
45.00834951764214
 30
0.0
 40
2.799999999999998
  0
CIRCLE
  5
262
330
223
100
AcDbEntity
  8
0
100
AcDbCircle
 10
192.0812866212884
 20
45.00834951764214
 30
0.0
 40
1.6
  0
LINE
  5
263
330
223
100
AcDbEntity
  8
0
100
AcDbLine
 10
197.2812866212884
 20
46.60834951764214
 30
0.0
 11
204.0812866212884
 21
47.80834951764214
 31
0.0
  0
LINE
  5
264
330
223
100
AcDbEntity
  8
0
100
AcDbLine
 10
197.2812866212884
 20
46.60834951764214
 30
0.0
 11
197.2812866212884
 21
43.40834951764214
 31
0.0
  0
LINE
  5
265
330
223
100
AcDbEntity
  8
0
100
AcDbLine
 10
204.0812866212884
 20
47.80834951764214
 30
0.0
 11
204.0812866212884
 21
42.20834951764214
 31
0.0
  0
LINE
  5
266
330
223
100
AcDbEntity
  8
0
100
AcDbLine
 10
197.2812866212884
 20
43.40834951764214
 30
0.0
 11
204.0812866212884
 21
42.20834951764214
 31
0.0
  0
LINE
  5
267
330
223
100
AcDbEntity
  8
0
100
AcDbLine
 10
192.0812866212884
 20
48.60834951764214
 30
0.0
 11
192.0812866212884
 21
41.40834951764214
 31
0.0
  0
LINE
  5
268
330
223
100
AcDbEntity
  8
0
100
AcDbLine
 10
188.5066509681369
 20
45.00834951764214
 30
0.0
 11
195.6524624469594
 21
45.00834951764214
 31
0.0
  0
LINE
  5
269
330
223
100
AcDbEntity
  8
0
100
AcDbLine
 10
196.4812866212884
 20
45.00834951764214
 30
0.0
 11
204.8812866212884
 21
45.00834951764214
 31
0.0
  0
MTEXT
  5
26A
330
223
100
AcDbEntity
  8
0
100
AcDbMText
 10
212.096194219452
 20
29.00000000000001
 30
0.0
 40
1.0
 41
8.780474292418944
 46
0.0
 71
     1
 72
     5
  1
{\fMS PGothic|b0|i0|c128|p50;　社　名}
 73
     1
 44
1.0
  0
MTEXT
  5
26B
330
223
100
AcDbEntity
  8
0
100
AcDbMText
 10
212.096194219452
 20
39.0
 30
0.0
 40
1.0
 41
8.780474292418944
 46
0.0
 71
     1
 72
     5
  1
{\fMS PGothic|b0|i0|c128|p50;　品 名 2}
 73
     1
 44
1.0
  0
MTEXT
  5
26C
330
223
100
AcDbEntity
  8
0
100
AcDbMText
 10
212.096194219452
 20
49.00000000000001
 30
0.0
 40
1.0
 41
8.780474292418944
 46
0.0
 71
     1
 72
     5
  1
{\fMS PGothic|b0|i0|c128|p50;　品 名 1}
 73
     1
 44
1.0
  0
MTEXT
  5
26D
330
223
100
AcDbEntity
  8
0
100
AcDbMText
 10
181.9999999999999
 20
49.00000000000001
 30
0.0
 40
1.0
 41
8.780474292418944
 46
0.0
 71
     1
 72
     5
  1
{\fMS PGothic|b0|i0|c128|p50;　図　法}
 73
     1
 44
1.0
  0
MTEXT
  5
26E
330
223
100
AcDbEntity
  8
0
100
AcDbMText
 10
181.9999999999999
 20
34.00000000000002
 30
0.0
 40
1.0
 41
8.780474292418944
 46
0.0
 71
     1
 72
     5
  1
{\fMS PGothic|b0|i0|c128|p50;　製　図}
 73
     1
 44
1.0
  0
MTEXT
  5
26F
330
223
100
AcDbEntity
  8
0
100
AcDbMText
 10
197.0480971097259
 20
37.50000000000002
 30
0.0
 40
2.0
 41
30.09619421945209
 46
5.000000000000011
 71
     5
 72
     5
  1
{\fMS PGothic|b0|i0|c128|p50;1 ： 2}
 73
     1
 44
1.0
  0
MTEXT
  5
270
330
223
100
AcDbEntity
  8
0
100
AcDbMText
 10
181.9999999999999
 20
39.00000000000002
 30
0.0
 40
1.0
 41
8.780474292418944
 46
0.0
 71
     1
 72
     5
  1
{\fMS PGothic|b0|i0|c128|p50;　尺　度}
 73
     1
 44
1.0
  0
MTEXT
  5
271
330
223
100
AcDbEntity
  8
0
100
AcDbMText
 10
224.6818550727283
 20
19.50000000000001
 30
0.0
 40
2.0
 41
57.3181449272716
 46
5.000000000000004
 71
     1
 72
     5
  1
{\fMS Gothic|b0|i0|c128|p49;株式会社 ＫＤＡ\H0.5x; (ケーディーエー)}
 73
     1
 44
1.0
  0
ENDBLK
  5
275
330
223
100
AcDbEntity
  8
0
100
AcDbBlockEnd
  0
BLOCK
  5
2C7
330
276
100
AcDbEntity
  8
0
100
AcDbBlockBegin
  2
A$C2CA859AB
 70
     0
 10
0.0
 20
0.0
 30
0.0
  3
A$C2CA859AB
  1

  0
LINE
  5
277
330
276
100
AcDbEntity
  8
0
100
AcDbLine
 10
15.0
 20
15.0
 30
0.0
 11
15.00000000000001
 21
195.0
 31
0.0
  0
LINE
  5
278
330
276
100
AcDbEntity
  8
0
100
AcDbLine
 10
0.0000000000000001
 20
0.0000000000000018
 30
0.0
 11
0.0000000000000008
 21
15.0
 31
0.0
  0
LINE
  5
279
330
276
100
AcDbEntity
  8
0
100
AcDbLine
 10
0.0000000000000091
 20
195.0
 30
0.0
 11
0.0000000000000098
 21
210.0
 31
0.0
  0
LINE
  5
27A
330
276
100
AcDbEntity
  8
0
100
AcDbLine
 10
15.00000000000001
 20
195.0
 30
0.0
 11
282.0
 21
195.0
 31
0.0
  0
LINE
  5
27B
330
276
100
AcDbEntity
  8
0
100
AcDbLine
 10
0.0000000000000098
 20
210.0
 30
0.0
 11
15.00000000000001
 21
210.0
 31
0.0
  0
LINE
  5
27C
330
276
100
AcDbEntity
  8
0
100
AcDbLine
 10
282.0
 20
210.0
 30
0.0
 11
297.0
 21
210.0
 31
0.0
  0
LINE
  5
27D
330
276
100
AcDbEntity
  8
0
100
AcDbLine
 10
282.0
 20
195.0
 30
0.0
 11
281.9999999999999
 21
15.0
 31
0.0
  0
LINE
  5
27E
330
276
100
AcDbEntity
  8
0
100
AcDbLine
 10
297.0
 20
210.0
 30
0.0
 11
297.0
 21
195.0
 31
0.0
  0
LINE
  5
27F
330
276
100
AcDbEntity
  8
0
100
AcDbLine
 10
296.9999999999999
 20
15.0
 30
0.0
 11
296.9999999999999
 21
0.0
 31
0.0
  0
LINE
  5
280
330
276
100
AcDbEntity
  8
0
100
AcDbLine
 10
281.9999999999999
 20
15.0
 30
0.0
 11
15.0
 21
15.0
 31
0.0
  0
LINE
  5
281
330
276
100
AcDbEntity
  8
0
100
AcDbLine
 10
296.9999999999999
 20
0.0
 30
0.0
 11
281.9999999999999
 21
0.0000000000000001
 31
0.0
  0
LINE
  5
282
330
276
100
AcDbEntity
  8
0
100
AcDbLine
 10
15.0
 20
0.0000000000000017
 30
0.0
 11
0.0
 21
0.0000000000000018
 31
0.0
  0
LINE
  5
283
330
276
100
AcDbEntity
  8
0
100
AcDbLine
 10
281.9999999999999
 20
30.00000000000001
 30
0.0
 11
212.096194219452
 21
30.00000000000002
 31
0.0
  0
LINE
  5
284
330
276
100
AcDbEntity
  8
0
100
AcDbLine
 10
181.9999999999999
 20
50.0
 30
0.0
 11
181.9999999999999
 21
15.0
 31
0.0
  0
LINE
  5
285
330
276
100
AcDbEntity
  8
0
100
AcDbLine
 10
181.9999999999999
 20
40.0
 30
0.0
 11
281.9999999999999
 21
40.0
 31
0.0
  0
LINE
  5
286
330
276
100
AcDbEntity
  8
0
100
AcDbLine
 10
181.9999999999999
 20
35.00000000000002
 30
0.0
 11
212.096194219452
 21
35.0
 31
0.0
  0
LINE
  5
287
330
276
100
AcDbEntity
  8
0
100
AcDbLine
 10
181.9999999999999
 20
30.00000000000002
 30
0.0
 11
212.096194219452
 21
30.0
 31
0.0
  0
LINE
  5
288
330
276
100
AcDbEntity
  8
0
100
AcDbLine
 10
181.9999999999999
 20
25.00000000000002
 30
0.0
 11
212.096194219452
 21
25.00000000000001
 31
0.0
  0
LINE
  5
289
330
276
100
AcDbEntity
  8
0
100
AcDbLine
 10
181.9999999999999
 20
20.00000000000001
 30
0.0
 11
212.096194219452
 21
20.00000000000001
 31
0.0
  0
LINE
  5
28A
330
276
100
AcDbEntity
  8
0
100
AcDbLine
 10
181.9999999999999
 20
50.0
 30
0.0
 11
281.9999999999999
 21
50.0
 31
0.0
  0
LINE
  5
28B
330
276
100
AcDbEntity
  8
0
100
AcDbLine
 10
212.096194219452
 20
50.0
 30
0.0
 11
212.096194219452
 21
15.00000000000001
 31
0.0
  0
MTEXT
  5
28C
330
276
100
AcDbEntity
  8
0
100
AcDbMText
 10
247.048097109726
 20
23.00000000000001
 30
0.0
 40
20.0
 41
69.90380578054788
 46
14.0
 71
     5
 72
     5
  1
{\fArial Black|b0|i0|c0|p34;\H0.25x;KDA\H0.6x; Corporation}
 73
     1
 44
1.0
  0
MTEXT
  5
28D
330
276
100
AcDbEntity
  8
0
100
AcDbMText
 10
217.0961942194521
 20
44.99999999999999
 30
0.0
 40
3.5
 41
64.90380578054793
 46
10.00000000000002
 71
     4
 72
     5
  1
{\fMS Gothic|b0|i0|c128|p49; \H0.7143x;ARM05-10 アルミナ六角ボルトM5x10L}
 73
     1
 44
1.0
  0
MTEXT
  5
28E
330
276
100
AcDbEntity
  8
0
100
AcDbMText
 10
217.0961942194521
 20
35.0
 30
0.0
 40
3.5
 41
64.90380578054793
 46
10.00000000000001
 71
     4
 72
     5
  1
{\fMS Gothic|b0|i0|c128|p49; \H0.7143x;ZRM05-10 ジルコニア六角ボルトM5x10L}
 73
     1
 44
1.0
  0
MTEXT
  5
28F
330
276
100
AcDbEntity
  8
0
100
AcDbMText
 10
197.0480971097259
 20
32.50000000000002
 30
0.0
 40
2.0
 41
30.09619421945209
 46
5.000000000000011
 71
     5
 72
     5
  1
{\fMS PGothic|b0|i0|c128|p50;W.O 20100422}
 73
     1
 44
1.0
  0
LINE
  5
290
330
276
100
AcDbEntity
  8
0
100
AcDbLine
 10
148.4999999999999
 20
15.0
 30
0.0
 11
148.4999999999999
 21
10.0
 31
0.0
  0
LINE
  5
291
330
276
100
AcDbEntity
  8
0
100
AcDbLine
 10
192.9999999999999
 20
15.0
 30
0.0
 11
192.9999999999999
 21
10.0
 31
0.0
  0
LINE
  5
292
330
276
100
AcDbEntity
  8
0
100
AcDbLine
 10
237.5
 20
15.0
 30
0.0
 11
237.5
 21
10.0
 31
0.0
  0
LINE
  5
293
330
276
100
AcDbEntity
  8
0
100
AcDbLine
 10
104.0
 20
15.0
 30
0.0
 11
104.0
 21
10.0
 31
0.0
  0
LINE
  5
294
330
276
100
AcDbEntity
  8
0
100
AcDbLine
 10
59.49999999999997
 20
15.0
 30
0.0
 11
59.49999999999997
 21
10.0
 31
0.0
  0
LINE
  5
295
330
276
100
AcDbEntity
  8
0
100
AcDbLine
 10
15.0
 20
105.0
 30
0.0
 11
10.0
 21
105.0
 31
0.0
  0
LINE
  5
296
330
276
100
AcDbEntity
  8
0
100
AcDbLine
 10
15.0
 20
150.0
 30
0.0
 11
10.0
 21
150.0
 31
0.0
  0
LINE
  5
297
330
276
100
AcDbEntity
  8
0
100
AcDbLine
 10
15.0
 20
60.0
 30
0.0
 11
10.0
 21
60.0
 31
0.0
  0
LINE
  5
298
330
276
100
AcDbEntity
  8
0
100
AcDbLine
 10
148.4999999999999
 20
195.0
 30
0.0
 11
148.4999999999999
 21
200.0
 31
0.0
  0
LINE
  5
299
330
276
100
AcDbEntity
  8
0
100
AcDbLine
 10
192.9999999999999
 20
195.0
 30
0.0
 11
192.9999999999999
 21
200.0
 31
0.0
  0
LINE
  5
29A
330
276
100
AcDbEntity
  8
0
100
AcDbLine
 10
237.5
 20
195.0
 30
0.0
 11
237.5
 21
200.0
 31
0.0
  0
LINE
  5
29B
330
276
100
AcDbEntity
  8
0
100
AcDbLine
 10
104.0
 20
195.0
 30
0.0
 11
104.0
 21
200.0
 31
0.0
  0
LINE
  5
29C
330
276
100
AcDbEntity
  8
0
100
AcDbLine
 10
59.49999999999997
 20
195.0
 30
0.0
 11
59.49999999999997
 21
200.0
 31
0.0
  0
LINE
  5
29D
330
276
100
AcDbEntity
  8
0
100
AcDbLine
 10
281.9999999999999
 20
105.0
 30
0.0
 11
287.0
 21
105.0
 31
0.0
  0
LINE
  5
29E
330
276
100
AcDbEntity
  8
0
100
AcDbLine
 10
281.9999999999999
 20
150.0
 30
0.0
 11
287.0
 21
150.0
 31
0.0
  0
LINE
  5
29F
330
276
100
AcDbEntity
  8
0
100
AcDbLine
 10
281.9999999999999
 20
60.0
 30
0.0
 11
287.0
 21
60.0
 31
0.0
  0
MTEXT
  5
2A0
330
276
100
AcDbEntity
  8
0
100
AcDbMText
 10
37.25
 20
197.5
 30
0.0
 40
2.0
 41
44.49999999999996
 46
5.0
 71
     5
 72
     5
  1
{\fMS PGothic|b0|i0|c128|p50;1}
 73
     1
 44
1.0
  0
MTEXT
  5
2A1
330
276
100
AcDbEntity
  8
0
100
AcDbMText
 10
81.74999999999995
 20
197.5
 30
0.0
 40
2.0
 41
44.49999999999996
 46
5.0
 71
     5
 72
     5
  1
{\fMS PGothic|b0|i0|c128|p50;2}
 73
     1
 44
1.0
  0
MTEXT
  5
2A2
330
276
100
AcDbEntity
  8
0
100
AcDbMText
 10
126.2499999999999
 20
197.5
 30
0.0
 40
2.0
 41
44.49999999999996
 46
5.0
 71
     5
 72
     5
  1
{\fMS PGothic|b0|i0|c128|p50;3}
 73
     1
 44
1.0
  0
MTEXT
  5
2A3
330
276
100
AcDbEntity
  8
0
100
AcDbMText
 10
170.7499999999999
 20
197.5
 30
0.0
 40
2.0
 41
44.49999999999996
 46
5.0
 71
     5
 72
     5
  1
{\fMS PGothic|b0|i0|c128|p50;4}
 73
     1
 44
1.0
  0
MTEXT
  5
2A4
330
276
100
AcDbEntity
  8
0
100
AcDbMText
 10
215.2499999999999
 20
197.5
 30
0.0
 40
2.0
 41
44.49999999999996
 46
5.0
 71
     5
 72
     5
  1
{\fMS PGothic|b0|i0|c128|p50;5}
 73
     1
 44
1.0
  0
MTEXT
  5
2A5
330
276
100
AcDbEntity
  8
0
100
AcDbMText
 10
259.75
 20
197.5
 30
0.0
 40
2.0
 41
44.49999999999996
 46
5.0
 71
     5
 72
     5
  1
{\fMS PGothic|b0|i0|c128|p50;6}
 73
     1
 44
1.0
  0
MTEXT
  5
2A6
330
276
100
AcDbEntity
  8
0
100
AcDbMText
 10
37.25
 20
12.5
 30
0.0
 40
2.0
 41
44.49999999999996
 46
5.0
 71
     5
 72
     5
  1
{\fMS PGothic|b0|i0|c128|p50;1}
 73
     1
 44
1.0
  0
MTEXT
  5
2A7
330
276
100
AcDbEntity
  8
0
100
AcDbMText
 10
81.74999999999995
 20
12.5
 30
0.0
 40
2.0
 41
44.49999999999996
 46
5.0
 71
     5
 72
     5
  1
{\fMS PGothic|b0|i0|c128|p50;2}
 73
     1
 44
1.0
  0
MTEXT
  5
2A8
330
276
100
AcDbEntity
  8
0
100
AcDbMText
 10
126.2499999999999
 20
12.5
 30
0.0
 40
2.0
 41
44.49999999999996
 46
5.0
 71
     5
 72
     5
  1
{\fMS PGothic|b0|i0|c128|p50;3}
 73
     1
 44
1.0
  0
MTEXT
  5
2A9
330
276
100
AcDbEntity
  8
0
100
AcDbMText
 10
170.7499999999999
 20
12.5
 30
0.0
 40
2.0
 41
44.49999999999996
 46
5.0
 71
     5
 72
     5
  1
{\fMS PGothic|b0|i0|c128|p50;4}
 73
     1
 44
1.0
  0
MTEXT
  5
2AA
330
276
100
AcDbEntity
  8
0
100
AcDbMText
 10
215.2499999999999
 20
12.5
 30
0.0
 40
2.0
 41
44.49999999999996
 46
5.0
 71
     5
 72
     5
  1
{\fMS PGothic|b0|i0|c128|p50;5}
 73
     1
 44
1.0
  0
MTEXT
  5
2AB
330
276
100
AcDbEntity
  8
0
100
AcDbMText
 10
259.75
 20
12.5
 30
0.0
 40
2.0
 41
44.49999999999996
 46
5.0
 71
     5
 72
     5
  1
{\fMS PGothic|b0|i0|c128|p50;6}
 73
     1
 44
1.0
  0
MTEXT
  5
2AC
330
276
100
AcDbEntity
  8
0
100
AcDbMText
 10
12.5
 20
172.5
 30
0.0
 40
2.0
 41
4.999999999999992
 46
45.0
 71
     5
 72
     5
  1
{\fMS PGothic|b0|i0|c128|p50;A}
 73
     1
 44
1.0
  0
MTEXT
  5
2AD
330
276
100
AcDbEntity
  8
0
100
AcDbMText
 10
12.5
 20
127.5
 30
0.0
 40
2.0
 41
4.999999999999992
 46
45.0
 71
     5
 72
     5
  1
{\fMS PGothic|b0|i0|c128|p50;B}
 73
     1
 44
1.0
  0
MTEXT
  5
2AE
330
276
100
AcDbEntity
  8
0
100
AcDbMText
 10
12.5
 20
82.5
 30
0.0
 40
2.0
 41
4.999999999999992
 46
45.0
 71
     5
 72
     5
  1
{\fMS PGothic|b0|i0|c128|p50;C}
 73
     1
 44
1.0
  0
MTEXT
  5
2AF
330
276
100
AcDbEntity
  8
0
100
AcDbMText
 10
12.5
 20
37.5
 30
0.0
 40
2.0
 41
4.999999999999992
 46
45.0
 71
     5
 72
     5
  1
{\fMS PGothic|b0|i0|c128|p50;D}
 73
     1
 44
1.0
  0
MTEXT
  5
2B0
330
276
100
AcDbEntity
  8
0
100
AcDbMText
 10
284.5
 20
172.4999999999999
 30
0.0
 40
2.0
 41
4.999999999999992
 46
45.0
 71
     5
 72
     5
  1
{\fMS PGothic|b0|i0|c128|p50;A}
 73
     1
 44
1.0
  0
MTEXT
  5
2B1
330
276
100
AcDbEntity
  8
0
100
AcDbMText
 10
284.5
 20
127.4999999999999
 30
0.0
 40
2.0
 41
4.999999999999992
 46
45.0
 71
     5
 72
     5
  1
{\fMS PGothic|b0|i0|c128|p50;B}
 73
     1
 44
1.0
  0
MTEXT
  5
2B2
330
276
100
AcDbEntity
  8
0
100
AcDbMText
 10
284.5
 20
82.49999999999991
 30
0.0
 40
2.0
 41
4.999999999999992
 46
45.0
 71
     5
 72
     5
  1
{\fMS PGothic|b0|i0|c128|p50;C}
 73
     1
 44
1.0
  0
MTEXT
  5
2B3
330
276
100
AcDbEntity
  8
0
100
AcDbMText
 10
284.5
 20
37.49999999999992
 30
0.0
 40
2.0
 41
4.999999999999992
 46
45.0
 71
     5
 72
     5
  1
{\fMS PGothic|b0|i0|c128|p50;D}
 73
     1
 44
1.0
  0
CIRCLE
  5
2B4
330
276
100
AcDbEntity
  8
0
100
AcDbCircle
 10
192.0812866212884
 20
45.00834951764214
 30
0.0
 40
2.799999999999998
  0
CIRCLE
  5
2B5
330
276
100
AcDbEntity
  8
0
100
AcDbCircle
 10
192.0812866212884
 20
45.00834951764214
 30
0.0
 40
1.6
  0
LINE
  5
2B6
330
276
100
AcDbEntity
  8
0
100
AcDbLine
 10
197.2812866212884
 20
46.60834951764214
 30
0.0
 11
204.0812866212884
 21
47.80834951764214
 31
0.0
  0
LINE
  5
2B7
330
276
100
AcDbEntity
  8
0
100
AcDbLine
 10
197.2812866212884
 20
46.60834951764214
 30
0.0
 11
197.2812866212884
 21
43.40834951764214
 31
0.0
  0
LINE
  5
2B8
330
276
100
AcDbEntity
  8
0
100
AcDbLine
 10
204.0812866212884
 20
47.80834951764214
 30
0.0
 11
204.0812866212884
 21
42.20834951764214
 31
0.0
  0
LINE
  5
2B9
330
276
100
AcDbEntity
  8
0
100
AcDbLine
 10
197.2812866212884
 20
43.40834951764214
 30
0.0
 11
204.0812866212884
 21
42.20834951764214
 31
0.0
  0
LINE
  5
2BA
330
276
100
AcDbEntity
  8
0
100
AcDbLine
 10
192.0812866212884
 20
48.60834951764214
 30
0.0
 11
192.0812866212884
 21
41.40834951764214
 31
0.0
  0
LINE
  5
2BB
330
276
100
AcDbEntity
  8
0
100
AcDbLine
 10
188.5066509681369
 20
45.00834951764214
 30
0.0
 11
195.6524624469594
 21
45.00834951764214
 31
0.0
  0
LINE
  5
2BC
330
276
100
AcDbEntity
  8
0
100
AcDbLine
 10
196.4812866212884
 20
45.00834951764214
 30
0.0
 11
204.8812866212884
 21
45.00834951764214
 31
0.0
  0
MTEXT
  5
2BD
330
276
100
AcDbEntity
  8
0
100
AcDbMText
 10
212.096194219452
 20
29.00000000000001
 30
0.0
 40
1.0
 41
8.780474292418944
 46
0.0
 71
     1
 72
     5
  1
{\fMS PGothic|b0|i0|c128|p50;　社　名}
 73
     1
 44
1.0
  0
MTEXT
  5
2BE
330
276
100
AcDbEntity
  8
0
100
AcDbMText
 10
212.096194219452
 20
39.0
 30
0.0
 40
1.0
 41
8.780474292418944
 46
0.0
 71
     1
 72
     5
  1
{\fMS PGothic|b0|i0|c128|p50;　品 名 2}
 73
     1
 44
1.0
  0
MTEXT
  5
2BF
330
276
100
AcDbEntity
  8
0
100
AcDbMText
 10
212.096194219452
 20
49.00000000000001
 30
0.0
 40
1.0
 41
8.780474292418944
 46
0.0
 71
     1
 72
     5
  1
{\fMS PGothic|b0|i0|c128|p50;　品 名 1}
 73
     1
 44
1.0
  0
MTEXT
  5
2C0
330
276
100
AcDbEntity
  8
0
100
AcDbMText
 10
181.9999999999999
 20
49.00000000000001
 30
0.0
 40
1.0
 41
8.780474292418944
 46
0.0
 71
     1
 72
     5
  1
{\fMS PGothic|b0|i0|c128|p50;　図　法}
 73
     1
 44
1.0
  0
MTEXT
  5
2C1
330
276
100
AcDbEntity
  8
0
100
AcDbMText
 10
181.9999999999999
 20
34.00000000000002
 30
0.0
 40
1.0
 41
8.780474292418944
 46
0.0
 71
     1
 72
     5
  1
{\fMS PGothic|b0|i0|c128|p50;　製　図}
 73
     1
 44
1.0
  0
MTEXT
  5
2C2
330
276
100
AcDbEntity
  8
0
100
AcDbMText
 10
197.0480971097259
 20
37.50000000000002
 30
0.0
 40
2.0
 41
30.09619421945209
 46
5.000000000000011
 71
     5
 72
     5
  1
{\fMS PGothic|b0|i0|c128|p50;1 ： 2}
 73
     1
 44
1.0
  0
MTEXT
  5
2C3
330
276
100
AcDbEntity
  8
0
100
AcDbMText
 10
181.9999999999999
 20
39.00000000000002
 30
0.0
 40
1.0
 41
8.780474292418944
 46
0.0
 71
     1
 72
     5
  1
{\fMS PGothic|b0|i0|c128|p50;　尺　度}
 73
     1
 44
1.0
  0
MTEXT
  5
2C4
330
276
100
AcDbEntity
  8
0
100
AcDbMText
 10
224.6818550727283
 20
19.50000000000001
 30
0.0
 40
2.0
 41
57.3181449272716
 46
5.000000000000004
 71
     1
 72
     5
  1
{\fMS Gothic|b0|i0|c128|p49;株式会社 ＫＤＡ\H0.5x; (ケーディーエー)}
 73
     1
 44
1.0
  0
ENDBLK
  5
2C8
330
276
100
AcDbEntity
  8
0
100
AcDbBlockEnd
  0
BLOCK
  5
36D
330
31E
100
AcDbEntity
  8
0
100
AcDbBlockBegin
  2
A$C539F4AFD
 70
     0
 10
0.0
 20
0.0
 30
0.0
  3
A$C539F4AFD
  1

  0
LINE
  5
31F
330
31E
100
AcDbEntity
  8
0
100
AcDbLine
 10
15.0
 20
15.0
 30
0.0
 11
15.00000000000001
 21
195.0
 31
0.0
  0
LINE
  5
320
330
31E
100
AcDbEntity
  8
0
100
AcDbLine
 10
0.0000000000000001
 20
0.0000000000000018
 30
0.0
 11
0.0000000000000008
 21
15.0
 31
0.0
  0
LINE
  5
321
330
31E
100
AcDbEntity
  8
0
100
AcDbLine
 10
0.0000000000000091
 20
195.0
 30
0.0
 11
0.0000000000000098
 21
210.0
 31
0.0
  0
LINE
  5
322
330
31E
100
AcDbEntity
  8
0
100
AcDbLine
 10
15.00000000000001
 20
195.0
 30
0.0
 11
282.0
 21
195.0
 31
0.0
  0
LINE
  5
323
330
31E
100
AcDbEntity
  8
0
100
AcDbLine
 10
0.0000000000000098
 20
210.0
 30
0.0
 11
15.00000000000001
 21
210.0
 31
0.0
  0
LINE
  5
324
330
31E
100
AcDbEntity
  8
0
100
AcDbLine
 10
282.0
 20
210.0
 30
0.0
 11
297.0
 21
210.0
 31
0.0
  0
LINE
  5
325
330
31E
100
AcDbEntity
  8
0
100
AcDbLine
 10
282.0
 20
195.0
 30
0.0
 11
281.9999999999999
 21
15.0
 31
0.0
  0
LINE
  5
326
330
31E
100
AcDbEntity
  8
0
100
AcDbLine
 10
297.0
 20
210.0
 30
0.0
 11
297.0
 21
195.0
 31
0.0
  0
LINE
  5
327
330
31E
100
AcDbEntity
  8
0
100
AcDbLine
 10
296.9999999999999
 20
15.0
 30
0.0
 11
296.9999999999999
 21
0.0
 31
0.0
  0
LINE
  5
328
330
31E
100
AcDbEntity
  8
0
100
AcDbLine
 10
281.9999999999999
 20
15.0
 30
0.0
 11
15.0
 21
15.0
 31
0.0
  0
LINE
  5
329
330
31E
100
AcDbEntity
  8
0
100
AcDbLine
 10
296.9999999999999
 20
0.0
 30
0.0
 11
281.9999999999999
 21
0.0000000000000001
 31
0.0
  0
LINE
  5
32A
330
31E
100
AcDbEntity
  8
0
100
AcDbLine
 10
15.0
 20
0.0000000000000017
 30
0.0
 11
0.0
 21
0.0000000000000018
 31
0.0
  0
LINE
  5
32B
330
31E
100
AcDbEntity
  8
0
100
AcDbLine
 10
281.9999999999999
 20
30.00000000000001
 30
0.0
 11
212.096194219452
 21
30.00000000000002
 31
0.0
  0
LINE
  5
32C
330
31E
100
AcDbEntity
  8
0
100
AcDbLine
 10
181.9999999999999
 20
50.0
 30
0.0
 11
181.9999999999999
 21
15.0
 31
0.0
  0
LINE
  5
32D
330
31E
100
AcDbEntity
  8
0
100
AcDbLine
 10
181.9999999999999
 20
40.0
 30
0.0
 11
281.9999999999999
 21
40.0
 31
0.0
  0
LINE
  5
32E
330
31E
100
AcDbEntity
  8
0
100
AcDbLine
 10
181.9999999999999
 20
35.00000000000002
 30
0.0
 11
212.096194219452
 21
35.0
 31
0.0
  0
LINE
  5
32F
330
31E
100
AcDbEntity
  8
0
100
AcDbLine
 10
181.9999999999999
 20
30.00000000000002
 30
0.0
 11
212.096194219452
 21
30.0
 31
0.0
  0
LINE
  5
330
330
31E
100
AcDbEntity
  8
0
100
AcDbLine
 10
181.9999999999999
 20
25.00000000000002
 30
0.0
 11
212.096194219452
 21
25.00000000000001
 31
0.0
  0
LINE
  5
331
330
31E
100
AcDbEntity
  8
0
100
AcDbLine
 10
181.9999999999999
 20
20.00000000000001
 30
0.0
 11
212.096194219452
 21
20.00000000000001
 31
0.0
  0
LINE
  5
332
330
31E
100
AcDbEntity
  8
0
100
AcDbLine
 10
181.9999999999999
 20
50.0
 30
0.0
 11
281.9999999999999
 21
50.0
 31
0.0
  0
LINE
  5
333
330
31E
100
AcDbEntity
  8
0
100
AcDbLine
 10
212.096194219452
 20
50.0
 30
0.0
 11
212.096194219452
 21
15.00000000000001
 31
0.0
  0
MTEXT
  5
334
330
31E
100
AcDbEntity
  8
0
100
AcDbMText
 10
247.048097109726
 20
23.00000000000001
 30
0.0
 40
20.0
 41
69.90380578054788
 46
14.0
 71
     5
 72
     5
  1
{\fArial Black|b0|i0|c0|p34;\H0.25x;KDA\H0.6x; Corporation}
 73
     1
 44
1.0
  0
MTEXT
  5
335
330
31E
100
AcDbEntity
  8
0
100
AcDbMText
 10
217.0961942194521
 20
44.99999999999999
 30
0.0
 40
3.5
 41
64.90380578054793
 46
10.00000000000002
 71
     4
 72
     5
  1
{\fMS Gothic|b0|i0|c128|p49; \H0.7143x;ARM05-10 アルミナ六角ボルトM5x10L}
 73
     1
 44
1.0
  0
MTEXT
  5
336
330
31E
100
AcDbEntity
  8
0
100
AcDbMText
 10
217.0961942194521
 20
35.0
 30
0.0
 40
3.5
 41
64.90380578054793
 46
10.00000000000001
 71
     4
 72
     5
  1
{\fMS Gothic|b0|i0|c128|p49; \H0.7143x;ZRM05-10 ジルコニア六角ボルトM5x10L}
 73
     1
 44
1.0
  0
MTEXT
  5
337
330
31E
100
AcDbEntity
  8
0
100
AcDbMText
 10
197.0480971097259
 20
32.50000000000002
 30
0.0
 40
2.0
 41
30.09619421945209
 46
5.000000000000011
 71
     5
 72
     5
  1
{\fMS PGothic|b0|i0|c128|p50;W.O 20100422}
 73
     1
 44
1.0
  0
LINE
  5
338
330
31E
100
AcDbEntity
  8
0
100
AcDbLine
 10
148.4999999999999
 20
15.0
 30
0.0
 11
148.4999999999999
 21
10.0
 31
0.0
  0
LINE
  5
339
330
31E
100
AcDbEntity
  8
0
100
AcDbLine
 10
192.9999999999999
 20
15.0
 30
0.0
 11
192.9999999999999
 21
10.0
 31
0.0
  0
LINE
  5
33A
330
31E
100
AcDbEntity
  8
0
100
AcDbLine
 10
237.5
 20
15.0
 30
0.0
 11
237.5
 21
10.0
 31
0.0
  0
LINE
  5
33B
330
31E
100
AcDbEntity
  8
0
100
AcDbLine
 10
104.0
 20
15.0
 30
0.0
 11
104.0
 21
10.0
 31
0.0
  0
LINE
  5
33C
330
31E
100
AcDbEntity
  8
0
100
AcDbLine
 10
59.49999999999997
 20
15.0
 30
0.0
 11
59.49999999999997
 21
10.0
 31
0.0
  0
LINE
  5
33D
330
31E
100
AcDbEntity
  8
0
100
AcDbLine
 10
15.0
 20
105.0
 30
0.0
 11
10.0
 21
105.0
 31
0.0
  0
LINE
  5
33E
330
31E
100
AcDbEntity
  8
0
100
AcDbLine
 10
15.0
 20
150.0
 30
0.0
 11
10.0
 21
150.0
 31
0.0
  0
LINE
  5
33F
330
31E
100
AcDbEntity
  8
0
100
AcDbLine
 10
15.0
 20
60.0
 30
0.0
 11
10.0
 21
60.0
 31
0.0
  0
LINE
  5
340
330
31E
100
AcDbEntity
  8
0
100
AcDbLine
 10
148.4999999999999
 20
195.0
 30
0.0
 11
148.4999999999999
 21
200.0
 31
0.0
  0
LINE
  5
341
330
31E
100
AcDbEntity
  8
0
100
AcDbLine
 10
192.9999999999999
 20
195.0
 30
0.0
 11
192.9999999999999
 21
200.0
 31
0.0
  0
LINE
  5
342
330
31E
100
AcDbEntity
  8
0
100
AcDbLine
 10
237.5
 20
195.0
 30
0.0
 11
237.5
 21
200.0
 31
0.0
  0
LINE
  5
343
330
31E
100
AcDbEntity
  8
0
100
AcDbLine
 10
104.0
 20
195.0
 30
0.0
 11
104.0
 21
200.0
 31
0.0
  0
LINE
  5
344
330
31E
100
AcDbEntity
  8
0
100
AcDbLine
 10
59.49999999999997
 20
195.0
 30
0.0
 11
59.49999999999997
 21
200.0
 31
0.0
  0
LINE
  5
345
330
31E
100
AcDbEntity
  8
0
100
AcDbLine
 10
281.9999999999999
 20
105.0
 30
0.0
 11
287.0
 21
105.0
 31
0.0
  0
LINE
  5
346
330
31E
100
AcDbEntity
  8
0
100
AcDbLine
 10
281.9999999999999
 20
150.0
 30
0.0
 11
287.0
 21
150.0
 31
0.0
  0
LINE
  5
347
330
31E
100
AcDbEntity
  8
0
100
AcDbLine
 10
281.9999999999999
 20
60.0
 30
0.0
 11
287.0
 21
60.0
 31
0.0
  0
MTEXT
  5
348
330
31E
100
AcDbEntity
  8
0
100
AcDbMText
 10
37.25
 20
197.5
 30
0.0
 40
2.0
 41
44.49999999999996
 46
5.0
 71
     5
 72
     5
  1
{\fMS PGothic|b0|i0|c128|p50;1}
 73
     1
 44
1.0
  0
MTEXT
  5
349
330
31E
100
AcDbEntity
  8
0
100
AcDbMText
 10
81.74999999999995
 20
197.5
 30
0.0
 40
2.0
 41
44.49999999999996
 46
5.0
 71
     5
 72
     5
  1
{\fMS PGothic|b0|i0|c128|p50;2}
 73
     1
 44
1.0
  0
MTEXT
  5
34A
330
31E
100
AcDbEntity
  8
0
100
AcDbMText
 10
126.2499999999999
 20
197.5
 30
0.0
 40
2.0
 41
44.49999999999996
 46
5.0
 71
     5
 72
     5
  1
{\fMS PGothic|b0|i0|c128|p50;3}
 73
     1
 44
1.0
  0
MTEXT
  5
34B
330
31E
100
AcDbEntity
  8
0
100
AcDbMText
 10
170.7499999999999
 20
197.5
 30
0.0
 40
2.0
 41
44.49999999999996
 46
5.0
 71
     5
 72
     5
  1
{\fMS PGothic|b0|i0|c128|p50;4}
 73
     1
 44
1.0
  0
MTEXT
  5
34C
330
31E
100
AcDbEntity
  8
0
100
AcDbMText
 10
215.2499999999999
 20
197.5
 30
0.0
 40
2.0
 41
44.49999999999996
 46
5.0
 71
     5
 72
     5
  1
{\fMS PGothic|b0|i0|c128|p50;5}
 73
     1
 44
1.0
  0
MTEXT
  5
34D
330
31E
100
AcDbEntity
  8
0
100
AcDbMText
 10
259.75
 20
197.5
 30
0.0
 40
2.0
 41
44.49999999999996
 46
5.0
 71
     5
 72
     5
  1
{\fMS PGothic|b0|i0|c128|p50;6}
 73
     1
 44
1.0
  0
MTEXT
  5
34E
330
31E
100
AcDbEntity
  8
0
100
AcDbMText
 10
37.25
 20
12.5
 30
0.0
 40
2.0
 41
44.49999999999996
 46
5.0
 71
     5
 72
     5
  1
{\fMS PGothic|b0|i0|c128|p50;1}
 73
     1
 44
1.0
  0
MTEXT
  5
34F
330
31E
100
AcDbEntity
  8
0
100
AcDbMText
 10
81.74999999999995
 20
12.5
 30
0.0
 40
2.0
 41
44.49999999999996
 46
5.0
 71
     5
 72
     5
  1
{\fMS PGothic|b0|i0|c128|p50;2}
 73
     1
 44
1.0
  0
MTEXT
  5
350
330
31E
100
AcDbEntity
  8
0
100
AcDbMText
 10
126.2499999999999
 20
12.5
 30
0.0
 40
2.0
 41
44.49999999999996
 46
5.0
 71
     5
 72
     5
  1
{\fMS PGothic|b0|i0|c128|p50;3}
 73
     1
 44
1.0
  0
MTEXT
  5
351
330
31E
100
AcDbEntity
  8
0
100
AcDbMText
 10
170.7499999999999
 20
12.5
 30
0.0
 40
2.0
 41
44.49999999999996
 46
5.0
 71
     5
 72
     5
  1
{\fMS PGothic|b0|i0|c128|p50;4}
 73
     1
 44
1.0
  0
MTEXT
  5
352
330
31E
100
AcDbEntity
  8
0
100
AcDbMText
 10
215.2499999999999
 20
12.5
 30
0.0
 40
2.0
 41
44.49999999999996
 46
5.0
 71
     5
 72
     5
  1
{\fMS PGothic|b0|i0|c128|p50;5}
 73
     1
 44
1.0
  0
MTEXT
  5
353
330
31E
100
AcDbEntity
  8
0
100
AcDbMText
 10
259.75
 20
12.5
 30
0.0
 40
2.0
 41
44.49999999999996
 46
5.0
 71
     5
 72
     5
  1
{\fMS PGothic|b0|i0|c128|p50;6}
 73
     1
 44
1.0
  0
MTEXT
  5
354
330
31E
100
AcDbEntity
  8
0
100
AcDbMText
 10
12.5
 20
172.5
 30
0.0
 40
2.0
 41
4.999999999999992
 46
45.0
 71
     5
 72
     5
  1
{\fMS PGothic|b0|i0|c128|p50;A}
 73
     1
 44
1.0
  0
MTEXT
  5
355
330
31E
100
AcDbEntity
  8
0
100
AcDbMText
 10
12.5
 20
127.5
 30
0.0
 40
2.0
 41
4.999999999999992
 46
45.0
 71
     5
 72
     5
  1
{\fMS PGothic|b0|i0|c128|p50;B}
 73
     1
 44
1.0
  0
MTEXT
  5
356
330
31E
100
AcDbEntity
  8
0
100
AcDbMText
 10
12.5
 20
82.5
 30
0.0
 40
2.0
 41
4.999999999999992
 46
45.0
 71
     5
 72
     5
  1
{\fMS PGothic|b0|i0|c128|p50;C}
 73
     1
 44
1.0
  0
MTEXT
  5
357
330
31E
100
AcDbEntity
  8
0
100
AcDbMText
 10
12.5
 20
37.5
 30
0.0
 40
2.0
 41
4.999999999999992
 46
45.0
 71
     5
 72
     5
  1
{\fMS PGothic|b0|i0|c128|p50;D}
 73
     1
 44
1.0
  0
MTEXT
  5
358
330
31E
100
AcDbEntity
  8
0
100
AcDbMText
 10
284.5
 20
172.4999999999999
 30
0.0
 40
2.0
 41
4.999999999999992
 46
45.0
 71
     5
 72
     5
  1
{\fMS PGothic|b0|i0|c128|p50;A}
 73
     1
 44
1.0
  0
MTEXT
  5
359
330
31E
100
AcDbEntity
  8
0
100
AcDbMText
 10
284.5
 20
127.4999999999999
 30
0.0
 40
2.0
 41
4.999999999999992
 46
45.0
 71
     5
 72
     5
  1
{\fMS PGothic|b0|i0|c128|p50;B}
 73
     1
 44
1.0
  0
MTEXT
  5
35A
330
31E
100
AcDbEntity
  8
0
100
AcDbMText
 10
284.5
 20
82.49999999999991
 30
0.0
 40
2.0
 41
4.999999999999992
 46
45.0
 71
     5
 72
     5
  1
{\fMS PGothic|b0|i0|c128|p50;C}
 73
     1
 44
1.0
  0
MTEXT
  5
35B
330
31E
100
AcDbEntity
  8
0
100
AcDbMText
 10
284.5
 20
37.49999999999992
 30
0.0
 40
2.0
 41
4.999999999999992
 46
45.0
 71
     5
 72
     5
  1
{\fMS PGothic|b0|i0|c128|p50;D}
 73
     1
 44
1.0
  0
CIRCLE
  5
35C
330
31E
100
AcDbEntity
  8
0
100
AcDbCircle
 10
192.0812866212884
 20
45.00834951764214
 30
0.0
 40
2.799999999999998
  0
CIRCLE
  5
35D
330
31E
100
AcDbEntity
  8
0
100
AcDbCircle
 10
192.0812866212884
 20
45.00834951764214
 30
0.0
 40
1.6
  0
LINE
  5
35E
330
31E
100
AcDbEntity
  8
0
100
AcDbLine
 10
197.2812866212884
 20
46.60834951764214
 30
0.0
 11
204.0812866212884
 21
47.80834951764214
 31
0.0
  0
LINE
  5
35F
330
31E
100
AcDbEntity
  8
0
100
AcDbLine
 10
197.2812866212884
 20
46.60834951764214
 30
0.0
 11
197.2812866212884
 21
43.40834951764214
 31
0.0
  0
LINE
  5
360
330
31E
100
AcDbEntity
  8
0
100
AcDbLine
 10
204.0812866212884
 20
47.80834951764214
 30
0.0
 11
204.0812866212884
 21
42.20834951764214
 31
0.0
  0
LINE
  5
361
330
31E
100
AcDbEntity
  8
0
100
AcDbLine
 10
197.2812866212884
 20
43.40834951764214
 30
0.0
 11
204.0812866212884
 21
42.20834951764214
 31
0.0
  0
LINE
  5
362
330
31E
100
AcDbEntity
  8
0
100
AcDbLine
 10
192.0812866212884
 20
48.60834951764214
 30
0.0
 11
192.0812866212884
 21
41.40834951764214
 31
0.0
  0
LINE
  5
363
330
31E
100
AcDbEntity
  8
0
100
AcDbLine
 10
188.5066509681369
 20
45.00834951764214
 30
0.0
 11
195.6524624469594
 21
45.00834951764214
 31
0.0
  0
LINE
  5
364
330
31E
100
AcDbEntity
  8
0
100
AcDbLine
 10
196.4812866212884
 20
45.00834951764214
 30
0.0
 11
204.8812866212884
 21
45.00834951764214
 31
0.0
  0
MTEXT
  5
365
330
31E
100
AcDbEntity
  8
0
100
AcDbMText
 10
212.096194219452
 20
29.00000000000001
 30
0.0
 40
1.0
 41
8.780474292418944
 46
0.0
 71
     1
 72
     5
  1
{\fMS PGothic|b0|i0|c128|p50;　社　名}
 73
     1
 44
1.0
  0
MTEXT
  5
366
330
31E
100
AcDbEntity
  8
0
100
AcDbMText
 10
212.096194219452
 20
39.0
 30
0.0
 40
1.0
 41
8.780474292418944
 46
0.0
 71
     1
 72
     5
  1
{\fMS PGothic|b0|i0|c128|p50;　品 名 2}
 73
     1
 44
1.0
  0
MTEXT
  5
367
330
31E
100
AcDbEntity
  8
0
100
AcDbMText
 10
212.096194219452
 20
49.00000000000001
 30
0.0
 40
1.0
 41
8.780474292418944
 46
0.0
 71
     1
 72
     5
  1
{\fMS PGothic|b0|i0|c128|p50;　品 名 1}
 73
     1
 44
1.0
  0
MTEXT
  5
368
330
31E
100
AcDbEntity
  8
0
100
AcDbMText
 10
181.9999999999999
 20
49.00000000000001
 30
0.0
 40
1.0
 41
8.780474292418944
 46
0.0
 71
     1
 72
     5
  1
{\fMS PGothic|b0|i0|c128|p50;　図　法}
 73
     1
 44
1.0
  0
MTEXT
  5
369
330
31E
100
AcDbEntity
  8
0
100
AcDbMText
 10
181.9999999999999
 20
34.00000000000002
 30
0.0
 40
1.0
 41
8.780474292418944
 46
0.0
 71
     1
 72
     5
  1
{\fMS PGothic|b0|i0|c128|p50;　製　図}
 73
     1
 44
1.0
  0
MTEXT
  5
36A
330
31E
100
AcDbEntity
  8
0
100
AcDbMText
 10
197.0480971097259
 20
37.50000000000002
 30
0.0
 40
2.0
 41
30.09619421945209
 46
5.000000000000011
 71
     5
 72
     5
  1
{\fMS PGothic|b0|i0|c128|p50;1 ： 2}
 73
     1
 44
1.0
  0
MTEXT
  5
36B
330
31E
100
AcDbEntity
  8
0
100
AcDbMText
 10
181.9999999999999
 20
39.00000000000002
 30
0.0
 40
1.0
 41
8.780474292418944
 46
0.0
 71
     1
 72
     5
  1
{\fMS PGothic|b0|i0|c128|p50;　尺　度}
 73
     1
 44
1.0
  0
MTEXT
  5
36C
330
31E
100
AcDbEntity
  8
0
100
AcDbMText
 10
224.6818550727283
 20
19.50000000000001
 30
0.0
 40
2.0
 41
57.3181449272716
 46
5.000000000000004
 71
     1
 72
     5
  1
{\fMS Gothic|b0|i0|c128|p49;株式会社 ＫＤＡ\H0.5x; (ケーディーエー)}
 73
     1
 44
1.0
  0
ENDBLK
  5
36E
330
31E
100
AcDbEntity
  8
0
100
AcDbBlockEnd
  0
BLOCK
  5
47E
330
42F
100
AcDbEntity
  8
0
100
AcDbBlockBegin
  2
A$C1BB53514
 70
     0
 10
0.0
 20
0.0
 30
0.0
  3
A$C1BB53514
  1

  0
LINE
  5
4D9
330
42F
100
AcDbEntity
  8
0
100
AcDbLine
 10
15.0
 20
15.0
 30
0.0
 11
15.00000000000001
 21
195.0
 31
0.0
1001
AcDbBlockRepETag
1070
     1
1071
        0
1005
4D9
  0
LINE
  5
4DC
330
42F
100
AcDbEntity
  8
0
100
AcDbLine
 10
15.00000000000001
 20
195.0
 30
0.0
 11
282.0
 21
195.0
 31
0.0
1001
AcDbBlockRepETag
1070
     1
1071
        1
1005
4DC
  0
LINE
  5
4DF
330
42F
100
AcDbEntity
  8
0
100
AcDbLine
 10
282.0
 20
195.0
 30
0.0
 11
281.9999999999999
 21
15.0
 31
0.0
1001
AcDbBlockRepETag
1070
     1
1071
        2
1005
4DF
  0
LINE
  5
4E2
330
42F
100
AcDbEntity
  8
0
100
AcDbLine
 10
281.9999999999999
 20
15.0
 30
0.0
 11
15.0
 21
15.0
 31
0.0
1001
AcDbBlockRepETag
1070
     1
1071
        3
1005
4E2
  0
LINE
  5
4E5
330
42F
100
AcDbEntity
  8
0
100
AcDbLine
 10
281.9999999999999
 20
30.00000000000001
 30
0.0
 11
212.096194219452
 21
30.00000000000002
 31
0.0
1001
AcDbBlockRepETag
1070
     1
1071
        4
1005
4E5
  0
LINE
  5
4E6
330
42F
100
AcDbEntity
  8
0
100
AcDbLine
 10
181.9999999999999
 20
50.0
 30
0.0
 11
181.9999999999999
 21
15.0
 31
0.0
1001
AcDbBlockRepETag
1070
     1
1071
        5
1005
4E6
  0
LINE
  5
4E7
330
42F
100
AcDbEntity
  8
0
100
AcDbLine
 10
181.9999999999999
 20
40.0
 30
0.0
 11
281.9999999999999
 21
40.0
 31
0.0
1001
AcDbBlockRepETag
1070
     1
1071
        6
1005
4E7
  0
LINE
  5
4E8
330
42F
100
AcDbEntity
  8
0
100
AcDbLine
 10
181.9999999999999
 20
35.00000000000002
 30
0.0
 11
212.096194219452
 21
35.0
 31
0.0
1001
AcDbBlockRepETag
1070
     1
1071
        7
1005
4E8
  0
LINE
  5
4E9
330
42F
100
AcDbEntity
  8
0
100
AcDbLine
 10
181.9999999999999
 20
30.00000000000002
 30
0.0
 11
212.096194219452
 21
30.0
 31
0.0
1001
AcDbBlockRepETag
1070
     1
1071
        8
1005
4E9
  0
LINE
  5
4EA
330
42F
100
AcDbEntity
  8
0
100
AcDbLine
 10
181.9999999999999
 20
25.00000000000002
 30
0.0
 11
212.096194219452
 21
25.00000000000001
 31
0.0
1001
AcDbBlockRepETag
1070
     1
1071
        9
1005
4EA
  0
LINE
  5
4EB
330
42F
100
AcDbEntity
  8
0
100
AcDbLine
 10
181.9999999999999
 20
20.00000000000001
 30
0.0
 11
212.096194219452
 21
20.00000000000001
 31
0.0
1001
AcDbBlockRepETag
1070
     1
1071
       10
1005
4EB
  0
LINE
  5
4EC
330
42F
100
AcDbEntity
  8
0
100
AcDbLine
 10
181.9999999999999
 20
50.0
 30
0.0
 11
281.9999999999999
 21
50.0
 31
0.0
1001
AcDbBlockRepETag
1070
     1
1071
       11
1005
4EC
  0
LINE
  5
4ED
330
42F
100
AcDbEntity
  8
0
100
AcDbLine
 10
212.096194219452
 20
50.0
 30
0.0
 11
212.096194219452
 21
15.00000000000001
 31
0.0
1001
AcDbBlockRepETag
1070
     1
1071
       12
1005
4ED
  0
MTEXT
  5
4EE
330
42F
100
AcDbEntity
  8
0
100
AcDbMText
 10
247.048097109726
 20
23.00000000000001
 30
0.0
 40
20.0
 41
69.90380578054788
 46
14.0
 71
     5
 72
     5
  1
{\fArial Black|b0|i0|c0|p34;\H0.25x;KDA\H0.6x; Corporation}
 73
     1
 44
1.0
1001
AcDbBlockRepETag
1070
     1
1071
       13
1005
4EE
  0
MTEXT
  5
4EF
330
42F
100
AcDbEntity
  8
0
100
AcDbMText
 10
217.0961942194521
 20
44.99999999999999
 30
0.0
 40
3.5
 41
64.90380578054793
 46
10.00000000000002
 71
     4
 72
     5
  1
{\fMS Gothic|b0|i0|c128|p49; \H0.7143x;ARM05-10 アルミナ六角ボルトM5x10L}
 73
     1
 44
1.0
1001
AcDbBlockRepETag
1070
     1
1071
       14
1005
4EF
  0
MTEXT
  5
4F0
330
42F
100
AcDbEntity
  8
0
100
AcDbMText
 10
217.0961942194521
 20
35.0
 30
0.0
 40
3.5
 41
64.90380578054793
 46
10.00000000000001
 71
     4
 72
     5
  1
{\fMS Gothic|b0|i0|c128|p49; \H0.7143x;ZRM05-10 ジルコニア六角ボルトM5x10L}
 73
     1
 44
1.0
1001
AcDbBlockRepETag
1070
     1
1071
       15
1005
4F0
  0
MTEXT
  5
4F1
330
42F
100
AcDbEntity
  8
0
100
AcDbMText
 10
197.0480971097259
 20
32.50000000000002
 30
0.0
 40
2.0
 41
30.09619421945209
 46
5.000000000000011
 71
     5
 72
     5
  1
{\fMS PGothic|b0|i0|c128|p50;W.O 20100422}
 73
     1
 44
1.0
1001
AcDbBlockRepETag
1070
     1
1071
       16
1005
4F1
  0
LINE
  5
4F2
330
42F
100
AcDbEntity
  8
0
100
AcDbLine
 10
148.4999999999999
 20
15.0
 30
0.0
 11
148.4999999999999
 21
10.0
 31
0.0
1001
AcDbBlockRepETag
1070
     1
1071
       17
1005
4F2
  0
LINE
  5
4F3
330
42F
100
AcDbEntity
  8
0
100
AcDbLine
 10
192.9999999999999
 20
15.0
 30
0.0
 11
192.9999999999999
 21
10.0
 31
0.0
1001
AcDbBlockRepETag
1070
     1
1071
       18
1005
4F3
  0
LINE
  5
4F4
330
42F
100
AcDbEntity
  8
0
100
AcDbLine
 10
237.5
 20
15.0
 30
0.0
 11
237.5
 21
10.0
 31
0.0
1001
AcDbBlockRepETag
1070
     1
1071
       19
1005
4F4
  0
LINE
  5
4F5
330
42F
100
AcDbEntity
  8
0
100
AcDbLine
 10
104.0
 20
15.0
 30
0.0
 11
104.0
 21
10.0
 31
0.0
1001
AcDbBlockRepETag
1070
     1
1071
       20
1005
4F5
  0
LINE
  5
4F6
330
42F
100
AcDbEntity
  8
0
100
AcDbLine
 10
59.49999999999997
 20
15.0
 30
0.0
 11
59.49999999999997
 21
10.0
 31
0.0
1001
AcDbBlockRepETag
1070
     1
1071
       21
1005
4F6
  0
LINE
  5
4F7
330
42F
100
AcDbEntity
  8
0
100
AcDbLine
 10
15.0
 20
105.0
 30
0.0
 11
10.0
 21
105.0
 31
0.0
1001
AcDbBlockRepETag
1070
     1
1071
       22
1005
4F7
  0
LINE
  5
4F8
330
42F
100
AcDbEntity
  8
0
100
AcDbLine
 10
15.0
 20
150.0
 30
0.0
 11
10.0
 21
150.0
 31
0.0
1001
AcDbBlockRepETag
1070
     1
1071
       23
1005
4F8
  0
LINE
  5
4F9
330
42F
100
AcDbEntity
  8
0
100
AcDbLine
 10
15.0
 20
60.0
 30
0.0
 11
10.0
 21
60.0
 31
0.0
1001
AcDbBlockRepETag
1070
     1
1071
       24
1005
4F9
  0
LINE
  5
4FA
330
42F
100
AcDbEntity
  8
0
100
AcDbLine
 10
148.4999999999999
 20
195.0
 30
0.0
 11
148.4999999999999
 21
200.0
 31
0.0
1001
AcDbBlockRepETag
1070
     1
1071
       25
1005
4FA
  0
LINE
  5
4FB
330
42F
100
AcDbEntity
  8
0
100
AcDbLine
 10
192.9999999999999
 20
195.0
 30
0.0
 11
192.9999999999999
 21
200.0
 31
0.0
1001
AcDbBlockRepETag
1070
     1
1071
       26
1005
4FB
  0
LINE
  5
4FC
330
42F
100
AcDbEntity
  8
0
100
AcDbLine
 10
237.5
 20
195.0
 30
0.0
 11
237.5
 21
200.0
 31
0.0
1001
AcDbBlockRepETag
1070
     1
1071
       27
1005
4FC
  0
LINE
  5
4FD
330
42F
100
AcDbEntity
  8
0
100
AcDbLine
 10
104.0
 20
195.0
 30
0.0
 11
104.0
 21
200.0
 31
0.0
1001
AcDbBlockRepETag
1070
     1
1071
       28
1005
4FD
  0
LINE
  5
4FE
330
42F
100
AcDbEntity
  8
0
100
AcDbLine
 10
59.49999999999997
 20
195.0
 30
0.0
 11
59.49999999999997
 21
200.0
 31
0.0
1001
AcDbBlockRepETag
1070
     1
1071
       29
1005
4FE
  0
LINE
  5
4FF
330
42F
100
AcDbEntity
  8
0
100
AcDbLine
 10
281.9999999999999
 20
105.0
 30
0.0
 11
287.0
 21
105.0
 31
0.0
1001
AcDbBlockRepETag
1070
     1
1071
       30
1005
4FF
  0
LINE
  5
500
330
42F
100
AcDbEntity
  8
0
100
AcDbLine
 10
281.9999999999999
 20
150.0
 30
0.0
 11
287.0
 21
150.0
 31
0.0
1001
AcDbBlockRepETag
1070
     1
1071
       31
1005
500
  0
LINE
  5
501
330
42F
100
AcDbEntity
  8
0
100
AcDbLine
 10
281.9999999999999
 20
60.0
 30
0.0
 11
287.0
 21
60.0
 31
0.0
1001
AcDbBlockRepETag
1070
     1
1071
       32
1005
501
  0
MTEXT
  5
502
330
42F
100
AcDbEntity
  8
0
100
AcDbMText
 10
37.25
 20
197.5
 30
0.0
 40
2.0
 41
44.49999999999996
 46
5.0
 71
     5
 72
     5
  1
{\fMS PGothic|b0|i0|c128|p50;1}
 73
     1
 44
1.0
1001
AcDbBlockRepETag
1070
     1
1071
       33
1005
502
  0
MTEXT
  5
503
330
42F
100
AcDbEntity
  8
0
100
AcDbMText
 10
81.74999999999995
 20
197.5
 30
0.0
 40
2.0
 41
44.49999999999996
 46
5.0
 71
     5
 72
     5
  1
{\fMS PGothic|b0|i0|c128|p50;2}
 73
     1
 44
1.0
1001
AcDbBlockRepETag
1070
     1
1071
       34
1005
503
  0
MTEXT
  5
504
330
42F
100
AcDbEntity
  8
0
100
AcDbMText
 10
126.2499999999999
 20
197.5
 30
0.0
 40
2.0
 41
44.49999999999996
 46
5.0
 71
     5
 72
     5
  1
{\fMS PGothic|b0|i0|c128|p50;3}
 73
     1
 44
1.0
1001
AcDbBlockRepETag
1070
     1
1071
       35
1005
504
  0
MTEXT
  5
505
330
42F
100
AcDbEntity
  8
0
100
AcDbMText
 10
170.7499999999999
 20
197.5
 30
0.0
 40
2.0
 41
44.49999999999996
 46
5.0
 71
     5
 72
     5
  1
{\fMS PGothic|b0|i0|c128|p50;4}
 73
     1
 44
1.0
1001
AcDbBlockRepETag
1070
     1
1071
       36
1005
505
  0
MTEXT
  5
506
330
42F
100
AcDbEntity
  8
0
100
AcDbMText
 10
215.2499999999999
 20
197.5
 30
0.0
 40
2.0
 41
44.49999999999996
 46
5.0
 71
     5
 72
     5
  1
{\fMS PGothic|b0|i0|c128|p50;5}
 73
     1
 44
1.0
1001
AcDbBlockRepETag
1070
     1
1071
       37
1005
506
  0
MTEXT
  5
507
330
42F
100
AcDbEntity
  8
0
100
AcDbMText
 10
259.75
 20
197.5
 30
0.0
 40
2.0
 41
44.49999999999996
 46
5.0
 71
     5
 72
     5
  1
{\fMS PGothic|b0|i0|c128|p50;6}
 73
     1
 44
1.0
1001
AcDbBlockRepETag
1070
     1
1071
       38
1005
507
  0
MTEXT
  5
508
330
42F
100
AcDbEntity
  8
0
100
AcDbMText
 10
37.25
 20
12.5
 30
0.0
 40
2.0
 41
44.49999999999996
 46
5.0
 71
     5
 72
     5
  1
{\fMS PGothic|b0|i0|c128|p50;1}
 73
     1
 44
1.0
1001
AcDbBlockRepETag
1070
     1
1071
       39
1005
508
  0
MTEXT
  5
509
330
42F
100
AcDbEntity
  8
0
100
AcDbMText
 10
81.74999999999995
 20
12.5
 30
0.0
 40
2.0
 41
44.49999999999996
 46
5.0
 71
     5
 72
     5
  1
{\fMS PGothic|b0|i0|c128|p50;2}
 73
     1
 44
1.0
1001
AcDbBlockRepETag
1070
     1
1071
       40
1005
509
  0
MTEXT
  5
50A
330
42F
100
AcDbEntity
  8
0
100
AcDbMText
 10
126.2499999999999
 20
12.5
 30
0.0
 40
2.0
 41
44.49999999999996
 46
5.0
 71
     5
 72
     5
  1
{\fMS PGothic|b0|i0|c128|p50;3}
 73
     1
 44
1.0
1001
AcDbBlockRepETag
1070
     1
1071
       41
1005
50A
  0
MTEXT
  5
50B
330
42F
100
AcDbEntity
  8
0
100
AcDbMText
 10
170.7499999999999
 20
12.5
 30
0.0
 40
2.0
 41
44.49999999999996
 46
5.0
 71
     5
 72
     5
  1
{\fMS PGothic|b0|i0|c128|p50;4}
 73
     1
 44
1.0
1001
AcDbBlockRepETag
1070
     1
1071
       42
1005
50B
  0
MTEXT
  5
50C
330
42F
100
AcDbEntity
  8
0
100
AcDbMText
 10
215.2499999999999
 20
12.5
 30
0.0
 40
2.0
 41
44.49999999999996
 46
5.0
 71
     5
 72
     5
  1
{\fMS PGothic|b0|i0|c128|p50;5}
 73
     1
 44
1.0
1001
AcDbBlockRepETag
1070
     1
1071
       43
1005
50C
  0
MTEXT
  5
50D
330
42F
100
AcDbEntity
  8
0
100
AcDbMText
 10
259.75
 20
12.5
 30
0.0
 40
2.0
 41
44.49999999999996
 46
5.0
 71
     5
 72
     5
  1
{\fMS PGothic|b0|i0|c128|p50;6}
 73
     1
 44
1.0
1001
AcDbBlockRepETag
1070
     1
1071
       44
1005
50D
  0
MTEXT
  5
50E
330
42F
100
AcDbEntity
  8
0
100
AcDbMText
 10
12.5
 20
172.5
 30
0.0
 40
2.0
 41
4.999999999999992
 46
45.0
 71
     5
 72
     5
  1
{\fMS PGothic|b0|i0|c128|p50;A}
 73
     1
 44
1.0
1001
AcDbBlockRepETag
1070
     1
1071
       45
1005
50E
  0
MTEXT
  5
50F
330
42F
100
AcDbEntity
  8
0
100
AcDbMText
 10
12.5
 20
127.5
 30
0.0
 40
2.0
 41
4.999999999999992
 46
45.0
 71
     5
 72
     5
  1
{\fMS PGothic|b0|i0|c128|p50;B}
 73
     1
 44
1.0
1001
AcDbBlockRepETag
1070
     1
1071
       46
1005
50F
  0
MTEXT
  5
510
330
42F
100
AcDbEntity
  8
0
100
AcDbMText
 10
12.5
 20
82.5
 30
0.0
 40
2.0
 41
4.999999999999992
 46
45.0
 71
     5
 72
     5
  1
{\fMS PGothic|b0|i0|c128|p50;C}
 73
     1
 44
1.0
1001
AcDbBlockRepETag
1070
     1
1071
       47
1005
510
  0
MTEXT
  5
511
330
42F
100
AcDbEntity
  8
0
100
AcDbMText
 10
12.5
 20
37.5
 30
0.0
 40
2.0
 41
4.999999999999992
 46
45.0
 71
     5
 72
     5
  1
{\fMS PGothic|b0|i0|c128|p50;D}
 73
     1
 44
1.0
1001
AcDbBlockRepETag
1070
     1
1071
       48
1005
511
  0
MTEXT
  5
512
330
42F
100
AcDbEntity
  8
0
100
AcDbMText
 10
284.5
 20
172.4999999999999
 30
0.0
 40
2.0
 41
4.999999999999992
 46
45.0
 71
     5
 72
     5
  1
{\fMS PGothic|b0|i0|c128|p50;A}
 73
     1
 44
1.0
1001
AcDbBlockRepETag
1070
     1
1071
       49
1005
512
  0
MTEXT
  5
513
330
42F
100
AcDbEntity
  8
0
100
AcDbMText
 10
284.5
 20
127.4999999999999
 30
0.0
 40
2.0
 41
4.999999999999992
 46
45.0
 71
     5
 72
     5
  1
{\fMS PGothic|b0|i0|c128|p50;B}
 73
     1
 44
1.0
1001
AcDbBlockRepETag
1070
     1
1071
       50
1005
513
  0
MTEXT
  5
514
330
42F
100
AcDbEntity
  8
0
100
AcDbMText
 10
284.5
 20
82.49999999999991
 30
0.0
 40
2.0
 41
4.999999999999992
 46
45.0
 71
     5
 72
     5
  1
{\fMS PGothic|b0|i0|c128|p50;C}
 73
     1
 44
1.0
1001
AcDbBlockRepETag
1070
     1
1071
       51
1005
514
  0
MTEXT
  5
515
330
42F
100
AcDbEntity
  8
0
100
AcDbMText
 10
284.5
 20
37.49999999999992
 30
0.0
 40
2.0
 41
4.999999999999992
 46
45.0
 71
     5
 72
     5
  1
{\fMS PGothic|b0|i0|c128|p50;D}
 73
     1
 44
1.0
1001
AcDbBlockRepETag
1070
     1
1071
       52
1005
515
  0
CIRCLE
  5
516
330
42F
100
AcDbEntity
  8
0
100
AcDbCircle
 10
192.0812866212884
 20
45.00834951764214
 30
0.0
 40
2.799999999999998
1001
AcDbBlockRepETag
1070
     1
1071
       53
1005
516
  0
CIRCLE
  5
517
330
42F
100
AcDbEntity
  8
0
100
AcDbCircle
 10
192.0812866212884
 20
45.00834951764214
 30
0.0
 40
1.6
1001
AcDbBlockRepETag
1070
     1
1071
       54
1005
517
  0
LINE
  5
518
330
42F
100
AcDbEntity
  8
0
100
AcDbLine
 10
197.2812866212884
 20
46.60834951764214
 30
0.0
 11
204.0812866212884
 21
47.80834951764214
 31
0.0
1001
AcDbBlockRepETag
1070
     1
1071
       55
1005
518
  0
LINE
  5
519
330
42F
100
AcDbEntity
  8
0
100
AcDbLine
 10
197.2812866212884
 20
46.60834951764214
 30
0.0
 11
197.2812866212884
 21
43.40834951764214
 31
0.0
1001
AcDbBlockRepETag
1070
     1
1071
       56
1005
519
  0
LINE
  5
51A
330
42F
100
AcDbEntity
  8
0
100
AcDbLine
 10
204.0812866212884
 20
47.80834951764214
 30
0.0
 11
204.0812866212884
 21
42.20834951764214
 31
0.0
1001
AcDbBlockRepETag
1070
     1
1071
       57
1005
51A
  0
LINE
  5
51B
330
42F
100
AcDbEntity
  8
0
100
AcDbLine
 10
197.2812866212884
 20
43.40834951764214
 30
0.0
 11
204.0812866212884
 21
42.20834951764214
 31
0.0
1001
AcDbBlockRepETag
1070
     1
1071
       58
1005
51B
  0
LINE
  5
51C
330
42F
100
AcDbEntity
  8
0
100
AcDbLine
 10
192.0812866212884
 20
48.60834951764214
 30
0.0
 11
192.0812866212884
 21
41.40834951764214
 31
0.0
1001
AcDbBlockRepETag
1070
     1
1071
       59
1005
51C
  0
LINE
  5
51D
330
42F
100
AcDbEntity
  8
0
100
AcDbLine
 10
188.5066509681369
 20
45.00834951764214
 30
0.0
 11
195.6524624469594
 21
45.00834951764214
 31
0.0
1001
AcDbBlockRepETag
1070
     1
1071
       60
1005
51D
  0
LINE
  5
51E
330
42F
100
AcDbEntity
  8
0
100
AcDbLine
 10
196.4812866212884
 20
45.00834951764214
 30
0.0
 11
204.8812866212884
 21
45.00834951764214
 31
0.0
1001
AcDbBlockRepETag
1070
     1
1071
       61
1005
51E
  0
MTEXT
  5
51F
330
42F
100
AcDbEntity
  8
0
100
AcDbMText
 10
212.096194219452
 20
29.00000000000001
 30
0.0
 40
1.0
 41
8.780474292418944
 46
0.0
 71
     1
 72
     5
  1
{\fMS PGothic|b0|i0|c128|p50;　社　名}
 73
     1
 44
1.0
1001
AcDbBlockRepETag
1070
     1
1071
       62
1005
51F
  0
MTEXT
  5
520
330
42F
100
AcDbEntity
  8
0
100
AcDbMText
 10
212.096194219452
 20
39.0
 30
0.0
 40
1.0
 41
8.780474292418944
 46
0.0
 71
     1
 72
     5
  1
{\fMS PGothic|b0|i0|c128|p50;　品 名 2}
 73
     1
 44
1.0
1001
AcDbBlockRepETag
1070
     1
1071
       63
1005
520
  0
MTEXT
  5
521
330
42F
100
AcDbEntity
  8
0
100
AcDbMText
 10
212.096194219452
 20
49.00000000000001
 30
0.0
 40
1.0
 41
8.780474292418944
 46
0.0
 71
     1
 72
     5
  1
{\fMS PGothic|b0|i0|c128|p50;　品 名 1}
 73
     1
 44
1.0
1001
AcDbBlockRepETag
1070
     1
1071
       64
1005
521
  0
MTEXT
  5
522
330
42F
100
AcDbEntity
  8
0
100
AcDbMText
 10
181.9999999999999
 20
49.00000000000001
 30
0.0
 40
1.0
 41
8.780474292418944
 46
0.0
 71
     1
 72
     5
  1
{\fMS PGothic|b0|i0|c128|p50;　図　法}
 73
     1
 44
1.0
1001
AcDbBlockRepETag
1070
     1
1071
       65
1005
522
  0
MTEXT
  5
523
330
42F
100
AcDbEntity
  8
0
100
AcDbMText
 10
181.9999999999999
 20
34.00000000000002
 30
0.0
 40
1.0
 41
8.780474292418944
 46
0.0
 71
     1
 72
     5
  1
{\fMS PGothic|b0|i0|c128|p50;　製　図}
 73
     1
 44
1.0
1001
AcDbBlockRepETag
1070
     1
1071
       66
1005
523
  0
MTEXT
  5
524
330
42F
100
AcDbEntity
  8
0
100
AcDbMText
 10
197.0480971097259
 20
37.50000000000002
 30
0.0
 40
2.0
 41
30.09619421945209
 46
5.000000000000011
 71
     5
 72
     5
  1
{\fMS PGothic|b0|i0|c128|p50;1 ： 2}
 73
     1
 44
1.0
1001
AcDbBlockRepETag
1070
     1
1071
       67
1005
524
  0
MTEXT
  5
525
330
42F
100
AcDbEntity
  8
0
100
AcDbMText
 10
181.9999999999999
 20
39.00000000000002
 30
0.0
 40
1.0
 41
8.780474292418944
 46
0.0
 71
     1
 72
     5
  1
{\fMS PGothic|b0|i0|c128|p50;　尺　度}
 73
     1
 44
1.0
1001
AcDbBlockRepETag
1070
     1
1071
       68
1005
525
  0
MTEXT
  5
526
330
42F
100
AcDbEntity
  8
0
100
AcDbMText
 10
224.6818550727283
 20
19.50000000000001
 30
0.0
 40
2.0
 41
57.3181449272716
 46
5.000000000000004
 71
     1
 72
     5
  1
{\fMS Gothic|b0|i0|c128|p49;株式会社 ＫＤＡ\H0.5x; (ケーディーエー)}
 73
     1
 44
1.0
1001
AcDbBlockRepETag
1070
     1
1071
       69
1005
526
  0
ENDBLK
  5
47F
330
42F
100
AcDbEntity
  8
0
100
AcDbBlockEnd
  0
BLOCK
  5
57F
330
534
100
AcDbEntity
  8
0
100
AcDbBlockBegin
  2
A$C783F31C3
 70
     0
 10
0.0
 20
0.0
 30
0.0
  3
A$C783F31C3
  1

  0
LINE
  5
585
330
534
100
AcDbEntity
  8
0
100
AcDbLine
 10
15.0
 20
15.0
 30
0.0
 11
15.00000000000001
 21
195.0
 31
0.0
1001
AcDbBlockRepETag
1070
     1
1071
        0
1005
585
  0
LINE
  5
588
330
534
100
AcDbEntity
  8
0
100
AcDbLine
 10
15.00000000000001
 20
195.0
 30
0.0
 11
282.0
 21
195.0
 31
0.0
1001
AcDbBlockRepETag
1070
     1
1071
        1
1005
588
  0
LINE
  5
58B
330
534
100
AcDbEntity
  8
0
100
AcDbLine
 10
282.0
 20
195.0
 30
0.0
 11
281.9999999999999
 21
15.0
 31
0.0
1001
AcDbBlockRepETag
1070
     1
1071
        2
1005
58B
  0
LINE
  5
58E
330
534
100
AcDbEntity
  8
0
100
AcDbLine
 10
281.9999999999999
 20
15.0
 30
0.0
 11
15.0
 21
15.0
 31
0.0
1001
AcDbBlockRepETag
1070
     1
1071
        3
1005
58E
  0
LINE
  5
591
330
534
100
AcDbEntity
  8
0
100
AcDbLine
 10
281.9999999999999
 20
30.00000000000001
 30
0.0
 11
212.096194219452
 21
30.00000000000002
 31
0.0
1001
AcDbBlockRepETag
1070
     1
1071
        4
1005
591
  0
LINE
  5
592
330
534
100
AcDbEntity
  8
0
100
AcDbLine
 10
181.9999999999999
 20
50.0
 30
0.0
 11
181.9999999999999
 21
15.0
 31
0.0
1001
AcDbBlockRepETag
1070
     1
1071
        5
1005
592
  0
LINE
  5
593
330
534
100
AcDbEntity
  8
0
100
AcDbLine
 10
181.9999999999999
 20
40.0
 30
0.0
 11
281.9999999999999
 21
40.0
 31
0.0
1001
AcDbBlockRepETag
1070
     1
1071
        6
1005
593
  0
LINE
  5
594
330
534
100
AcDbEntity
  8
0
100
AcDbLine
 10
181.9999999999999
 20
35.00000000000002
 30
0.0
 11
212.096194219452
 21
35.0
 31
0.0
1001
AcDbBlockRepETag
1070
     1
1071
        7
1005
594
  0
LINE
  5
595
330
534
100
AcDbEntity
  8
0
100
AcDbLine
 10
181.9999999999999
 20
30.00000000000002
 30
0.0
 11
212.096194219452
 21
30.0
 31
0.0
1001
AcDbBlockRepETag
1070
     1
1071
        8
1005
595
  0
LINE
  5
596
330
534
100
AcDbEntity
  8
0
100
AcDbLine
 10
181.9999999999999
 20
25.00000000000002
 30
0.0
 11
212.096194219452
 21
25.00000000000001
 31
0.0
1001
AcDbBlockRepETag
1070
     1
1071
        9
1005
596
  0
LINE
  5
597
330
534
100
AcDbEntity
  8
0
100
AcDbLine
 10
181.9999999999999
 20
20.00000000000001
 30
0.0
 11
212.096194219452
 21
20.00000000000001
 31
0.0
1001
AcDbBlockRepETag
1070
     1
1071
       10
1005
597
  0
LINE
  5
598
330
534
100
AcDbEntity
  8
0
100
AcDbLine
 10
181.9999999999999
 20
50.0
 30
0.0
 11
281.9999999999999
 21
50.0
 31
0.0
1001
AcDbBlockRepETag
1070
     1
1071
       11
1005
598
  0
LINE
  5
599
330
534
100
AcDbEntity
  8
0
100
AcDbLine
 10
212.096194219452
 20
50.0
 30
0.0
 11
212.096194219452
 21
15.00000000000001
 31
0.0
1001
AcDbBlockRepETag
1070
     1
1071
       12
1005
599
  0
MTEXT
  5
59A
330
534
100
AcDbEntity
  8
0
100
AcDbMText
 10
247.048097109726
 20
23.00000000000001
 30
0.0
 40
20.0
 41
69.90380578054788
 46
14.0
 71
     5
 72
     5
  1
{\fArial Black|b0|i0|c0|p34;\H0.25x;KDA\H0.6x; Corporation}
 73
     1
 44
1.0
1001
AcDbBlockRepETag
1070
     1
1071
       13
1005
59A
  0
LINE
  5
59B
330
534
100
AcDbEntity
  8
0
100
AcDbLine
 10
148.4999999999999
 20
15.0
 30
0.0
 11
148.4999999999999
 21
10.0
 31
0.0
1001
AcDbBlockRepETag
1070
     1
1071
       14
1005
59B
  0
LINE
  5
59C
330
534
100
AcDbEntity
  8
0
100
AcDbLine
 10
192.9999999999999
 20
15.0
 30
0.0
 11
192.9999999999999
 21
10.0
 31
0.0
1001
AcDbBlockRepETag
1070
     1
1071
       15
1005
59C
  0
LINE
  5
59D
330
534
100
AcDbEntity
  8
0
100
AcDbLine
 10
237.5
 20
15.0
 30
0.0
 11
237.5
 21
10.0
 31
0.0
1001
AcDbBlockRepETag
1070
     1
1071
       16
1005
59D
  0
LINE
  5
59E
330
534
100
AcDbEntity
  8
0
100
AcDbLine
 10
104.0
 20
15.0
 30
0.0
 11
104.0
 21
10.0
 31
0.0
1001
AcDbBlockRepETag
1070
     1
1071
       17
1005
59E
  0
LINE
  5
59F
330
534
100
AcDbEntity
  8
0
100
AcDbLine
 10
59.49999999999997
 20
15.0
 30
0.0
 11
59.49999999999997
 21
10.0
 31
0.0
1001
AcDbBlockRepETag
1070
     1
1071
       18
1005
59F
  0
LINE
  5
5A0
330
534
100
AcDbEntity
  8
0
100
AcDbLine
 10
15.0
 20
105.0
 30
0.0
 11
10.0
 21
105.0
 31
0.0
1001
AcDbBlockRepETag
1070
     1
1071
       19
1005
5A0
  0
LINE
  5
5A1
330
534
100
AcDbEntity
  8
0
100
AcDbLine
 10
15.0
 20
150.0
 30
0.0
 11
10.0
 21
150.0
 31
0.0
1001
AcDbBlockRepETag
1070
     1
1071
       20
1005
5A1
  0
LINE
  5
5A2
330
534
100
AcDbEntity
  8
0
100
AcDbLine
 10
15.0
 20
60.0
 30
0.0
 11
10.0
 21
60.0
 31
0.0
1001
AcDbBlockRepETag
1070
     1
1071
       21
1005
5A2
  0
LINE
  5
5A3
330
534
100
AcDbEntity
  8
0
100
AcDbLine
 10
148.4999999999999
 20
195.0
 30
0.0
 11
148.4999999999999
 21
200.0
 31
0.0
1001
AcDbBlockRepETag
1070
     1
1071
       22
1005
5A3
  0
LINE
  5
5A4
330
534
100
AcDbEntity
  8
0
100
AcDbLine
 10
192.9999999999999
 20
195.0
 30
0.0
 11
192.9999999999999
 21
200.0
 31
0.0
1001
AcDbBlockRepETag
1070
     1
1071
       23
1005
5A4
  0
LINE
  5
5A5
330
534
100
AcDbEntity
  8
0
100
AcDbLine
 10
237.5
 20
195.0
 30
0.0
 11
237.5
 21
200.0
 31
0.0
1001
AcDbBlockRepETag
1070
     1
1071
       24
1005
5A5
  0
LINE
  5
5A6
330
534
100
AcDbEntity
  8
0
100
AcDbLine
 10
104.0
 20
195.0
 30
0.0
 11
104.0
 21
200.0
 31
0.0
1001
AcDbBlockRepETag
1070
     1
1071
       25
1005
5A6
  0
LINE
  5
5A7
330
534
100
AcDbEntity
  8
0
100
AcDbLine
 10
59.49999999999997
 20
195.0
 30
0.0
 11
59.49999999999997
 21
200.0
 31
0.0
1001
AcDbBlockRepETag
1070
     1
1071
       26
1005
5A7
  0
LINE
  5
5A8
330
534
100
AcDbEntity
  8
0
100
AcDbLine
 10
281.9999999999999
 20
105.0
 30
0.0
 11
287.0
 21
105.0
 31
0.0
1001
AcDbBlockRepETag
1070
     1
1071
       27
1005
5A8
  0
LINE
  5
5A9
330
534
100
AcDbEntity
  8
0
100
AcDbLine
 10
281.9999999999999
 20
150.0
 30
0.0
 11
287.0
 21
150.0
 31
0.0
1001
AcDbBlockRepETag
1070
     1
1071
       28
1005
5A9
  0
LINE
  5
5AA
330
534
100
AcDbEntity
  8
0
100
AcDbLine
 10
281.9999999999999
 20
60.0
 30
0.0
 11
287.0
 21
60.0
 31
0.0
1001
AcDbBlockRepETag
1070
     1
1071
       29
1005
5AA
  0
MTEXT
  5
5AB
330
534
100
AcDbEntity
  8
0
100
AcDbMText
 10
37.25
 20
197.5
 30
0.0
 40
2.0
 41
44.49999999999996
 46
5.0
 71
     5
 72
     5
  1
{\fMS PGothic|b0|i0|c128|p50;1}
 73
     1
 44
1.0
1001
AcDbBlockRepETag
1070
     1
1071
       30
1005
5AB
  0
MTEXT
  5
5AC
330
534
100
AcDbEntity
  8
0
100
AcDbMText
 10
81.74999999999995
 20
197.5
 30
0.0
 40
2.0
 41
44.49999999999996
 46
5.0
 71
     5
 72
     5
  1
{\fMS PGothic|b0|i0|c128|p50;2}
 73
     1
 44
1.0
1001
AcDbBlockRepETag
1070
     1
1071
       31
1005
5AC
  0
MTEXT
  5
5AD
330
534
100
AcDbEntity
  8
0
100
AcDbMText
 10
126.2499999999999
 20
197.5
 30
0.0
 40
2.0
 41
44.49999999999996
 46
5.0
 71
     5
 72
     5
  1
{\fMS PGothic|b0|i0|c128|p50;3}
 73
     1
 44
1.0
1001
AcDbBlockRepETag
1070
     1
1071
       32
1005
5AD
  0
MTEXT
  5
5AE
330
534
100
AcDbEntity
  8
0
100
AcDbMText
 10
170.7499999999999
 20
197.5
 30
0.0
 40
2.0
 41
44.49999999999996
 46
5.0
 71
     5
 72
     5
  1
{\fMS PGothic|b0|i0|c128|p50;4}
 73
     1
 44
1.0
1001
AcDbBlockRepETag
1070
     1
1071
       33
1005
5AE
  0
MTEXT
  5
5AF
330
534
100
AcDbEntity
  8
0
100
AcDbMText
 10
215.2499999999999
 20
197.5
 30
0.0
 40
2.0
 41
44.49999999999996
 46
5.0
 71
     5
 72
     5
  1
{\fMS PGothic|b0|i0|c128|p50;5}
 73
     1
 44
1.0
1001
AcDbBlockRepETag
1070
     1
1071
       34
1005
5AF
  0
MTEXT
  5
5B0
330
534
100
AcDbEntity
  8
0
100
AcDbMText
 10
259.75
 20
197.5
 30
0.0
 40
2.0
 41
44.49999999999996
 46
5.0
 71
     5
 72
     5
  1
{\fMS PGothic|b0|i0|c128|p50;6}
 73
     1
 44
1.0
1001
AcDbBlockRepETag
1070
     1
1071
       35
1005
5B0
  0
MTEXT
  5
5B1
330
534
100
AcDbEntity
  8
0
100
AcDbMText
 10
37.25
 20
12.5
 30
0.0
 40
2.0
 41
44.49999999999996
 46
5.0
 71
     5
 72
     5
  1
{\fMS PGothic|b0|i0|c128|p50;1}
 73
     1
 44
1.0
1001
AcDbBlockRepETag
1070
     1
1071
       36
1005
5B1
  0
MTEXT
  5
5B2
330
534
100
AcDbEntity
  8
0
100
AcDbMText
 10
81.74999999999995
 20
12.5
 30
0.0
 40
2.0
 41
44.49999999999996
 46
5.0
 71
     5
 72
     5
  1
{\fMS PGothic|b0|i0|c128|p50;2}
 73
     1
 44
1.0
1001
AcDbBlockRepETag
1070
     1
1071
       37
1005
5B2
  0
MTEXT
  5
5B3
330
534
100
AcDbEntity
  8
0
100
AcDbMText
 10
126.2499999999999
 20
12.5
 30
0.0
 40
2.0
 41
44.49999999999996
 46
5.0
 71
     5
 72
     5
  1
{\fMS PGothic|b0|i0|c128|p50;3}
 73
     1
 44
1.0
1001
AcDbBlockRepETag
1070
     1
1071
       38
1005
5B3
  0
MTEXT
  5
5B4
330
534
100
AcDbEntity
  8
0
100
AcDbMText
 10
170.7499999999999
 20
12.5
 30
0.0
 40
2.0
 41
44.49999999999996
 46
5.0
 71
     5
 72
     5
  1
{\fMS PGothic|b0|i0|c128|p50;4}
 73
     1
 44
1.0
1001
AcDbBlockRepETag
1070
     1
1071
       39
1005
5B4
  0
MTEXT
  5
5B5
330
534
100
AcDbEntity
  8
0
100
AcDbMText
 10
215.2499999999999
 20
12.5
 30
0.0
 40
2.0
 41
44.49999999999996
 46
5.0
 71
     5
 72
     5
  1
{\fMS PGothic|b0|i0|c128|p50;5}
 73
     1
 44
1.0
1001
AcDbBlockRepETag
1070
     1
1071
       40
1005
5B5
  0
MTEXT
  5
5B6
330
534
100
AcDbEntity
  8
0
100
AcDbMText
 10
259.75
 20
12.5
 30
0.0
 40
2.0
 41
44.49999999999996
 46
5.0
 71
     5
 72
     5
  1
{\fMS PGothic|b0|i0|c128|p50;6}
 73
     1
 44
1.0
1001
AcDbBlockRepETag
1070
     1
1071
       41
1005
5B6
  0
MTEXT
  5
5B7
330
534
100
AcDbEntity
  8
0
100
AcDbMText
 10
12.5
 20
172.5
 30
0.0
 40
2.0
 41
4.999999999999992
 46
45.0
 71
     5
 72
     5
  1
{\fMS PGothic|b0|i0|c128|p50;A}
 73
     1
 44
1.0
1001
AcDbBlockRepETag
1070
     1
1071
       42
1005
5B7
  0
MTEXT
  5
5B8
330
534
100
AcDbEntity
  8
0
100
AcDbMText
 10
12.5
 20
127.5
 30
0.0
 40
2.0
 41
4.999999999999992
 46
45.0
 71
     5
 72
     5
  1
{\fMS PGothic|b0|i0|c128|p50;B}
 73
     1
 44
1.0
1001
AcDbBlockRepETag
1070
     1
1071
       43
1005
5B8
  0
MTEXT
  5
5B9
330
534
100
AcDbEntity
  8
0
100
AcDbMText
 10
12.5
 20
82.5
 30
0.0
 40
2.0
 41
4.999999999999992
 46
45.0
 71
     5
 72
     5
  1
{\fMS PGothic|b0|i0|c128|p50;C}
 73
     1
 44
1.0
1001
AcDbBlockRepETag
1070
     1
1071
       44
1005
5B9
  0
MTEXT
  5
5BA
330
534
100
AcDbEntity
  8
0
100
AcDbMText
 10
12.5
 20
37.5
 30
0.0
 40
2.0
 41
4.999999999999992
 46
45.0
 71
     5
 72
     5
  1
{\fMS PGothic|b0|i0|c128|p50;D}
 73
     1
 44
1.0
1001
AcDbBlockRepETag
1070
     1
1071
       45
1005
5BA
  0
MTEXT
  5
5BB
330
534
100
AcDbEntity
  8
0
100
AcDbMText
 10
284.5
 20
172.4999999999999
 30
0.0
 40
2.0
 41
4.999999999999992
 46
45.0
 71
     5
 72
     5
  1
{\fMS PGothic|b0|i0|c128|p50;A}
 73
     1
 44
1.0
1001
AcDbBlockRepETag
1070
     1
1071
       46
1005
5BB
  0
MTEXT
  5
5BC
330
534
100
AcDbEntity
  8
0
100
AcDbMText
 10
284.5
 20
127.4999999999999
 30
0.0
 40
2.0
 41
4.999999999999992
 46
45.0
 71
     5
 72
     5
  1
{\fMS PGothic|b0|i0|c128|p50;B}
 73
     1
 44
1.0
1001
AcDbBlockRepETag
1070
     1
1071
       47
1005
5BC
  0
MTEXT
  5
5BD
330
534
100
AcDbEntity
  8
0
100
AcDbMText
 10
284.5
 20
82.49999999999991
 30
0.0
 40
2.0
 41
4.999999999999992
 46
45.0
 71
     5
 72
     5
  1
{\fMS PGothic|b0|i0|c128|p50;C}
 73
     1
 44
1.0
1001
AcDbBlockRepETag
1070
     1
1071
       48
1005
5BD
  0
MTEXT
  5
5BE
330
534
100
AcDbEntity
  8
0
100
AcDbMText
 10
284.5
 20
37.49999999999992
 30
0.0
 40
2.0
 41
4.999999999999992
 46
45.0
 71
     5
 72
     5
  1
{\fMS PGothic|b0|i0|c128|p50;D}
 73
     1
 44
1.0
1001
AcDbBlockRepETag
1070
     1
1071
       49
1005
5BE
  0
CIRCLE
  5
5BF
330
534
100
AcDbEntity
  8
0
100
AcDbCircle
 10
192.0812866212884
 20
45.00834951764214
 30
0.0
 40
2.799999999999998
1001
AcDbBlockRepETag
1070
     1
1071
       50
1005
5BF
  0
CIRCLE
  5
5C0
330
534
100
AcDbEntity
  8
0
100
AcDbCircle
 10
192.0812866212884
 20
45.00834951764214
 30
0.0
 40
1.6
1001
AcDbBlockRepETag
1070
     1
1071
       51
1005
5C0
  0
LINE
  5
5C1
330
534
100
AcDbEntity
  8
0
100
AcDbLine
 10
197.2812866212884
 20
46.60834951764214
 30
0.0
 11
204.0812866212884
 21
47.80834951764214
 31
0.0
1001
AcDbBlockRepETag
1070
     1
1071
       52
1005
5C1
  0
LINE
  5
5C2
330
534
100
AcDbEntity
  8
0
100
AcDbLine
 10
197.2812866212884
 20
46.60834951764214
 30
0.0
 11
197.2812866212884
 21
43.40834951764214
 31
0.0
1001
AcDbBlockRepETag
1070
     1
1071
       53
1005
5C2
  0
LINE
  5
5C3
330
534
100
AcDbEntity
  8
0
100
AcDbLine
 10
204.0812866212884
 20
47.80834951764214
 30
0.0
 11
204.0812866212884
 21
42.20834951764214
 31
0.0
1001
AcDbBlockRepETag
1070
     1
1071
       54
1005
5C3
  0
LINE
  5
5C4
330
534
100
AcDbEntity
  8
0
100
AcDbLine
 10
197.2812866212884
 20
43.40834951764214
 30
0.0
 11
204.0812866212884
 21
42.20834951764214
 31
0.0
1001
AcDbBlockRepETag
1070
     1
1071
       55
1005
5C4
  0
LINE
  5
5C5
330
534
100
AcDbEntity
  8
0
100
AcDbLine
 10
192.0812866212884
 20
48.60834951764214
 30
0.0
 11
192.0812866212884
 21
41.40834951764214
 31
0.0
1001
AcDbBlockRepETag
1070
     1
1071
       56
1005
5C5
  0
LINE
  5
5C6
330
534
100
AcDbEntity
  8
0
100
AcDbLine
 10
188.5066509681369
 20
45.00834951764214
 30
0.0
 11
195.6524624469594
 21
45.00834951764214
 31
0.0
1001
AcDbBlockRepETag
1070
     1
1071
       57
1005
5C6
  0
LINE
  5
5C7
330
534
100
AcDbEntity
  8
0
100
AcDbLine
 10
196.4812866212884
 20
45.00834951764214
 30
0.0
 11
204.8812866212884
 21
45.00834951764214
 31
0.0
1001
AcDbBlockRepETag
1070
     1
1071
       58
1005
5C7
  0
MTEXT
  5
5C8
330
534
100
AcDbEntity
  8
0
100
AcDbMText
 10
212.096194219452
 20
29.00000000000001
 30
0.0
 40
1.0
 41
8.780474292418944
 46
0.0
 71
     1
 72
     5
  1
{\fMS PGothic|b0|i0|c128|p50;　社　名}
 73
     1
 44
1.0
1001
AcDbBlockRepETag
1070
     1
1071
       59
1005
5C8
  0
MTEXT
  5
5C9
330
534
100
AcDbEntity
  8
0
100
AcDbMText
 10
212.096194219452
 20
39.0
 30
0.0
 40
1.0
 41
8.780474292418944
 46
0.0
 71
     1
 72
     5
  1
{\fMS PGothic|b0|i0|c128|p50;　品 名 2}
 73
     1
 44
1.0
1001
AcDbBlockRepETag
1070
     1
1071
       60
1005
5C9
  0
MTEXT
  5
5CA
330
534
100
AcDbEntity
  8
0
100
AcDbMText
 10
212.096194219452
 20
49.00000000000001
 30
0.0
 40
1.0
 41
8.780474292418944
 46
0.0
 71
     1
 72
     5
  1
{\fMS PGothic|b0|i0|c128|p50;　品 名 1}
 73
     1
 44
1.0
1001
AcDbBlockRepETag
1070
     1
1071
       61
1005
5CA
  0
MTEXT
  5
5CB
330
534
100
AcDbEntity
  8
0
100
AcDbMText
 10
181.9999999999999
 20
49.00000000000001
 30
0.0
 40
1.0
 41
8.780474292418944
 46
0.0
 71
     1
 72
     5
  1
{\fMS PGothic|b0|i0|c128|p50;　図　法}
 73
     1
 44
1.0
1001
AcDbBlockRepETag
1070
     1
1071
       62
1005
5CB
  0
MTEXT
  5
5CC
330
534
100
AcDbEntity
  8
0
100
AcDbMText
 10
181.9999999999999
 20
34.00000000000002
 30
0.0
 40
1.0
 41
8.780474292418944
 46
0.0
 71
     1
 72
     5
  1
{\fMS PGothic|b0|i0|c128|p50;　製　図}
 73
     1
 44
1.0
1001
AcDbBlockRepETag
1070
     1
1071
       63
1005
5CC
  0
MTEXT
  5
5CD
330
534
100
AcDbEntity
  8
0
100
AcDbMText
 10
181.9999999999999
 20
39.00000000000002
 30
0.0
 40
1.0
 41
8.780474292418944
 46
0.0
 71
     1
 72
     5
  1
{\fMS PGothic|b0|i0|c128|p50;　尺　度}
 73
     1
 44
1.0
1001
AcDbBlockRepETag
1070
     1
1071
       64
1005
5CD
  0
MTEXT
  5
5CE
330
534
100
AcDbEntity
  8
0
100
AcDbMText
 10
224.6818550727283
 20
19.50000000000001
 30
0.0
 40
2.0
 41
57.3181449272716
 46
5.000000000000004
 71
     1
 72
     5
  1
{\fMS Gothic|b0|i0|c128|p49;株式会社 ＫＤＡ\H0.5x; (ケーディーエー)}
 73
     1
 44
1.0
1001
AcDbBlockRepETag
1070
     1
1071
       65
1005
5CE
  0
ENDBLK
  5
580
330
534
100
AcDbEntity
  8
0
100
AcDbBlockEnd
  0
BLOCK
  5
7F8
330
7A7
100
AcDbEntity
  8
0
100
AcDbBlockBegin
  2
A$C66450189
 70
     0
 10
0.0
 20
0.0
 30
0.0
  3
A$C66450189
  1

  0
LINE
  5
7A8
330
7A7
100
AcDbEntity
  8
0
100
AcDbLine
 10
15.00000035711195
 20
15.00000015151909
 30
0.0
 11
15.00000035711196
 21
195.0000001515191
 31
0.0
  0
LINE
  5
7A9
330
7A7
100
AcDbEntity
  8
0
100
AcDbLine
 10
0.0000003571119579
 20
0.0000001515190906
 30
0.0
 11
0.0000003571119586
 21
15.00000015151909
 31
0.0
  0
LINE
  5
7AA
330
7A7
100
AcDbEntity
  8
0
100
AcDbLine
 10
0.0000003571119669
 20
195.0000001515191
 30
0.0
 11
0.0000003571119676
 21
210.0000001515191
 31
0.0
  0
LINE
  5
7AB
330
7A7
100
AcDbEntity
  8
0
100
AcDbLine
 10
15.00000035711196
 20
195.0000001515191
 30
0.0
 11
282.000000357112
 21
195.0000001515191
 31
0.0
  0
LINE
  5
7AC
330
7A7
100
AcDbEntity
  8
0
100
AcDbLine
 10
0.0000003571119676
 20
210.0000001515191
 30
0.0
 11
15.00000035711197
 21
210.0000001515191
 31
0.0
  0
LINE
  5
7AD
330
7A7
100
AcDbEntity
  8
0
100
AcDbLine
 10
282.000000357112
 20
210.0000001515191
 30
0.0
 11
297.000000357112
 21
210.0000001515191
 31
0.0
  0
LINE
  5
7AE
330
7A7
100
AcDbEntity
  8
0
100
AcDbLine
 10
282.000000357112
 20
195.0000001515191
 30
0.0
 11
282.0000003571119
 21
15.00000015151909
 31
0.0
  0
LINE
  5
7AF
330
7A7
100
AcDbEntity
  8
0
100
AcDbLine
 10
297.000000357112
 20
210.0000001515191
 30
0.0
 11
297.000000357112
 21
195.0000001515191
 31
0.0
  0
LINE
  5
7B0
330
7A7
100
AcDbEntity
  8
0
100
AcDbLine
 10
297.0000003571119
 20
15.00000015151909
 30
0.0
 11
297.0000003571119
 21
0.0000001515190888
 31
0.0
  0
LINE
  5
7B1
330
7A7
100
AcDbEntity
  8
0
100
AcDbLine
 10
282.0000003571119
 20
15.00000015151909
 30
0.0
 11
15.00000035711195
 21
15.00000015151909
 31
0.0
  0
LINE
  5
7B2
330
7A7
100
AcDbEntity
  8
0
100
AcDbLine
 10
297.0000003571119
 20
0.0000001515190888
 30
0.0
 11
282.0000003571119
 21
0.0000001515190889
 31
0.0
  0
LINE
  5
7B3
330
7A7
100
AcDbEntity
  8
0
100
AcDbLine
 10
15.00000035711195
 20
0.0000001515190905
 30
0.0
 11
0.0000003571119578
 21
0.0000001515190906
 31
0.0
  0
LINE
  5
7B4
330
7A7
100
AcDbEntity
  8
0
100
AcDbLine
 10
282.0000003571119
 20
30.0000001515191
 30
0.0
 11
212.096194576564
 21
30.00000015151911
 31
0.0
  0
LINE
  5
7B5
330
7A7
100
AcDbEntity
  8
0
100
AcDbLine
 10
182.0000003571119
 20
50.00000015151909
 30
0.0
 11
182.0000003571119
 21
15.00000015151909
 31
0.0
  0
LINE
  5
7B6
330
7A7
100
AcDbEntity
  8
0
100
AcDbLine
 10
182.0000003571119
 20
40.0000001515191
 30
0.0
 11
282.0000003571119
 21
40.00000015151907
 31
0.0
  0
LINE
  5
7B7
330
7A7
100
AcDbEntity
  8
0
100
AcDbLine
 10
182.0000003571119
 20
35.0000001515191
 30
0.0
 11
212.096194576564
 21
35.00000015151909
 31
0.0
  0
LINE
  5
7B8
330
7A7
100
AcDbEntity
  8
0
100
AcDbLine
 10
182.0000003571119
 20
30.0000001515191
 30
0.0
 11
212.096194576564
 21
30.00000015151909
 31
0.0
  0
LINE
  5
7B9
330
7A7
100
AcDbEntity
  8
0
100
AcDbLine
 10
182.0000003571119
 20
25.0000001515191
 30
0.0
 11
212.096194576564
 21
25.0000001515191
 31
0.0
  0
LINE
  5
7BA
330
7A7
100
AcDbEntity
  8
0
100
AcDbLine
 10
182.0000003571119
 20
20.0000001515191
 30
0.0
 11
212.096194576564
 21
20.00000015151909
 31
0.0
  0
LINE
  5
7BB
330
7A7
100
AcDbEntity
  8
0
100
AcDbLine
 10
182.0000003571119
 20
50.00000015151909
 30
0.0
 11
282.0000003571119
 21
50.00000015151909
 31
0.0
  0
LINE
  5
7BC
330
7A7
100
AcDbEntity
  8
0
100
AcDbLine
 10
212.096194576564
 20
50.00000015151909
 30
0.0
 11
212.096194576564
 21
15.0000001515191
 31
0.0
  0
MTEXT
  5
7BD
330
7A7
100
AcDbEntity
  8
0
100
AcDbMText
 10
247.048097466838
 20
23.0000001515191
 30
0.0
 40
20.0
 41
69.90380578054788
 46
14.0
 71
     5
 72
     5
  1
{\fArial Black|b0|i0|c0|p34;\H0.25x;KDA\H0.6x; Corporation}
 73
     1
 44
1.0
  0
MTEXT
  5
7BE
330
7A7
100
AcDbEntity
  8
0
100
AcDbMText
 10
217.096194576564
 20
45.00000015151908
 30
0.0
 40
3.5
 41
64.90380578054793
 46
10.00000000000002
 71
     4
 72
     5
  1
{\fMS Gothic|b0|i0|c128|p49; \H0.7143x;ARM05-10 アルミナ六角ボルトM5x10L}
 73
     1
 44
1.0
  0
MTEXT
  5
7BF
330
7A7
100
AcDbEntity
  8
0
100
AcDbMText
 10
217.096194576564
 20
35.00000015151908
 30
0.0
 40
3.5
 41
64.90380578054793
 46
10.00000000000001
 71
     4
 72
     5
  1
{\fMS Gothic|b0|i0|c128|p49; \H0.7143x;ZRM05-10 ジルコニア六角ボルトM5x10L}
 73
     1
 44
1.0
  0
MTEXT
  5
7C0
330
7A7
100
AcDbEntity
  8
0
100
AcDbMText
 10
197.0480974668379
 20
32.5000001515191
 30
0.0
 40
2.0
 41
30.09619421945209
 46
5.000000000000011
 71
     5
 72
     5
  1
{\fMS PGothic|b0|i0|c128|p50;W.O 20100422}
 73
     1
 44
1.0
  0
LINE
  5
7C1
330
7A7
100
AcDbEntity
  8
0
100
AcDbLine
 10
148.5000003571119
 20
15.00000015151909
 30
0.0
 11
148.5000003571119
 21
10.00000015151909
 31
0.0
  0
LINE
  5
7C2
330
7A7
100
AcDbEntity
  8
0
100
AcDbLine
 10
193.0000003571119
 20
15.00000015151909
 30
0.0
 11
193.0000003571119
 21
10.00000015151909
 31
0.0
  0
LINE
  5
7C3
330
7A7
100
AcDbEntity
  8
0
100
AcDbLine
 10
237.5000003571119
 20
15.00000015151909
 30
0.0
 11
237.5000003571119
 21
10.00000015151909
 31
0.0
  0
LINE
  5
7C4
330
7A7
100
AcDbEntity
  8
0
100
AcDbLine
 10
104.0000003571119
 20
15.00000015151909
 30
0.0
 11
104.0000003571119
 21
10.00000015151909
 31
0.0
  0
LINE
  5
7C5
330
7A7
100
AcDbEntity
  8
0
100
AcDbLine
 10
59.50000035711193
 20
15.00000015151909
 30
0.0
 11
59.50000035711193
 21
10.00000015151909
 31
0.0
  0
LINE
  5
7C6
330
7A7
100
AcDbEntity
  8
0
100
AcDbLine
 10
15.00000035711196
 20
105.0000001515191
 30
0.0
 11
10.00000035711196
 21
105.0000001515191
 31
0.0
  0
LINE
  5
7C7
330
7A7
100
AcDbEntity
  8
0
100
AcDbLine
 10
15.00000035711196
 20
150.0000001515191
 30
0.0
 11
10.00000035711196
 21
150.0000001515191
 31
0.0
  0
LINE
  5
7C8
330
7A7
100
AcDbEntity
  8
0
100
AcDbLine
 10
15.00000035711196
 20
60.00000015151909
 30
0.0
 11
10.00000035711196
 21
60.00000015151909
 31
0.0
  0
LINE
  5
7C9
330
7A7
100
AcDbEntity
  8
0
100
AcDbLine
 10
148.5000003571119
 20
195.0000001515191
 30
0.0
 11
148.5000003571119
 21
200.0000001515191
 31
0.0
  0
LINE
  5
7CA
330
7A7
100
AcDbEntity
  8
0
100
AcDbLine
 10
193.0000003571119
 20
195.0000001515191
 30
0.0
 11
193.0000003571119
 21
200.0000001515191
 31
0.0
  0
LINE
  5
7CB
330
7A7
100
AcDbEntity
  8
0
100
AcDbLine
 10
237.5000003571119
 20
195.0000001515191
 30
0.0
 11
237.5000003571119
 21
200.0000001515191
 31
0.0
  0
LINE
  5
7CC
330
7A7
100
AcDbEntity
  8
0
100
AcDbLine
 10
104.0000003571119
 20
195.0000001515191
 30
0.0
 11
104.0000003571119
 21
200.0000001515191
 31
0.0
  0
LINE
  5
7CD
330
7A7
100
AcDbEntity
  8
0
100
AcDbLine
 10
59.50000035711193
 20
195.0000001515191
 30
0.0
 11
59.50000035711193
 21
200.0000001515191
 31
0.0
  0
LINE
  5
7CE
330
7A7
100
AcDbEntity
  8
0
100
AcDbLine
 10
282.0000003571119
 20
105.0000001515191
 30
0.0
 11
287.0000003571119
 21
105.0000001515191
 31
0.0
  0
LINE
  5
7CF
330
7A7
100
AcDbEntity
  8
0
100
AcDbLine
 10
282.0000003571119
 20
150.0000001515191
 30
0.0
 11
287.0000003571119
 21
150.0000001515191
 31
0.0
  0
LINE
  5
7D0
330
7A7
100
AcDbEntity
  8
0
100
AcDbLine
 10
282.0000003571119
 20
60.00000015151909
 30
0.0
 11
287.0000003571119
 21
60.00000015151909
 31
0.0
  0
MTEXT
  5
7D1
330
7A7
100
AcDbEntity
  8
0
100
AcDbMText
 10
37.25000035711196
 20
197.5000001515191
 30
0.0
 40
2.0
 41
44.49999999999996
 46
5.0
 71
     5
 72
     5
  1
{\fMS PGothic|b0|i0|c128|p50;1}
 73
     1
 44
1.0
  0
MTEXT
  5
7D2
330
7A7
100
AcDbEntity
  8
0
100
AcDbMText
 10
81.75000035711191
 20
197.5000001515191
 30
0.0
 40
2.0
 41
44.49999999999996
 46
5.0
 71
     5
 72
     5
  1
{\fMS PGothic|b0|i0|c128|p50;2}
 73
     1
 44
1.0
  0
MTEXT
  5
7D3
330
7A7
100
AcDbEntity
  8
0
100
AcDbMText
 10
126.2500003571119
 20
197.5000001515191
 30
0.0
 40
2.0
 41
44.49999999999996
 46
5.0
 71
     5
 72
     5
  1
{\fMS PGothic|b0|i0|c128|p50;3}
 73
     1
 44
1.0
  0
MTEXT
  5
7D4
330
7A7
100
AcDbEntity
  8
0
100
AcDbMText
 10
170.7500003571119
 20
197.5000001515191
 30
0.0
 40
2.0
 41
44.49999999999996
 46
5.0
 71
     5
 72
     5
  1
{\fMS PGothic|b0|i0|c128|p50;4}
 73
     1
 44
1.0
  0
MTEXT
  5
7D5
330
7A7
100
AcDbEntity
  8
0
100
AcDbMText
 10
215.2500003571119
 20
197.5000001515191
 30
0.0
 40
2.0
 41
44.49999999999996
 46
5.0
 71
     5
 72
     5
  1
{\fMS PGothic|b0|i0|c128|p50;5}
 73
     1
 44
1.0
  0
MTEXT
  5
7D6
330
7A7
100
AcDbEntity
  8
0
100
AcDbMText
 10
259.7500003571119
 20
197.5000001515191
 30
0.0
 40
2.0
 41
44.49999999999996
 46
5.0
 71
     5
 72
     5
  1
{\fMS PGothic|b0|i0|c128|p50;6}
 73
     1
 44
1.0
  0
MTEXT
  5
7D7
330
7A7
100
AcDbEntity
  8
0
100
AcDbMText
 10
37.25000035711194
 20
12.50000015151909
 30
0.0
 40
2.0
 41
44.49999999999996
 46
5.0
 71
     5
 72
     5
  1
{\fMS PGothic|b0|i0|c128|p50;1}
 73
     1
 44
1.0
  0
MTEXT
  5
7D8
330
7A7
100
AcDbEntity
  8
0
100
AcDbMText
 10
81.75000035711191
 20
12.50000015151909
 30
0.0
 40
2.0
 41
44.49999999999996
 46
5.0
 71
     5
 72
     5
  1
{\fMS PGothic|b0|i0|c128|p50;2}
 73
     1
 44
1.0
  0
MTEXT
  5
7D9
330
7A7
100
AcDbEntity
  8
0
100
AcDbMText
 10
126.2500003571119
 20
12.50000015151909
 30
0.0
 40
2.0
 41
44.49999999999996
 46
5.0
 71
     5
 72
     5
  1
{\fMS PGothic|b0|i0|c128|p50;3}
 73
     1
 44
1.0
  0
MTEXT
  5
7DA
330
7A7
100
AcDbEntity
  8
0
100
AcDbMText
 10
170.7500003571119
 20
12.50000015151909
 30
0.0
 40
2.0
 41
44.49999999999996
 46
5.0
 71
     5
 72
     5
  1
{\fMS PGothic|b0|i0|c128|p50;4}
 73
     1
 44
1.0
  0
MTEXT
  5
7DB
330
7A7
100
AcDbEntity
  8
0
100
AcDbMText
 10
215.2500003571119
 20
12.50000015151909
 30
0.0
 40
2.0
 41
44.49999999999996
 46
5.0
 71
     5
 72
     5
  1
{\fMS PGothic|b0|i0|c128|p50;5}
 73
     1
 44
1.0
  0
MTEXT
  5
7DC
330
7A7
100
AcDbEntity
  8
0
100
AcDbMText
 10
259.7500003571119
 20
12.50000015151909
 30
0.0
 40
2.0
 41
44.49999999999996
 46
5.0
 71
     5
 72
     5
  1
{\fMS PGothic|b0|i0|c128|p50;6}
 73
     1
 44
1.0
  0
MTEXT
  5
7DD
330
7A7
100
AcDbEntity
  8
0
100
AcDbMText
 10
12.50000035711196
 20
172.5000001515191
 30
0.0
 40
2.0
 41
4.999999999999992
 46
45.0
 71
     5
 72
     5
  1
{\fMS PGothic|b0|i0|c128|p50;A}
 73
     1
 44
1.0
  0
MTEXT
  5
7DE
330
7A7
100
AcDbEntity
  8
0
100
AcDbMText
 10
12.50000035711196
 20
127.5000001515191
 30
0.0
 40
2.0
 41
4.999999999999992
 46
45.0
 71
     5
 72
     5
  1
{\fMS PGothic|b0|i0|c128|p50;B}
 73
     1
 44
1.0
  0
MTEXT
  5
7DF
330
7A7
100
AcDbEntity
  8
0
100
AcDbMText
 10
12.50000035711196
 20
82.50000015151909
 30
0.0
 40
2.0
 41
4.999999999999992
 46
45.0
 71
     5
 72
     5
  1
{\fMS PGothic|b0|i0|c128|p50;C}
 73
     1
 44
1.0
  0
MTEXT
  5
7E0
330
7A7
100
AcDbEntity
  8
0
100
AcDbMText
 10
12.50000035711196
 20
37.5000001515191
 30
0.0
 40
2.0
 41
4.999999999999992
 46
45.0
 71
     5
 72
     5
  1
{\fMS PGothic|b0|i0|c128|p50;D}
 73
     1
 44
1.0
  0
MTEXT
  5
7E1
330
7A7
100
AcDbEntity
  8
0
100
AcDbMText
 10
284.500000357112
 20
172.500000151519
 30
0.0
 40
2.0
 41
4.999999999999992
 46
45.0
 71
     5
 72
     5
  1
{\fMS PGothic|b0|i0|c128|p50;A}
 73
     1
 44
1.0
  0
MTEXT
  5
7E2
330
7A7
100
AcDbEntity
  8
0
100
AcDbMText
 10
284.500000357112
 20
127.500000151519
 30
0.0
 40
2.0
 41
4.999999999999992
 46
45.0
 71
     5
 72
     5
  1
{\fMS PGothic|b0|i0|c128|p50;B}
 73
     1
 44
1.0
  0
MTEXT
  5
7E3
330
7A7
100
AcDbEntity
  8
0
100
AcDbMText
 10
284.500000357112
 20
82.50000015151902
 30
0.0
 40
2.0
 41
4.999999999999992
 46
45.0
 71
     5
 72
     5
  1
{\fMS PGothic|b0|i0|c128|p50;C}
 73
     1
 44
1.0
  0
MTEXT
  5
7E4
330
7A7
100
AcDbEntity
  8
0
100
AcDbMText
 10
284.500000357112
 20
37.50000015151901
 30
0.0
 40
2.0
 41
4.999999999999992
 46
45.0
 71
     5
 72
     5
  1
{\fMS PGothic|b0|i0|c128|p50;D}
 73
     1
 44
1.0
  0
CIRCLE
  5
7E5
330
7A7
100
AcDbEntity
  8
0
100
AcDbCircle
 10
192.0812869784004
 20
45.00834966916121
 30
0.0
 40
2.799999999999998
  0
CIRCLE
  5
7E6
330
7A7
100
AcDbEntity
  8
0
100
AcDbCircle
 10
192.0812869784004
 20
45.00834966916121
 30
0.0
 40
1.6
  0
LINE
  5
7E7
330
7A7
100
AcDbEntity
  8
0
100
AcDbLine
 10
197.2812869784003
 20
46.60834966916121
 30
0.0
 11
204.0812869784004
 21
47.80834966916121
 31
0.0
  0
LINE
  5
7E8
330
7A7
100
AcDbEntity
  8
0
100
AcDbLine
 10
197.2812869784003
 20
46.60834966916121
 30
0.0
 11
197.2812869784003
 21
43.40834966916125
 31
0.0
  0
LINE
  5
7E9
330
7A7
100
AcDbEntity
  8
0
100
AcDbLine
 10
204.0812869784004
 20
47.80834966916121
 30
0.0
 11
204.0812869784004
 21
42.20834966916124
 31
0.0
  0
LINE
  5
7EA
330
7A7
100
AcDbEntity
  8
0
100
AcDbLine
 10
197.2812869784003
 20
43.40834966916125
 30
0.0
 11
204.0812869784004
 21
42.20834966916124
 31
0.0
  0
LINE
  5
7EB
330
7A7
100
AcDbEntity
  8
0
100
AcDbLine
 10
192.0812869784004
 20
48.60834966916121
 30
0.0
 11
192.0812869784004
 21
41.40834966916123
 31
0.0
  0
LINE
  5
7EC
330
7A7
100
AcDbEntity
  8
0
100
AcDbLine
 10
188.5066513252489
 20
45.00834966916121
 30
0.0
 11
195.6524628040714
 21
45.00834966916121
 31
0.0
  0
LINE
  5
7ED
330
7A7
100
AcDbEntity
  8
0
100
AcDbLine
 10
196.4812869784004
 20
45.00834966916121
 30
0.0
 11
204.8812869784004
 21
45.00834966916121
 31
0.0
  0
MTEXT
  5
7EE
330
7A7
100
AcDbEntity
  8
0
100
AcDbMText
 10
212.096194576564
 20
29.0000001515191
 30
0.0
 40
1.0
 41
8.780474292418944
 46
0.0
 71
     1
 72
     5
  1
{\fMS PGothic|b0|i0|c128|p50;　社　名}
 73
     1
 44
1.0
  0
MTEXT
  5
7EF
330
7A7
100
AcDbEntity
  8
0
100
AcDbMText
 10
212.096194576564
 20
39.0000001515191
 30
0.0
 40
1.0
 41
8.780474292418944
 46
0.0
 71
     1
 72
     5
  1
{\fMS PGothic|b0|i0|c128|p50;　品 名 2}
 73
     1
 44
1.0
  0
MTEXT
  5
7F0
330
7A7
100
AcDbEntity
  8
0
100
AcDbMText
 10
212.096194576564
 20
49.0000001515191
 30
0.0
 40
1.0
 41
8.780474292418944
 46
0.0
 71
     1
 72
     5
  1
{\fMS PGothic|b0|i0|c128|p50;　品 名 1}
 73
     1
 44
1.0
  0
MTEXT
  5
7F1
330
7A7
100
AcDbEntity
  8
0
100
AcDbMText
 10
182.0000003571119
 20
49.0000001515191
 30
0.0
 40
1.0
 41
8.780474292418944
 46
0.0
 71
     1
 72
     5
  1
{\fMS PGothic|b0|i0|c128|p50;　図　法}
 73
     1
 44
1.0
  0
MTEXT
  5
7F2
330
7A7
100
AcDbEntity
  8
0
100
AcDbMText
 10
182.0000003571119
 20
34.0000001515191
 30
0.0
 40
1.0
 41
8.780474292418944
 46
0.0
 71
     1
 72
     5
  1
{\fMS PGothic|b0|i0|c128|p50;　製　図}
 73
     1
 44
1.0
  0
MTEXT
  5
7F3
330
7A7
100
AcDbEntity
  8
0
100
AcDbMText
 10
197.0480974668379
 20
37.5000001515191
 30
0.0
 40
2.0
 41
30.09619421945209
 46
5.000000000000011
 71
     5
 72
     5
  1
{\fMS PGothic|b0|i0|c128|p50;1 ： 2}
 73
     1
 44
1.0
  0
MTEXT
  5
7F4
330
7A7
100
AcDbEntity
  8
0
100
AcDbMText
 10
182.0000003571119
 20
39.0000001515191
 30
0.0
 40
1.0
 41
8.780474292418944
 46
0.0
 71
     1
 72
     5
  1
{\fMS PGothic|b0|i0|c128|p50;　尺　度}
 73
     1
 44
1.0
  0
MTEXT
  5
7F5
330
7A7
100
AcDbEntity
  8
0
100
AcDbMText
 10
224.6818554298403
 20
19.50000015151909
 30
0.0
 40
2.0
 41
57.3181449272716
 46
5.000000000000004
 71
     1
 72
     5
  1
{\fMS Gothic|b0|i0|c128|p49;株式会社 ＫＤＡ\H0.5x; (ケーディーエー)}
 73
     1
 44
1.0
  0
ENDBLK
  5
7F9
330
7A7
100
AcDbEntity
  8
0
100
AcDbBlockEnd
  0
BLOCK
  5
84B
330
7FA
100
AcDbEntity
  8
0
100
AcDbBlockBegin
  2
A$C77245723
 70
     0
 10
0.0
 20
0.0
 30
0.0
  3
A$C77245723
  1

  0
LINE
  5
873
330
7FA
100
AcDbEntity
  8
0
100
AcDbLine
 10
15.00000035711195
 20
15.00000015151909
 30
0.0
 11
15.00000035711196
 21
195.0000001515191
 31
0.0
1001
AcDbBlockRepETag
1070
     1
1071
        0
1005
873
  0
LINE
  5
876
330
7FA
100
AcDbEntity
  8
0
100
AcDbLine
 10
15.00000035711196
 20
195.0000001515191
 30
0.0
 11
282.000000357112
 21
195.0000001515191
 31
0.0
1001
AcDbBlockRepETag
1070
     1
1071
        1
1005
876
  0
LINE
  5
879
330
7FA
100
AcDbEntity
  8
0
100
AcDbLine
 10
282.000000357112
 20
195.0000001515191
 30
0.0
 11
282.0000003571119
 21
15.00000015151909
 31
0.0
1001
AcDbBlockRepETag
1070
     1
1071
        2
1005
879
  0
LINE
  5
87C
330
7FA
100
AcDbEntity
  8
0
100
AcDbLine
 10
282.0000003571119
 20
15.00000015151909
 30
0.0
 11
15.00000035711195
 21
15.00000015151909
 31
0.0
1001
AcDbBlockRepETag
1070
     1
1071
        3
1005
87C
  0
LINE
  5
87F
330
7FA
100
AcDbEntity
  8
0
100
AcDbLine
 10
282.0000003571119
 20
30.0000001515191
 30
0.0
 11
212.096194576564
 21
30.00000015151911
 31
0.0
1001
AcDbBlockRepETag
1070
     1
1071
        4
1005
87F
  0
LINE
  5
880
330
7FA
100
AcDbEntity
  8
0
100
AcDbLine
 10
182.0000003571119
 20
50.00000015151909
 30
0.0
 11
182.0000003571119
 21
15.00000015151909
 31
0.0
1001
AcDbBlockRepETag
1070
     1
1071
        5
1005
880
  0
LINE
  5
881
330
7FA
100
AcDbEntity
  8
0
100
AcDbLine
 10
182.0000003571119
 20
40.0000001515191
 30
0.0
 11
282.0000003571119
 21
40.00000015151907
 31
0.0
1001
AcDbBlockRepETag
1070
     1
1071
        6
1005
881
  0
LINE
  5
882
330
7FA
100
AcDbEntity
  8
0
100
AcDbLine
 10
182.0000003571119
 20
35.0000001515191
 30
0.0
 11
212.096194576564
 21
35.00000015151909
 31
0.0
1001
AcDbBlockRepETag
1070
     1
1071
        7
1005
882
  0
LINE
  5
883
330
7FA
100
AcDbEntity
  8
0
100
AcDbLine
 10
182.0000003571119
 20
30.0000001515191
 30
0.0
 11
212.096194576564
 21
30.00000015151909
 31
0.0
1001
AcDbBlockRepETag
1070
     1
1071
        8
1005
883
  0
LINE
  5
884
330
7FA
100
AcDbEntity
  8
0
100
AcDbLine
 10
182.0000003571119
 20
25.0000001515191
 30
0.0
 11
212.096194576564
 21
25.0000001515191
 31
0.0
1001
AcDbBlockRepETag
1070
     1
1071
        9
1005
884
  0
LINE
  5
885
330
7FA
100
AcDbEntity
  8
0
100
AcDbLine
 10
182.0000003571119
 20
20.0000001515191
 30
0.0
 11
212.096194576564
 21
20.00000015151909
 31
0.0
1001
AcDbBlockRepETag
1070
     1
1071
       10
1005
885
  0
LINE
  5
886
330
7FA
100
AcDbEntity
  8
0
100
AcDbLine
 10
182.0000003571119
 20
50.00000015151909
 30
0.0
 11
282.0000003571119
 21
50.00000015151909
 31
0.0
1001
AcDbBlockRepETag
1070
     1
1071
       11
1005
886
  0
LINE
  5
887
330
7FA
100
AcDbEntity
  8
0
100
AcDbLine
 10
212.096194576564
 20
50.00000015151909
 30
0.0
 11
212.096194576564
 21
15.0000001515191
 31
0.0
1001
AcDbBlockRepETag
1070
     1
1071
       12
1005
887
  0
MTEXT
  5
888
330
7FA
100
AcDbEntity
  8
0
100
AcDbMText
 10
247.048097466838
 20
23.0000001515191
 30
0.0
 40
20.0
 41
69.90380578054788
 46
14.0
 71
     5
 72
     5
  1
{\fArial Black|b0|i0|c0|p34;\H0.25x;KDA\H0.6x; Corporation}
 73
     1
 44
1.0
1001
AcDbBlockRepETag
1070
     1
1071
       13
1005
888
  0
LINE
  5
88C
330
7FA
100
AcDbEntity
  8
0
100
AcDbLine
 10
148.5000003571119
 20
15.00000015151909
 30
0.0
 11
148.5000003571119
 21
10.00000015151909
 31
0.0
1001
AcDbBlockRepETag
1070
     1
1071
       14
1005
88C
  0
LINE
  5
88D
330
7FA
100
AcDbEntity
  8
0
100
AcDbLine
 10
193.0000003571119
 20
15.00000015151909
 30
0.0
 11
193.0000003571119
 21
10.00000015151909
 31
0.0
1001
AcDbBlockRepETag
1070
     1
1071
       15
1005
88D
  0
LINE
  5
88E
330
7FA
100
AcDbEntity
  8
0
100
AcDbLine
 10
237.5000003571119
 20
15.00000015151909
 30
0.0
 11
237.5000003571119
 21
10.00000015151909
 31
0.0
1001
AcDbBlockRepETag
1070
     1
1071
       16
1005
88E
  0
LINE
  5
88F
330
7FA
100
AcDbEntity
  8
0
100
AcDbLine
 10
104.0000003571119
 20
15.00000015151909
 30
0.0
 11
104.0000003571119
 21
10.00000015151909
 31
0.0
1001
AcDbBlockRepETag
1070
     1
1071
       17
1005
88F
  0
LINE
  5
890
330
7FA
100
AcDbEntity
  8
0
100
AcDbLine
 10
59.50000035711193
 20
15.00000015151909
 30
0.0
 11
59.50000035711193
 21
10.00000015151909
 31
0.0
1001
AcDbBlockRepETag
1070
     1
1071
       18
1005
890
  0
LINE
  5
891
330
7FA
100
AcDbEntity
  8
0
100
AcDbLine
 10
15.00000035711196
 20
105.0000001515191
 30
0.0
 11
10.00000035711196
 21
105.0000001515191
 31
0.0
1001
AcDbBlockRepETag
1070
     1
1071
       19
1005
891
  0
LINE
  5
892
330
7FA
100
AcDbEntity
  8
0
100
AcDbLine
 10
15.00000035711196
 20
150.0000001515191
 30
0.0
 11
10.00000035711196
 21
150.0000001515191
 31
0.0
1001
AcDbBlockRepETag
1070
     1
1071
       20
1005
892
  0
LINE
  5
893
330
7FA
100
AcDbEntity
  8
0
100
AcDbLine
 10
15.00000035711196
 20
60.00000015151909
 30
0.0
 11
10.00000035711196
 21
60.00000015151909
 31
0.0
1001
AcDbBlockRepETag
1070
     1
1071
       21
1005
893
  0
LINE
  5
894
330
7FA
100
AcDbEntity
  8
0
100
AcDbLine
 10
148.5000003571119
 20
195.0000001515191
 30
0.0
 11
148.5000003571119
 21
200.0000001515191
 31
0.0
1001
AcDbBlockRepETag
1070
     1
1071
       22
1005
894
  0
LINE
  5
895
330
7FA
100
AcDbEntity
  8
0
100
AcDbLine
 10
193.0000003571119
 20
195.0000001515191
 30
0.0
 11
193.0000003571119
 21
200.0000001515191
 31
0.0
1001
AcDbBlockRepETag
1070
     1
1071
       23
1005
895
  0
LINE
  5
896
330
7FA
100
AcDbEntity
  8
0
100
AcDbLine
 10
237.5000003571119
 20
195.0000001515191
 30
0.0
 11
237.5000003571119
 21
200.0000001515191
 31
0.0
1001
AcDbBlockRepETag
1070
     1
1071
       24
1005
896
  0
LINE
  5
897
330
7FA
100
AcDbEntity
  8
0
100
AcDbLine
 10
104.0000003571119
 20
195.0000001515191
 30
0.0
 11
104.0000003571119
 21
200.0000001515191
 31
0.0
1001
AcDbBlockRepETag
1070
     1
1071
       25
1005
897
  0
LINE
  5
898
330
7FA
100
AcDbEntity
  8
0
100
AcDbLine
 10
59.50000035711193
 20
195.0000001515191
 30
0.0
 11
59.50000035711193
 21
200.0000001515191
 31
0.0
1001
AcDbBlockRepETag
1070
     1
1071
       26
1005
898
  0
LINE
  5
899
330
7FA
100
AcDbEntity
  8
0
100
AcDbLine
 10
282.0000003571119
 20
105.0000001515191
 30
0.0
 11
287.0000003571119
 21
105.0000001515191
 31
0.0
1001
AcDbBlockRepETag
1070
     1
1071
       27
1005
899
  0
LINE
  5
89A
330
7FA
100
AcDbEntity
  8
0
100
AcDbLine
 10
282.0000003571119
 20
150.0000001515191
 30
0.0
 11
287.0000003571119
 21
150.0000001515191
 31
0.0
1001
AcDbBlockRepETag
1070
     1
1071
       28
1005
89A
  0
LINE
  5
89B
330
7FA
100
AcDbEntity
  8
0
100
AcDbLine
 10
282.0000003571119
 20
60.00000015151909
 30
0.0
 11
287.0000003571119
 21
60.00000015151909
 31
0.0
1001
AcDbBlockRepETag
1070
     1
1071
       29
1005
89B
  0
MTEXT
  5
89C
330
7FA
100
AcDbEntity
  8
0
100
AcDbMText
 10
37.25000035711196
 20
197.5000001515191
 30
0.0
 40
2.0
 41
44.49999999999996
 46
5.0
 71
     5
 72
     5
  1
{\fMS PGothic|b0|i0|c128|p50;1}
 73
     1
 44
1.0
1001
AcDbBlockRepETag
1070
     1
1071
       30
1005
89C
  0
MTEXT
  5
89D
330
7FA
100
AcDbEntity
  8
0
100
AcDbMText
 10
81.75000035711191
 20
197.5000001515191
 30
0.0
 40
2.0
 41
44.49999999999996
 46
5.0
 71
     5
 72
     5
  1
{\fMS PGothic|b0|i0|c128|p50;2}
 73
     1
 44
1.0
1001
AcDbBlockRepETag
1070
     1
1071
       31
1005
89D
  0
MTEXT
  5
89E
330
7FA
100
AcDbEntity
  8
0
100
AcDbMText
 10
126.2500003571119
 20
197.5000001515191
 30
0.0
 40
2.0
 41
44.49999999999996
 46
5.0
 71
     5
 72
     5
  1
{\fMS PGothic|b0|i0|c128|p50;3}
 73
     1
 44
1.0
1001
AcDbBlockRepETag
1070
     1
1071
       32
1005
89E
  0
MTEXT
  5
89F
330
7FA
100
AcDbEntity
  8
0
100
AcDbMText
 10
170.7500003571119
 20
197.5000001515191
 30
0.0
 40
2.0
 41
44.49999999999996
 46
5.0
 71
     5
 72
     5
  1
{\fMS PGothic|b0|i0|c128|p50;4}
 73
     1
 44
1.0
1001
AcDbBlockRepETag
1070
     1
1071
       33
1005
89F
  0
MTEXT
  5
8A0
330
7FA
100
AcDbEntity
  8
0
100
AcDbMText
 10
215.2500003571119
 20
197.5000001515191
 30
0.0
 40
2.0
 41
44.49999999999996
 46
5.0
 71
     5
 72
     5
  1
{\fMS PGothic|b0|i0|c128|p50;5}
 73
     1
 44
1.0
1001
AcDbBlockRepETag
1070
     1
1071
       34
1005
8A0
  0
MTEXT
  5
8A1
330
7FA
100
AcDbEntity
  8
0
100
AcDbMText
 10
259.7500003571119
 20
197.5000001515191
 30
0.0
 40
2.0
 41
44.49999999999996
 46
5.0
 71
     5
 72
     5
  1
{\fMS PGothic|b0|i0|c128|p50;6}
 73
     1
 44
1.0
1001
AcDbBlockRepETag
1070
     1
1071
       35
1005
8A1
  0
MTEXT
  5
8A2
330
7FA
100
AcDbEntity
  8
0
100
AcDbMText
 10
37.25000035711194
 20
12.50000015151909
 30
0.0
 40
2.0
 41
44.49999999999996
 46
5.0
 71
     5
 72
     5
  1
{\fMS PGothic|b0|i0|c128|p50;1}
 73
     1
 44
1.0
1001
AcDbBlockRepETag
1070
     1
1071
       36
1005
8A2
  0
MTEXT
  5
8A3
330
7FA
100
AcDbEntity
  8
0
100
AcDbMText
 10
81.75000035711191
 20
12.50000015151909
 30
0.0
 40
2.0
 41
44.49999999999996
 46
5.0
 71
     5
 72
     5
  1
{\fMS PGothic|b0|i0|c128|p50;2}
 73
     1
 44
1.0
1001
AcDbBlockRepETag
1070
     1
1071
       37
1005
8A3
  0
MTEXT
  5
8A4
330
7FA
100
AcDbEntity
  8
0
100
AcDbMText
 10
126.2500003571119
 20
12.50000015151909
 30
0.0
 40
2.0
 41
44.49999999999996
 46
5.0
 71
     5
 72
     5
  1
{\fMS PGothic|b0|i0|c128|p50;3}
 73
     1
 44
1.0
1001
AcDbBlockRepETag
1070
     1
1071
       38
1005
8A4
  0
MTEXT
  5
8A5
330
7FA
100
AcDbEntity
  8
0
100
AcDbMText
 10
170.7500003571119
 20
12.50000015151909
 30
0.0
 40
2.0
 41
44.49999999999996
 46
5.0
 71
     5
 72
     5
  1
{\fMS PGothic|b0|i0|c128|p50;4}
 73
     1
 44
1.0
1001
AcDbBlockRepETag
1070
     1
1071
       39
1005
8A5
  0
MTEXT
  5
8A6
330
7FA
100
AcDbEntity
  8
0
100
AcDbMText
 10
215.2500003571119
 20
12.50000015151909
 30
0.0
 40
2.0
 41
44.49999999999996
 46
5.0
 71
     5
 72
     5
  1
{\fMS PGothic|b0|i0|c128|p50;5}
 73
     1
 44
1.0
1001
AcDbBlockRepETag
1070
     1
1071
       40
1005
8A6
  0
MTEXT
  5
8A7
330
7FA
100
AcDbEntity
  8
0
100
AcDbMText
 10
259.7500003571119
 20
12.50000015151909
 30
0.0
 40
2.0
 41
44.49999999999996
 46
5.0
 71
     5
 72
     5
  1
{\fMS PGothic|b0|i0|c128|p50;6}
 73
     1
 44
1.0
1001
AcDbBlockRepETag
1070
     1
1071
       41
1005
8A7
  0
MTEXT
  5
8A8
330
7FA
100
AcDbEntity
  8
0
100
AcDbMText
 10
12.50000035711196
 20
172.5000001515191
 30
0.0
 40
2.0
 41
4.999999999999992
 46
45.0
 71
     5
 72
     5
  1
{\fMS PGothic|b0|i0|c128|p50;A}
 73
     1
 44
1.0
1001
AcDbBlockRepETag
1070
     1
1071
       42
1005
8A8
  0
MTEXT
  5
8A9
330
7FA
100
AcDbEntity
  8
0
100
AcDbMText
 10
12.50000035711196
 20
127.5000001515191
 30
0.0
 40
2.0
 41
4.999999999999992
 46
45.0
 71
     5
 72
     5
  1
{\fMS PGothic|b0|i0|c128|p50;B}
 73
     1
 44
1.0
1001
AcDbBlockRepETag
1070
     1
1071
       43
1005
8A9
  0
MTEXT
  5
8AA
330
7FA
100
AcDbEntity
  8
0
100
AcDbMText
 10
12.50000035711196
 20
82.50000015151909
 30
0.0
 40
2.0
 41
4.999999999999992
 46
45.0
 71
     5
 72
     5
  1
{\fMS PGothic|b0|i0|c128|p50;C}
 73
     1
 44
1.0
1001
AcDbBlockRepETag
1070
     1
1071
       44
1005
8AA
  0
MTEXT
  5
8AB
330
7FA
100
AcDbEntity
  8
0
100
AcDbMText
 10
12.50000035711196
 20
37.5000001515191
 30
0.0
 40
2.0
 41
4.999999999999992
 46
45.0
 71
     5
 72
     5
  1
{\fMS PGothic|b0|i0|c128|p50;D}
 73
     1
 44
1.0
1001
AcDbBlockRepETag
1070
     1
1071
       45
1005
8AB
  0
MTEXT
  5
8AC
330
7FA
100
AcDbEntity
  8
0
100
AcDbMText
 10
284.500000357112
 20
172.500000151519
 30
0.0
 40
2.0
 41
4.999999999999992
 46
45.0
 71
     5
 72
     5
  1
{\fMS PGothic|b0|i0|c128|p50;A}
 73
     1
 44
1.0
1001
AcDbBlockRepETag
1070
     1
1071
       46
1005
8AC
  0
MTEXT
  5
8AD
330
7FA
100
AcDbEntity
  8
0
100
AcDbMText
 10
284.500000357112
 20
127.500000151519
 30
0.0
 40
2.0
 41
4.999999999999992
 46
45.0
 71
     5
 72
     5
  1
{\fMS PGothic|b0|i0|c128|p50;B}
 73
     1
 44
1.0
1001
AcDbBlockRepETag
1070
     1
1071
       47
1005
8AD
  0
MTEXT
  5
8AE
330
7FA
100
AcDbEntity
  8
0
100
AcDbMText
 10
284.500000357112
 20
82.50000015151902
 30
0.0
 40
2.0
 41
4.999999999999992
 46
45.0
 71
     5
 72
     5
  1
{\fMS PGothic|b0|i0|c128|p50;C}
 73
     1
 44
1.0
1001
AcDbBlockRepETag
1070
     1
1071
       48
1005
8AE
  0
MTEXT
  5
8AF
330
7FA
100
AcDbEntity
  8
0
100
AcDbMText
 10
284.500000357112
 20
37.50000015151901
 30
0.0
 40
2.0
 41
4.999999999999992
 46
45.0
 71
     5
 72
     5
  1
{\fMS PGothic|b0|i0|c128|p50;D}
 73
     1
 44
1.0
1001
AcDbBlockRepETag
1070
     1
1071
       49
1005
8AF
  0
CIRCLE
  5
8B0
330
7FA
100
AcDbEntity
  8
0
100
AcDbCircle
 10
192.0812869784004
 20
45.00834966916121
 30
0.0
 40
2.799999999999998
1001
AcDbBlockRepETag
1070
     1
1071
       50
1005
8B0
  0
CIRCLE
  5
8B1
330
7FA
100
AcDbEntity
  8
0
100
AcDbCircle
 10
192.0812869784004
 20
45.00834966916121
 30
0.0
 40
1.6
1001
AcDbBlockRepETag
1070
     1
1071
       51
1005
8B1
  0
LINE
  5
8B2
330
7FA
100
AcDbEntity
  8
0
100
AcDbLine
 10
197.2812869784003
 20
46.60834966916121
 30
0.0
 11
204.0812869784004
 21
47.80834966916121
 31
0.0
1001
AcDbBlockRepETag
1070
     1
1071
       52
1005
8B2
  0
LINE
  5
8B3
330
7FA
100
AcDbEntity
  8
0
100
AcDbLine
 10
197.2812869784003
 20
46.60834966916121
 30
0.0
 11
197.2812869784003
 21
43.40834966916125
 31
0.0
1001
AcDbBlockRepETag
1070
     1
1071
       53
1005
8B3
  0
LINE
  5
8B4
330
7FA
100
AcDbEntity
  8
0
100
AcDbLine
 10
204.0812869784004
 20
47.80834966916121
 30
0.0
 11
204.0812869784004
 21
42.20834966916124
 31
0.0
1001
AcDbBlockRepETag
1070
     1
1071
       54
1005
8B4
  0
LINE
  5
8B5
330
7FA
100
AcDbEntity
  8
0
100
AcDbLine
 10
197.2812869784003
 20
43.40834966916125
 30
0.0
 11
204.0812869784004
 21
42.20834966916124
 31
0.0
1001
AcDbBlockRepETag
1070
     1
1071
       55
1005
8B5
  0
LINE
  5
8B6
330
7FA
100
AcDbEntity
  8
0
100
AcDbLine
 10
192.0812869784004
 20
48.60834966916121
 30
0.0
 11
192.0812869784004
 21
41.40834966916123
 31
0.0
1001
AcDbBlockRepETag
1070
     1
1071
       56
1005
8B6
  0
LINE
  5
8B7
330
7FA
100
AcDbEntity
  8
0
100
AcDbLine
 10
188.5066513252489
 20
45.00834966916121
 30
0.0
 11
195.6524628040714
 21
45.00834966916121
 31
0.0
1001
AcDbBlockRepETag
1070
     1
1071
       57
1005
8B7
  0
LINE
  5
8B8
330
7FA
100
AcDbEntity
  8
0
100
AcDbLine
 10
196.4812869784004
 20
45.00834966916121
 30
0.0
 11
204.8812869784004
 21
45.00834966916121
 31
0.0
1001
AcDbBlockRepETag
1070
     1
1071
       58
1005
8B8
  0
MTEXT
  5
8B9
330
7FA
100
AcDbEntity
  8
0
100
AcDbMText
 10
212.096194576564
 20
29.0000001515191
 30
0.0
 40
1.0
 41
8.780474292418944
 46
0.0
 71
     1
 72
     5
  1
{\fMS PGothic|b0|i0|c128|p50;　社　名}
 73
     1
 44
1.0
1001
AcDbBlockRepETag
1070
     1
1071
       59
1005
8B9
  0
MTEXT
  5
8BA
330
7FA
100
AcDbEntity
  8
0
100
AcDbMText
 10
212.096194576564
 20
39.0000001515191
 30
0.0
 40
1.0
 41
8.780474292418944
 46
0.0
 71
     1
 72
     5
  1
{\fMS PGothic|b0|i0|c128|p50;　品 名 2}
 73
     1
 44
1.0
1001
AcDbBlockRepETag
1070
     1
1071
       60
1005
8BA
  0
MTEXT
  5
8BB
330
7FA
100
AcDbEntity
  8
0
100
AcDbMText
 10
212.096194576564
 20
49.0000001515191
 30
0.0
 40
1.0
 41
8.780474292418944
 46
0.0
 71
     1
 72
     5
  1
{\fMS PGothic|b0|i0|c128|p50;　品 名 1}
 73
     1
 44
1.0
1001
AcDbBlockRepETag
1070
     1
1071
       61
1005
8BB
  0
MTEXT
  5
8BC
330
7FA
100
AcDbEntity
  8
0
100
AcDbMText
 10
182.0000003571119
 20
49.0000001515191
 30
0.0
 40
1.0
 41
8.780474292418944
 46
0.0
 71
     1
 72
     5
  1
{\fMS PGothic|b0|i0|c128|p50;　図　法}
 73
     1
 44
1.0
1001
AcDbBlockRepETag
1070
     1
1071
       62
1005
8BC
  0
MTEXT
  5
8BD
330
7FA
100
AcDbEntity
  8
0
100
AcDbMText
 10
182.0000003571119
 20
34.0000001515191
 30
0.0
 40
1.0
 41
8.780474292418944
 46
0.0
 71
     1
 72
     5
  1
{\fMS PGothic|b0|i0|c128|p50;　製　図}
 73
     1
 44
1.0
1001
AcDbBlockRepETag
1070
     1
1071
       63
1005
8BD
  0
MTEXT
  5
8BF
330
7FA
100
AcDbEntity
  8
0
100
AcDbMText
 10
182.0000003571119
 20
39.0000001515191
 30
0.0
 40
1.0
 41
8.780474292418944
 46
0.0
 71
     1
 72
     5
  1
{\fMS PGothic|b0|i0|c128|p50;　尺　度}
 73
     1
 44
1.0
1001
AcDbBlockRepETag
1070
     1
1071
       64
1005
8BF
  0
MTEXT
  5
8C0
330
7FA
100
AcDbEntity
  8
0
100
AcDbMText
 10
224.6818554298403
 20
19.50000015151909
 30
0.0
 40
2.0
 41
57.3181449272716
 46
5.000000000000004
 71
     1
 72
     5
  1
{\fMS Gothic|b0|i0|c128|p49;株式会社 ＫＤＡ\H0.5x; (ケーディーエー)}
 73
     1
 44
1.0
1001
AcDbBlockRepETag
1070
     1
1071
       65
1005
8C0
  0
ENDBLK
  5
84C
330
7FA
100
AcDbEntity
  8
0
100
AcDbBlockEnd
  0
BLOCK
  5
8D9
330
8D8
100
AcDbEntity
  8
0
100
AcDbBlockBegin
  2
*D8
 70
     1
 10
0.0
 20
0.0
 30
0.0
  3
*D8
  1

  0
LINE
  5
8DA
330
8D8
100
AcDbEntity
  8
0
 62
     0
370
    -2
100
AcDbLine
 10
750.9831179146877
 20
1332.035699692635
 30
0.0
 11
750.9831179146877
 21
1337.160699692635
 31
0.0
  0
LINE
  5
8DB
330
8D8
100
AcDbEntity
  8
0
 62
     0
370
    -2
100
AcDbLine
 10
795.9831179146878
 20
1327.043830585725
 30
0.0
 11
795.9831179146878
 21
1337.160699692635
 31
0.0
  0
LINE
  5
8DC
330
8D8
100
AcDbEntity
  8
0
 62
     0
370
    -2
100
AcDbLine
 10
752.7831179146877
 20
1335.910699692635
 30
0.0
 11
794.183117914688
 21
1335.910699692635
 31
0.0
  0
INSERT
  5
8DD
330
8D8
100
AcDbEntity
  8
0
 62
     0
370
    -2
100
AcDbBlockReference
  2
_Open30
 10
750.9831179146877
 20
1335.910699692635
 30
0.0
 41
1.8
 42
1.8
 43
1.8
 50
180.0
  0
INSERT
  5
8DE
330
8D8
100
AcDbEntity
  8
0
 62
     0
370
    -2
100
AcDbBlockReference
  2
_Open30
 10
795.9831179146878
 20
1335.910699692635
 30
0.0
 41
1.8
 42
1.8
 43
1.8
  0
MTEXT
  5
8DF
330
8D8
100
AcDbEntity
  8
0
 62
     0
100
AcDbMText
 10
773.4831179146878
 20
1337.635699692635
 30
0.0
 40
2.2
 41
0.0
 46
0.0
 71
     5
 72
     1
  1
45
 73
     1
 44
1.0
  0
POINT
  5
8E0
330
8D8
100
AcDbEntity
  8
Defpoints
 62
     0
100
AcDbPoint
 10
750.9831179146877
 20
1331.410699692635
 30
0.0
  0
POINT
  5
8E1
330
8D8
100
AcDbEntity
  8
Defpoints
 62
     0
100
AcDbPoint
 10
795.9831179146878
 20
1326.418830585725
 30
0.0
  0
POINT
  5
8E2
330
8D8
100
AcDbEntity
  8
Defpoints
 62
     0
100
AcDbPoint
 10
795.9831179146878
 20
1335.910699692635
 30
0.0
  0
ENDBLK
  5
8E3
330
8D8
100
AcDbEntity
  8
0
100
AcDbBlockEnd
  0
BLOCK
  5
8E5
330
8E4
100
AcDbEntity
  8
0
100
AcDbBlockBegin
  2
*D9
 70
     1
 10
0.0
 20
0.0
 30
0.0
  3
*D9
  1

  0
LINE
  5
8E6
330
8E4
100
AcDbEntity
  8
0
 62
     0
370
    -2
100
AcDbLine
 10
780.9831179146877
 20
1327.855830585725
 30
0.0
 11
780.9831179146877
 21
1332.660699692635
 31
0.0
  0
LINE
  5
8E7
330
8E4
100
AcDbEntity
  8
0
 62
     0
370
    -2
100
AcDbLine
 10
795.9831179146878
 20
1327.043830585725
 30
0.0
 11
795.9831179146878
 21
1332.660699692635
 31
0.0
  0
LINE
  5
8E8
330
8E4
100
AcDbEntity
  8
0
 62
     0
370
    -2
100
AcDbLine
 10
782.783117914688
 20
1331.410699692635
 30
0.0
 11
794.183117914688
 21
1331.410699692635
 31
0.0
  0
INSERT
  5
8E9
330
8E4
100
AcDbEntity
  8
0
 62
     0
370
    -2
100
AcDbBlockReference
  2
_Open30
 10
780.9831179146877
 20
1331.410699692635
 30
0.0
 41
1.8
 42
1.8
 43
1.8
 50
180.0
  0
INSERT
  5
8EA
330
8E4
100
AcDbEntity
  8
0
 62
     0
370
    -2
100
AcDbBlockReference
  2
_Open30
 10
795.9831179146878
 20
1331.410699692635
 30
0.0
 41
1.8
 42
1.8
 43
1.8
  0
MTEXT
  5
8EB
330
8E4
100
AcDbEntity
  8
0
 62
     0
100
AcDbMText
 10
788.4831179146877
 20
1333.135699692635
 30
0.0
 40
2.2
 41
0.0
 46
0.0
 71
     5
 72
     1
  1
15
 73
     1
 44
1.0
  0
POINT
  5
8EC
330
8E4
100
AcDbEntity
  8
Defpoints
 62
     0
100
AcDbPoint
 10
780.9831179146877
 20
1327.230830585725
 30
0.0
  0
POINT
  5
8ED
330
8E4
100
AcDbEntity
  8
Defpoints
 62
     0
100
AcDbPoint
 10
795.9831179146878
 20
1326.418830585725
 30
0.0
  0
POINT
  5
8EE
330
8E4
100
AcDbEntity
  8
Defpoints
 62
     0
100
AcDbPoint
 10
795.9831179146878
 20
1331.410699692635
 30
0.0
  0
ENDBLK
  5
8EF
330
8E4
100
AcDbEntity
  8
0
100
AcDbBlockEnd
  0
BLOCK
  5
975
330
96B
100
AcDbEntity
  8
0
100
AcDbBlockBegin
  2
*D10
 70
     1
 10
0.0
 20
0.0
 30
0.0
  3
*D10
  1

  0
LINE
  5
977
330
96B
100
AcDbEntity
  8
0
 62
     0
370
    -2
100
AcDbLine
 10
733.013724936262
 20
-120.6401574760536
 30
0.0
 11
733.013724936262
 21
-115.5151574760536
 31
0.0
  0
LINE
  5
978
330
96B
100
AcDbEntity
  8
0
 62
     0
370
    -2
100
AcDbLine
 10
778.0137249362619
 20
-125.6320265829633
 30
0.0
 11
778.0137249362619
 21
-115.5151574760536
 31
0.0
  0
LINE
  5
979
330
96B
100
AcDbEntity
  8
0
 62
     0
370
    -2
100
AcDbLine
 10
734.8137249362618
 20
-116.7651574760536
 30
0.0
 11
776.2137249362621
 21
-116.7651574760536
 31
0.0
  0
INSERT
  5
97A
330
96B
100
AcDbEntity
  8
0
 62
     0
370
    -2
100
AcDbBlockReference
  2
_Open30
 10
733.013724936262
 20
-116.7651574760536
 30
0.0
 41
1.8
 42
1.8
 43
1.8
 50
180.0
  0
INSERT
  5
97B
330
96B
100
AcDbEntity
  8
0
 62
     0
370
    -2
100
AcDbBlockReference
  2
_Open30
 10
778.0137249362619
 20
-116.7651574760536
 30
0.0
 41
1.8
 42
1.8
 43
1.8
  0
MTEXT
  5
97C
330
96B
100
AcDbEntity
  8
0
 62
     0
100
AcDbMText
 10
755.5137249362619
 20
-115.0401574760536
 30
0.0
 40
2.2
 41
0.0
 46
0.0
 71
     5
 72
     1
  1
45
 73
     1
 44
1.0
  0
POINT
  5
97D
330
96B
100
AcDbEntity
  8
Defpoints
 62
     0
100
AcDbPoint
 10
733.013724936262
 20
-121.2651574760537
 30
0.0
  0
POINT
  5
97E
330
96B
100
AcDbEntity
  8
Defpoints
 62
     0
100
AcDbPoint
 10
778.0137249362619
 20
-126.2570265829633
 30
0.0
  0
POINT
  5
97F
330
96B
100
AcDbEntity
  8
Defpoints
 62
     0
100
AcDbPoint
 10
778.0137249362619
 20
-116.7651574760536
 30
0.0
  0
ENDBLK
  5
976
330
96B
100
AcDbEntity
  8
0
100
AcDbBlockEnd
  0
BLOCK
  5
98A
330
980
100
AcDbEntity
  8
0
100
AcDbBlockBegin
  2
*D11
 70
     1
 10
0.0
 20
0.0
 30
0.0
  3
*D11
  1

  0
LINE
  5
981
330
980
100
AcDbEntity
  8
0
 62
     0
370
    -2
100
AcDbLine
 10
763.013724936262
 20
-124.8200265829634
 30
0.0
 11
763.013724936262
 21
-120.0151574760536
 31
0.0
  0
LINE
  5
982
330
980
100
AcDbEntity
  8
0
 62
     0
370
    -2
100
AcDbLine
 10
778.0137249362619
 20
-125.6320265829633
 30
0.0
 11
778.0137249362619
 21
-120.0151574760536
 31
0.0
  0
LINE
  5
983
330
980
100
AcDbEntity
  8
0
 62
     0
370
    -2
100
AcDbLine
 10
764.813724936262
 20
-121.2651574760537
 30
0.0
 11
776.2137249362621
 21
-121.2651574760537
 31
0.0
  0
INSERT
  5
984
330
980
100
AcDbEntity
  8
0
 62
     0
370
    -2
100
AcDbBlockReference
  2
_Open30
 10
763.013724936262
 20
-121.2651574760537
 30
0.0
 41
1.8
 42
1.8
 43
1.8
 50
180.0
  0
INSERT
  5
985
330
980
100
AcDbEntity
  8
0
 62
     0
370
    -2
100
AcDbBlockReference
  2
_Open30
 10
778.0137249362619
 20
-121.2651574760537
 30
0.0
 41
1.8
 42
1.8
 43
1.8
  0
MTEXT
  5
986
330
980
100
AcDbEntity
  8
0
 62
     0
100
AcDbMText
 10
770.513724936262
 20
-119.5401574760537
 30
0.0
 40
2.2
 41
0.0
 46
0.0
 71
     5
 72
     1
  1
15
 73
     1
 44
1.0
  0
POINT
  5
987
330
980
100
AcDbEntity
  8
Defpoints
 62
     0
100
AcDbPoint
 10
763.013724936262
 20
-125.4450265829634
 30
0.0
  0
POINT
  5
988
330
980
100
AcDbEntity
  8
Defpoints
 62
     0
100
AcDbPoint
 10
778.0137249362619
 20
-126.2570265829633
 30
0.0
  0
POINT
  5
989
330
980
100
AcDbEntity
  8
Defpoints
 62
     0
100
AcDbPoint
 10
778.0137249362619
 20
-121.2651574760537
 30
0.0
  0
ENDBLK
  5
98B
330
980
100
AcDbEntity
  8
0
100
AcDbBlockEnd
  0
BLOCK
  5
9CB
330
9C1
100
AcDbEntity
  8
0
100
AcDbBlockBegin
  2
*D12
 70
     1
 10
0.0
 20
0.0
 30
0.0
  3
*D12
  1

  0
LINE
  5
AF7
330
9C1
100
AcDbEntity
  8
dimention
 62
     0
370
    -2
100
AcDbLine
 10
0.0000000514729237
 20
3.87749897923001
 30
0.0
 11
0.000000051472924
 21
7.664079710563782
 31
0.0
  0
LINE
  5
AF8
330
9C1
100
AcDbEntity
  8
dimention
 62
     0
370
    -2
100
AcDbLine
 10
3.900000051472926
 20
3.87749897923001
 30
0.0
 11
3.900000051472927
 21
7.664079710563782
 31
0.0
  0
LINE
  5
AF9
330
9C1
100
AcDbEntity
  8
dimention
 62
     0
370
    -2
100
AcDbLine
 10
0.5000000514729239
 20
7.164079710563782
 30
0.0
 11
3.400000051472928
 21
7.164079710563782
 31
0.0
  0
INSERT
  5
AFA
330
9C1
100
AcDbEntity
  8
dimention
 62
     0
370
    -2
100
AcDbBlockReference
  2
_Open30
 10
0.0000000514729239
 20
7.164079710563782
 30
0.0
 41
0.5
 42
0.5
 43
0.5
 50
180.0
  0
INSERT
  5
AFB
330
9C1
100
AcDbEntity
  8
dimention
 62
     0
370
    -2
100
AcDbBlockReference
  2
_Open30
 10
3.900000051472927
 20
7.164079710563782
 30
0.0
 41
0.5
 42
0.5
 43
0.5
  0
MTEXT
  5
AFC
330
9C1
100
AcDbEntity
  8
dimention
 62
     0
100
AcDbMText
 10
1.950000051472926
 20
7.964079710563781
 30
0.0
 40
1.0
 41
0.0
 46
0.0
 71
     5
 72
     1
  1
\A1;3.9
 73
     1
 44
1.0
  0
POINT
  5
AFD
330
9C1
100
AcDbEntity
  8
Defpoints
 62
     0
100
AcDbPoint
 10
0.0000000514729237
 20
3.37749897923001
 30
0.0
  0
POINT
  5
AFE
330
9C1
100
AcDbEntity
  8
Defpoints
 62
     0
100
AcDbPoint
 10
3.900000051472926
 20
3.37749897923001
 30
0.0
  0
POINT
  5
AFF
330
9C1
100
AcDbEntity
  8
Defpoints
 62
     0
100
AcDbPoint
 10
3.900000051472927
 20
7.164079710563782
 30
0.0
  0
ENDBLK
  5
9CC
330
9C1
100
AcDbEntity
  8
0
100
AcDbBlockEnd
  0
BLOCK
  5
9E5
330
9D9
100
AcDbEntity
  8
0
100
AcDbBlockBegin
  2
*D13
 70
     1
 10
0.0
 20
0.0
 30
0.0
  3
*D13
  1

  0
LINE
  5
B00
330
9D9
100
AcDbEntity
  8
dimention
 62
     0
370
    -2
100
AcDbLine
 10
10.04985978730528
 20
4.644313013133994
 30
0.0
 11
10.04985978730528
 21
7.664079710563782
 31
0.0
  0
LINE
  5
B01
330
9D9
100
AcDbEntity
  8
dimention
 62
     0
370
    -2
100
AcDbLine
 10
11.44985978730528
 20
5.003332004149996
 30
0.0
 11
11.44985978730528
 21
7.664079710563782
 31
0.0
  0
LINE
  5
B02
330
9D9
100
AcDbEntity
  8
dimention
 62
     0
370
    -2
100
AcDbLine
 10
11.94985978730528
 20
7.164079710563782
 30
0.0
 11
12.44985978730528
 21
7.164079710563782
 31
0.0
  0
LINE
  5
B03
330
9D9
100
AcDbEntity
  8
dimention
 62
     0
370
    -2
100
AcDbLine
 10
9.549859787305278
 20
7.164079710563782
 30
0.0
 11
6.78319312063861
 21
7.164079710563782
 31
0.0
  0
LINE
  5
B04
330
9D9
100
AcDbEntity
  8
dimention
 62
     0
370
    -2
100
AcDbLine
 10
11.44985978730528
 20
7.164079710563782
 30
0.0
 11
10.04985978730528
 21
7.164079710563782
 31
0.0
  0
INSERT
  5
B05
330
9D9
100
AcDbEntity
  8
dimention
 62
     0
370
    -2
100
AcDbBlockReference
  2
_Open30
 10
11.44985978730528
 20
7.164079710563782
 30
0.0
 41
0.5
 42
0.5
 43
0.5
 50
180.0
  0
INSERT
  5
B06
330
9D9
100
AcDbEntity
  8
dimention
 62
     0
370
    -2
100
AcDbBlockReference
  2
_Open30
 10
10.04985978730528
 20
7.164079710563782
 30
0.0
 41
0.5
 42
0.5
 43
0.5
  0
MTEXT
  5
B07
330
9D9
100
AcDbEntity
  8
dimention
 62
     0
100
AcDbMText
 10
7.916526453971943
 20
7.964079710563781
 30
0.0
 40
1.0
 41
0.0
 46
0.0
 71
     5
 72
     1
  1
\A1;1.4
 73
     1
 44
1.0
  0
POINT
  5
B08
330
9D9
100
AcDbEntity
  8
Defpoints
 62
     0
100
AcDbPoint
 10
10.04985978730528
 20
4.144313013133992
 30
0.0
  0
POINT
  5
B09
330
9D9
100
AcDbEntity
  8
Defpoints
 62
     0
100
AcDbPoint
 10
11.44985978730528
 20
4.503332004149996
 30
0.0
  0
POINT
  5
B0A
330
9D9
100
AcDbEntity
  8
Defpoints
 62
     0
100
AcDbPoint
 10
11.44985978730528
 20
7.164079710563782
 30
0.0
  0
ENDBLK
  5
9E6
330
9D9
100
AcDbEntity
  8
0
100
AcDbBlockEnd
  0
BLOCK
  5
A0A
330
A00
100
AcDbEntity
  8
0
100
AcDbBlockBegin
  2
*D14
 70
     1
 10
0.0
 20
0.0
 30
0.0
  3
*D14
  1

  0
LINE
  5
B0B
330
A00
100
AcDbEntity
  8
dimention
 62
     0
370
    -2
100
AcDbLine
 10
11.44985978730528
 20
5.003332004149996
 30
0.0
 11
11.44985978730528
 21
7.664079710563782
 31
0.0
  0
LINE
  5
B0C
330
A00
100
AcDbEntity
  8
dimention
 62
     0
370
    -2
100
AcDbLine
 10
16.44985978730528
 20
3.534665954310383
 30
0.0
 11
16.44985978730528
 21
7.664079710563782
 31
0.0
  0
LINE
  5
B0D
330
A00
100
AcDbEntity
  8
dimention
 62
     0
370
    -2
100
AcDbLine
 10
11.94985978730528
 20
7.164079710563782
 30
0.0
 11
15.94985978730528
 21
7.164079710563782
 31
0.0
  0
INSERT
  5
B0E
330
A00
100
AcDbEntity
  8
dimention
 62
     0
370
    -2
100
AcDbBlockReference
  2
_Open30
 10
11.44985978730528
 20
7.164079710563782
 30
0.0
 41
0.5
 42
0.5
 43
0.5
 50
180.0
  0
INSERT
  5
B0F
330
A00
100
AcDbEntity
  8
dimention
 62
     0
370
    -2
100
AcDbBlockReference
  2
_Open30
 10
16.44985978730528
 20
7.164079710563782
 30
0.0
 41
0.5
 42
0.5
 43
0.5
  0
MTEXT
  5
B10
330
A00
100
AcDbEntity
  8
dimention
 62
     0
100
AcDbMText
 10
13.94985978730528
 20
7.964079710563781
 30
0.0
 40
1.0
 41
0.0
 46
0.0
 71
     5
 72
     1
  1
\A1;5.0
 73
     1
 44
1.0
  0
POINT
  5
B11
330
A00
100
AcDbEntity
  8
Defpoints
 62
     0
100
AcDbPoint
 10
11.44985978730528
 20
4.503332004149996
 30
0.0
  0
POINT
  5
B12
330
A00
100
AcDbEntity
  8
Defpoints
 62
     0
100
AcDbPoint
 10
16.44985978730528
 20
3.034665954310383
 30
0.0
  0
POINT
  5
B13
330
A00
100
AcDbEntity
  8
Defpoints
 62
     0
100
AcDbPoint
 10
16.44985978730528
 20
7.164079710563782
 30
0.0
  0
ENDBLK
  5
A0B
330
A00
100
AcDbEntity
  8
0
100
AcDbBlockEnd
  0
BLOCK
  5
A23
330
A18
100
AcDbEntity
  8
0
100
AcDbBlockBegin
  2
*D15
 70
     1
 10
0.0
 20
0.0
 30
0.0
  3
*D15
  1

  0
LINE
  5
B14
330
A18
100
AcDbEntity
  8
dimention
 62
     0
370
    -2
100
AcDbLine
 10
16.44985978730528
 20
3.534665954310383
 30
0.0
 11
16.44985978730528
 21
5.900715996760709
 31
0.0
  0
LINE
  5
B15
330
A18
100
AcDbEntity
  8
dimention
 62
     0
370
    -2
100
AcDbLine
 10
12.44985978730528
 20
3.751665954310482
 30
0.0
 11
12.44985978730528
 21
5.900715996760709
 31
0.0
  0
LINE
  5
B16
330
A18
100
AcDbEntity
  8
dimention
 62
     0
370
    -2
100
AcDbLine
 10
15.94985978730528
 20
5.400715996760709
 30
0.0
 11
12.94985978730528
 21
5.400715996760709
 31
0.0
  0
INSERT
  5
B17
330
A18
100
AcDbEntity
  8
dimention
 62
     0
370
    -2
100
AcDbBlockReference
  2
_Open30
 10
16.44985978730528
 20
5.400715996760709
 30
0.0
 41
0.5
 42
0.5
 43
0.5
  0
INSERT
  5
B18
330
A18
100
AcDbEntity
  8
dimention
 62
     0
370
    -2
100
AcDbBlockReference
  2
_Open30
 10
12.44985978730528
 20
5.400715996760709
 30
0.0
 41
0.5
 42
0.5
 43
0.5
 50
180.0
  0
MTEXT
  5
B19
330
A18
100
AcDbEntity
  8
dimention
 62
     0
100
AcDbMText
 10
14.44985978730528
 20
6.200715996760709
 30
0.0
 40
1.0
 41
0.0
 46
0.0
 71
     5
 72
     1
  1
\A1;4.0
 73
     1
 44
1.0
  0
POINT
  5
B1A
330
A18
100
AcDbEntity
  8
Defpoints
 62
     0
100
AcDbPoint
 10
16.44985978730528
 20
3.034665954310383
 30
0.0
  0
POINT
  5
B1B
330
A18
100
AcDbEntity
  8
Defpoints
 62
     0
100
AcDbPoint
 10
12.44985978730528
 20
3.251665954310482
 30
0.0
  0
POINT
  5
B1C
330
A18
100
AcDbEntity
  8
Defpoints
 62
     0
100
AcDbPoint
 10
12.44985978730528
 20
5.400715996760709
 30
0.0
  0
ENDBLK
  5
A24
330
A18
100
AcDbEntity
  8
0
100
AcDbBlockEnd
  0
ENDSEC
  0
SECTION
  2
ENTITIES
  0
LWPOLYLINE
  5
9A8
102
{ACAD_REACTORS
330
9D7
102
}
330
1F
100
AcDbEntity
  8
visible1
100
AcDbPolyline
 90
        6
 70
     1
 43
0.0
 10
0.0000000514729237
 20
1.125832929390495
 10
1.950000051472954
 20
-0.0000000955292592
 10
3.900000051472926
 20
1.125832929390495
 10
3.900000051472926
 20
3.37749897923001
 10
1.950000051472954
 20
4.503332004149996
 10
0.0000000514729237
 20
3.37749897923001
  0
CIRCLE
  5
9A9
330
1F
100
AcDbEntity
  8
visible2
100
AcDbCircle
 10
1.950000051472954
 20
2.25166595431048
 30
0.0
 40
1.892647058823555
  0
LINE
  5
9AA
330
1F
100
AcDbEntity
  8
visible1
100
AcDbLine
 10
10.04985978730528
 20
4.144313013133992
 30
0.0
 11
10.04985978730528
 21
0.3590188954867415
 31
0.0
  0
LINE
  5
9AB
330
1F
100
AcDbEntity
  8
visible1
100
AcDbLine
 10
11.44985978730528
 20
4.503332004149996
 30
0.0
 11
11.44985978730528
 21
-0.0000000955292592
 31
0.0
  0
LINE
  5
9AF
330
1F
100
AcDbEntity
  8
visible1
100
AcDbLine
 10
10.25713949841258
 20
-0.0000000955292592
 30
0.0
 11
11.44985978730528
 21
-0.0000000955292592
 31
0.0
  0
LINE
  5
9B0
102
{ACAD_REACTORS
330
9F3
330
A16
102
}
330
1F
100
AcDbEntity
  8
visible1
100
AcDbLine
 10
10.25713949841247
 20
4.503332004149541
 30
0.0
 11
11.44985978730528
 21
4.503332004149996
 31
0.0
  0
LINE
  5
9B1
330
1F
100
AcDbEntity
  8
visible2
100
AcDbLine
 10
10.25713949841258
 20
1.125832929390495
 30
0.0
 11
11.44985978730528
 21
1.125832929390724
 31
0.0
  0
LINE
  5
9B2
330
1F
100
AcDbEntity
  8
visible2
100
AcDbLine
 10
10.25713949841258
 20
3.37749897923001
 30
0.0
 11
11.44985978730528
 21
3.377498979230238
 31
0.0
  0
LINE
  5
9B3
102
{ACAD_REACTORS
330
9F3
102
}
330
1F
100
AcDbEntity
  8
visible1
100
AcDbLine
 10
10.04985978730528
 20
4.144313013133992
 30
0.0
 11
10.25713949841247
 21
4.503332004149541
 31
0.0
  0
LINE
  5
9B4
330
1F
100
AcDbEntity
  8
visible1
100
AcDbLine
 10
10.04985978730528
 20
0.3590188954867415
 30
0.0
 11
10.25713949841258
 21
-0.0000000955292592
 31
0.0
  0
ARC
  5
9B5
330
1F
100
AcDbEntity
  8
visible2
100
AcDbCircle
 10
11.0797433952173
 20
0.5629164169306195
 30
0.0
 40
0.9967708718849747
100
AcDbArc
 50
145.6157525319459
 51
214.3842474680541
  0
ARC
  5
9B6
330
1F
100
AcDbEntity
  8
visible2
100
AcDbCircle
 10
13.80880554825181
 20
2.25166595431048
 30
0.0
 40
3.72583302491949
100
AcDbArc
 50
162.412046226009
 51
197.5879537739909
  0
ARC
  5
9B7
330
1F
100
AcDbEntity
  8
visible2
100
AcDbCircle
 10
11.07974339521759
 20
3.94041549168989
 30
0.0
 40
0.9967708718852183
100
AcDbArc
 50
145.6157525319617
 51
214.3842474680382
  0
DIMENSION
  5
9C0
102
{ACAD_XDICTIONARY
360
9CD
102
}
102
{ACAD_REACTORS
330
9D7
102
}
330
1F
100
AcDbEntity
  8
dimention
100
AcDbDimension
  2
*D12
 10
3.900000051472927
 20
7.164079710563782
 30
0.0
 11
1.950000051472926
 21
7.964079710563781
 31
0.0
 70
    32
 71
     5
 42
3.900000000000004
 73
     0
 74
     0
 75
     0
  3
Standard
100
AcDbAlignedDimension
 13
0.0000000514729237
 23
3.37749897923001
 33
0.0
 14
3.900000051472926
 24
3.37749897923001
 34
0.0
100
AcDbRotatedDimension
  0
DIMENSION
  5
9D8
102
{ACAD_XDICTIONARY
360
9E7
102
}
102
{ACAD_REACTORS
330
9F3
102
}
330
1F
100
AcDbEntity
  8
dimention
100
AcDbDimension
  2
*D13
 10
11.44985978730528
 20
7.164079710563782
 30
0.0
 11
7.916526453971943
 21
7.164079710563782
 31
0.0
 70
   160
 71
     5
 42
1.399999999999999
 73
     0
 74
     0
 75
     0
  3
Standard
100
AcDbAlignedDimension
 13
10.04985978730528
 23
4.144313013133992
 33
0.0
 14
11.44985978730528
 24
4.503332004149996
 34
0.0
100
AcDbRotatedDimension
  0
DIMENSION
  5
9FF
102
{ACAD_XDICTIONARY
360
A0C
102
}
102
{ACAD_REACTORS
330
A16
102
}
330
1F
100
AcDbEntity
  8
dimention
100
AcDbDimension
  2
*D14
 10
16.44985978730528
 20
7.164079710563782
 30
0.0
 11
13.94985978730528
 21
7.164079710563782
 31
0.0
 70
   160
 71
     5
 42
5.0
 73
     0
 74
     0
 75
     0
  3
Standard
100
AcDbAlignedDimension
 13
11.44985978730528
 23
4.503332004149996
 33
0.0
 14
16.44985978730528
 24
3.034665954310383
 34
0.0
100
AcDbRotatedDimension
  0
DIMENSION
  5
A17
330
1F
100
AcDbEntity
  8
dimention
100
AcDbDimension
  2
*D15
 10
12.44985978730528
 20
5.400715996760709
 30
0.0
 11
14.44985978730528
 21
5.400715996760709
 31
0.0
 70
   160
 71
     5
 42
4.0
 73
     0
 74
     0
 75
     0
  3
Standard
100
AcDbAlignedDimension
 13
16.44985978730528
 23
3.034665954310383
 33
0.0
 14
12.44985978730528
 24
3.251665954310482
 34
0.0
100
AcDbRotatedDimension
  0
LEADER
  5
A3B
330
1F
100
AcDbEntity
  8
dimention
100
AcDbLeader
  3
Standard
 73
     0
 40
1.0
 41
1.666666666666666
 76
     3
 10
14.44985978730503
 20
1.25166595431048
 30
0.0
 10
15.8563815217634
 20
-0.1548557801478945
 30
0.0
 10
17.05578428524273
 20
-0.1548557801478945
 30
0.0
340
A3C
213
0.0
223
-0.5
233
0.0
1001
ACAD
1000
DSTYLE
1002
{
1070
   147
1040
0.3
1070
    77
1070
     0
1002
}
  0
MTEXT
  5
A3C
102
{ACAD_REACTORS
330
A3B
102
}
330
1F
100
AcDbEntity
  8
dimention
100
AcDbMText
 10
17.35578428524273
 20
0.3451442198521055
 30
0.0
 40
1.0
 41
0.0
 46
0.0
 71
     1
 72
     1
  1
\A1;M2
 73
     1
 44
1.0
  0
ARC
  5
A73
330
1F
100
AcDbEntity
  8
visible1
100
AcDbCircle
 10
11.74985978730528
 20
3.551665954310663
 30
0.0
 40
0.3
100
AcDbArc
 50
180.0
 51
270.0
  0
ARC
  5
A7E
330
1F
100
AcDbEntity
  8
visible1
100
AcDbCircle
 10
11.74985978730528
 20
0.9516659543103004
 30
0.0
 40
0.3
100
AcDbArc
 50
90.0
 51
180.0
  0
LINE
  5
AA7
330
1F
100
AcDbEntity
  8
visible1
100
AcDbLine
 10
16.44985978730528
 20
3.034665954310201
 30
0.0
 11
16.44985978730528
 21
1.468665954310623
 31
0.0
  0
LINE
  5
AA8
330
1F
100
AcDbEntity
  8
visible2
100
AcDbLine
 10
12.44985978730528
 20
3.251665954310298
 30
0.0
 11
12.44985978730528
 21
1.2516659543103
 31
0.0
  0
LINE
  5
AA9
330
1F
100
AcDbEntity
  8
visible2
100
AcDbLine
 10
16.23285978730528
 20
3.251665954310298
 30
0.0
 11
16.23285978730528
 21
1.2516659543103
 31
0.0
  0
LINE
  5
AAA
330
1F
100
AcDbEntity
  8
visible1
100
AcDbLine
 10
11.74985978730528
 20
1.2516659543103
 30
0.0
 11
16.23285978730528
 21
1.2516659543103
 31
0.0
  0
LINE
  5
AAB
330
1F
100
AcDbEntity
  8
visible2
100
AcDbLine
 10
12.44985978730513
 20
1.468665954310398
 30
0.0
 11
16.44985978730528
 21
1.46866595431085
 31
0.0
  0
LINE
  5
AAC
330
1F
100
AcDbEntity
  8
visible1
100
AcDbLine
 10
11.74985978730528
 20
3.251665954310298
 30
0.0
 11
16.23285978730528
 21
3.251665954310298
 31
0.0
  0
LINE
  5
AAD
330
1F
100
AcDbEntity
  8
visible2
100
AcDbLine
 10
12.44985978730528
 20
3.034665954310201
 30
0.0
 11
16.44985978730528
 21
3.034665954310201
 31
0.0
  0
LINE
  5
AAE
330
1F
100
AcDbEntity
  8
visible1
100
AcDbLine
 10
16.44985978730528
 20
3.034665954310201
 30
0.0
 11
16.23285978730528
 21
3.251665954310298
 31
0.0
  0
LINE
  5
AAF
330
1F
100
AcDbEntity
  8
visible1
100
AcDbLine
 10
16.44985978730528
 20
1.468665954310623
 30
0.0
 11
16.23285978730528
 21
1.2516659543103
 31
0.0
  0
LINE
  5
AB0
330
1F
100
AcDbEntity
  8
visible2
100
AcDbLine
 10
12.44985978730528
 20
3.034665954310201
 30
0.0
 11
12.23285978730529
 21
3.251665954310298
 31
0.0
  0
LINE
  5
AB1
330
1F
100
AcDbEntity
  8
visible2
100
AcDbLine
 10
12.44985978730528
 20
1.468665954310623
 30
0.0
 11
12.23285978730529
 21
1.2516659543103
 31
0.0
  0
LINE
  5
B25
330
1F
100
AcDbEntity
  8
center
 48
0.1
100
AcDbLine
 10
17.44985978730528
 20
2.251665954310412
 30
0.0
 11
9.049859787305278
 21
2.251665954310368
 31
0.0
  0
LINE
  5
B27
330
1F
100
AcDbEntity
  8
center
 48
0.1
100
AcDbLine
 10
4.900000051472926
 20
2.251665954310368
 30
0.0
 11
-0.9999999485270759
 21
2.251665954310224
 31
0.0
  0
LINE
  5
B42
330
1F
100
AcDbEntity
  8
center
 48
0.1
100
AcDbLine
 10
1.950000051472953
 20
-1.000000095529258
 30
0.0
 11
1.950000051472954
 21
5.503332004149993
 31
0.0
  0
VIEWPORT
  5
C8
330
58
100
AcDbEntity
 67
     1
  8
0
100
AcDbViewport
 10
5.719999900953039
 20
4.008333223072561
 30
0.0
 40
12.36801978644424
 41
10.34582245849186
 68
     1
 69
     1
 12
5.719999900953039
 22
4.008333223072561
 13
0.0
 23
0.0
 14
10.0
 24
10.0
 15
10.0
 25
10.0
 16
0.0
 26
0.0
 36
1.0
 17
0.0
 27
0.0
 37
0.0
 42
50.0
 43
0.0
 44
0.0
 45
10.34582245849186
 50
0.0
 51
0.0
 72
  1000
 90
   557088
  1

281
     0
 71
     1
 74
     0
110
0.0
120
0.0
130
0.0
111
1.0
121
0.0
131
0.0
112
0.0
122
1.0
132
0.0
 79
     0
146
0.0
170
     0
 61
     5
348
9F
292
     1
282
     1
141
0.0
142
0.0
 63
   250
421
  3355443
  0
INSERT
  5
84D
330
58
100
AcDbEntity
 67
     1
  8
0
100
AcDbBlockReference
  2
A$C77245723
 10
-0.1249980250631576
 20
-0.1249920533320328
 30
0.0
 41
0.039348486137268
 42
0.039348486137268
 43
0.039348486137268
  0
VIEWPORT
  5
85F
330
58
100
AcDbEntity
 67
     1
  8
0
100
AcDbViewport
 10
5.718252180372954
 20
4.006598997043155
 30
0.0
 40
10.50604579865055
 41
7.082727504708241
 68
     2
 69
     2
 12
6.000000144633302
 22
2.388989628539908
 13
0.0
 23
0.0
 14
0.5
 24
0.5
 15
0.5
 25
0.5
 16
0.0
 26
0.0
 36
1.0
 17
0.0
 27
0.0
 37
0.0
 42
50.0
 43
0.0
 44
0.0
 45
70.827275460259
 50
0.0
 51
0.0
 72
  1000
 90
   557152
  1

281
     0
 71
     1
 74
     0
110
0.0
120
0.0
130
0.0
111
1.0
121
0.0
131
0.0
112
0.0
122
1.0
132
0.0
 79
     0
146
0.0
170
     0
 61
     5
348
9F
292
     1
282
     1
141
0.0
142
0.0
 63
   250
421
  3355443
  0
MTEXT
  5
A45
330
58
100
AcDbEntity
 67
     1
  8
0
100
AcDbMText
 10
8.220666147000066
 20
1.645689828807073
 30
0.0
 40
0.1
 41
2.750608932698165
 46
0.3934848613726816
 71
     4
 72
     5
  1
{\fMS PGothic|b0|i0|c128|p50;　　　ARM02-05\H0.8x; （アルミナ六角ボルトM2x5L）}
 73
     1
 44
1.0
  0
MTEXT
  5
A4B
330
58
100
AcDbEntity
 67
     1
  8
0
100
AcDbMText
 10
8.220666147000066
 20
1.252204967434394
 30
0.0
 40
0.1
 41
2.750608932698161
 46
0.3934848613726798
 71
     4
 72
     5
  1
{\fMS PGothic|b0|i0|c128|p50;　　　ZRM02-05\H0.8x; （ジルコニア六角ボルトM2x5L）}
 73
     1
 44
1.0
  0
MTEXT
  5
A52
330
58
100
AcDbEntity
 67
     1
  8
0
100
AcDbMText
 10
7.628546306485749
 20
1.350576182777563
 30
0.0
 40
0.1
 41
1.184239681028635
 46
0.1967424306863401
 71
     5
 72
     5
  1
{\fMS PGothic|b0|i0|c128|p50;1 ： 10}
 73
     1
 44
1.0
  0
MTEXT
  5
A53
330
58
100
AcDbEntity
 67
     1
  8
0
100
AcDbMText
 10
7.628546306485749
 20
1.153833752091224
 30
0.0
 40
0.06
 41
1.184239681028635
 46
0.1967424306863401
 71
     5
 72
     5
  1
{\fMS PGothic|b0|i0|c128|p50;W.O. 20100426}
 73
     1
 44
1.0
  0
ENDSEC
  0
SECTION
  2
OBJECTS
  0
DICTIONARY
  5
C
330
0
100
AcDbDictionary
281
     1
  3
ACAD_COLOR
350
73
  3
ACAD_GROUP
350
D
  3
ACAD_LAYOUT
350
1A
  3
ACAD_MATERIAL
350
72
  3
ACAD_MLINESTYLE
350
17
  3
ACAD_PLOTSETTINGS
350
19
  3
ACAD_PLOTSTYLENAME
350
E
  3
ACAD_TABLESTYLE
350
86
  3
ACAD_VISUALSTYLE
350
99
  3
AcDbVariableDictionary
350
66
  0
DICTIONARY
  5
D2
330
2
100
AcDbDictionary
280
     1
281
     1
  3
ACAD_LAYERFILTERS
360
B9C
  3
ACAD_LAYERSTATES
360
D3
  3
ACLYDICTIONARY
360
B9B
  0
DICTIONARY
  5
B2A
330
1F
100
AcDbDictionary
280
     1
281
     1
  3
ACAD_SORTENTS
360
B2B
  0
DICTIONARY
  5
272
330
223
100
AcDbDictionary
280
     1
281
     1
  3
ACAD_SORTENTS
360
273
  0
DICTIONARY
  5
2C5
330
276
100
AcDbDictionary
280
     1
281
     1
  3
ACAD_SORTENTS
360
2C6
  0
DICTIONARY
  5
527
330
42F
100
AcDbDictionary
280
     1
281
     1
  0
DICTIONARY
  5
5CF
330
534
100
AcDbDictionary
280
     1
281
     1
  0
DICTIONARY
  5
7F6
330
7A7
100
AcDbDictionary
280
     1
281
     1
  3
ACAD_SORTENTS
360
7F7
  0
DICTIONARY
  5
8C1
330
7FA
100
AcDbDictionary
280
     1
281
     1
  3
ACAD_SORTENTS
360
8C2
  0
DICTIONARY
  5
9CD
330
9C0
100
AcDbDictionary
280
     1
281
     1
  3
ACAD_DIMASSOC
360
9D7
  0
DICTIONARY
  5
9E7
330
9D8
100
AcDbDictionary
280
     1
281
     1
  3
ACAD_DIMASSOC
360
9F3
  0
DICTIONARY
  5
A0C
330
9FF
100
AcDbDictionary
280
     1
281
     1
  3
ACAD_DIMASSOC
360
A16
  0
DICTIONARY
  5
73
102
{ACAD_REACTORS
330
C
102
}
330
C
100
AcDbDictionary
281
     1
  0
DICTIONARY
  5
D
102
{ACAD_REACTORS
330
C
102
}
330
C
100
AcDbDictionary
281
     1
  3
*A1
350
179
  3
*A2
350
533
  3
*A3
350
7A6
  0
DICTIONARY
  5
1A
102
{ACAD_REACTORS
330
C
102
}
330
C
100
AcDbDictionary
281
     1
  3
Model
350
22
  3
レイアウト1
350
59
  0
DICTIONARY
  5
72
102
{ACAD_REACTORS
330
C
102
}
330
C
100
AcDbDictionary
281
     1
  3
ByBlock
350
97
  3
ByLayer
350
96
  3
Global
350
98
  0
DICTIONARY
  5
17
102
{ACAD_REACTORS
330
C
102
}
330
C
100
AcDbDictionary
281
     1
  3
Standard
350
18
  0
DICTIONARY
  5
19
102
{ACAD_REACTORS
330
C
102
}
330
C
100
AcDbDictionary
281
     1
  3
PDF A4横
350
B59
  0
ACDBDICTIONARYWDFLT
  5
E
102
{ACAD_REACTORS
330
C
102
}
330
C
100
AcDbDictionary
281
     1
  3
Normal
350
F
100
AcDbDictionaryWithDefault
340
F
  0
DICTIONARY
  5
86
102
{ACAD_REACTORS
330
C
102
}
330
C
100
AcDbDictionary
281
     1
  3
Standard
350
87
  0
DICTIONARY
  5
99
102
{ACAD_REACTORS
330
C
102
}
330
C
100
AcDbDictionary
281
     1
  3
2dWireframe
350
9F
  3
3D Hidden
350
A1
  3
3dWireframe
350
A0
  3
Basic
350
9E
  3
Brighten
350
A5
  3
ColorChange
350
A9
  3
Conceptual
350
A2
  3
Dim
350
A4
  3
Facepattern
350
A8
  3
Flat
350
9A
  3
FlatWithEdges
350
9B
  3
Gouraud
350
9C
  3
GouraudWithEdges
350
9D
  3
Linepattern
350
A7
  3
Realistic
350
A3
  3
Thicken
350
A6
  0
DICTIONARY
  5
66
102
{ACAD_REACTORS
330
C
102
}
330
C
100
AcDbDictionary
281
     1
  3
CTABLESTYLE
350
89
  3
DIMASSOC
350
67
  3
HIDETEXT
350
6B
  0
DICTIONARY
  5
B9C
102
{ACAD_REACTORS
330
D2
102
}
330
D2
100
AcDbDictionary
281
     1
  0
DICTIONARY
  5
D3
102
{ACAD_REACTORS
330
D2
102
}
330
D2
100
AcDbDictionary
281
     1
  3
kda ceramic screws
350
B98
  0
DICTIONARY
  5
B9B
102
{ACAD_REACTORS
330
D2
102
}
330
D2
100
AcDbDictionary
281
     1
1001
ACAD
1000
<All
  0
SORTENTSTABLE
  5
B2B
102
{ACAD_REACTORS
330
B2A
102
}
330
B2A
100
AcDbSortentsTable
330
1F
331
9C0
  5
A17
331
9B2
  5
9B5
331
AB1
  5
B29
331
A73
  5
AA8
331
AA9
  5
AAD
331
A3B
  5
A7E
331
9A9
  5
9AB
331
9B7
  5
9FF
331
AAE
  5
B25
331
B27
  5
B2D
331
9B3
  5
9B6
331
A17
  5
A73
331
AAA
  5
AAE
331
A3C
  5
AA7
331
9AA
  5
9AF
331
9FF
  5
A3C
331
AAF
  5
B27
331
9B4
  5
9B7
331
9AF
  5
9B2
331
AAB
  5
AAF
331
A7E
  5
AA9
331
9B0
  5
9B3
331
9AB
  5
9B1
331
AA7
  5
AAA
331
9B5
  5
9C0
331
AAC
  5
AB0
331
B25
  5
B2C
331
9B1
  5
9B4
331
AB0
  5
B28
331
AA8
  5
AAC
331
9A8
  5
9A8
331
9B6
  5
9D8
331
B42
  5
B43
331
9D8
  5
A3B
331
AAD
  5
AB1
  0
SORTENTSTABLE
  5
273
102
{ACAD_REACTORS
330
272
102
}
330
272
100
AcDbSortentsTable
330
223
  0
SORTENTSTABLE
  5
2C6
102
{ACAD_REACTORS
330
2C5
102
}
330
2C5
100
AcDbSortentsTable
330
276
  0
SORTENTSTABLE
  5
7F7
102
{ACAD_REACTORS
330
7F6
102
}
330
7F6
100
AcDbSortentsTable
330
7A7
  0
SORTENTSTABLE
  5
8C2
102
{ACAD_REACTORS
330
8C1
102
}
330
8C1
100
AcDbSortentsTable
330
7FA
  0
DIMASSOC
  5
9D7
102
{ACAD_REACTORS
330
9CD
102
}
330
9CD
100
AcDbDimAssoc
330
9C0
 90
        3
 70
     0
 71
     0
  1
AcDbOsnapPointRef
 72
     1
331
9A8
 73
     2
 91
        5
 40
0.9999999999999998
 10
0.0
 20
0.0
 30
2.000000000000000E+50
 75
     0
  1
AcDbOsnapPointRef
 72
     1
331
9A8
 73
     2
 91
        3
 40
1.0
 10
0.0
 20
0.0
 30
2.000000000000000E+50
 75
     0
  0
DIMASSOC
  5
9F3
102
{ACAD_REACTORS
330
9E7
102
}
330
9E7
100
AcDbDimAssoc
330
9D8
 90
        3
 70
     0
 71
     0
  1
AcDbOsnapPointRef
 72
    13
331
9B3
 73
     2
 91
        0
 40
0.0
 10
0.0
 20
0.0
 30
2.000000000000000E+50
 75
     0
  1
AcDbOsnapPointRef
 72
     1
331
9B0
 73
     2
 91
        0
 40
1.0
 10
0.0
 20
0.0
 30
2.000000000000000E+50
 75
     0
  0
DIMASSOC
  5
A16
102
{ACAD_REACTORS
330
A0C
102
}
330
A0C
100
AcDbDimAssoc
330
9FF
 90
        1
 70
     0
 71
     0
  1
AcDbOsnapPointRef
 72
     1
331
9B0
 73
     2
 91
        0
 40
1.0
 10
0.0
 20
0.0
 30
2.000000000000000E+50
 75
     0
  0
GROUP
  5
179
102
{ACAD_REACTORS
330
D
102
}
330
D
100
AcDbGroup
300

 70
     1
 71
     1
  0
GROUP
  5
533
102
{ACAD_REACTORS
330
D
102
}
330
D
100
AcDbGroup
300

 70
     1
 71
     1
  0
GROUP
  5
7A6
102
{ACAD_REACTORS
330
D
102
}
330
D
100
AcDbGroup
300

 70
     1
 71
     1
  0
LAYOUT
  5
22
102
{ACAD_REACTORS
330
1A
102
}
330
1A
100
AcDbPlotSettings
  1

  2
Macromedia FlashPaper
  4
A4
  6

 40
3.174999952316281
 41
3.174999952316281
 42
3.175003051757812
 43
3.17498779296875
 44
209.9733276367186
 45
296.9259948730469
 46
0.0
 47
0.0
 48
0.0
 49
0.0
140
0.0
141
0.0
142
1.0
143
1.267450439718668
 70
 11952
 72
     0
 73
     1
 74
     0
  7
monochrome.ctb
 75
     0
147
0.7889854850829238
 76
     0
 77
     2
 78
   300
148
0.8971076320843025
149
5.868066689983557
100
AcDbLayout
  1
Model
 70
     1
 71
     0
 10
0.0
 20
0.0
 11
12.0
 21
9.0
 12
0.0
 22
0.0
 32
0.0
 14
0.0
 24
0.0
 34
0.0
 15
0.0
 25
0.0
 35
0.0
146
0.0
 13
0.0
 23
0.0
 33
0.0
 16
1.0
 26
0.0
 36
0.0
 17
0.0
 27
1.0
 37
0.0
 76
     0
330
1F
331
94
1001
ACAD_PSEXT
1000
Macromedia FlashPaper
1000
MacromediaFlashPaper
1000
LPT1:
1000

1070
     0
  0
LAYOUT
  5
59
102
{ACAD_XDICTIONARY
360
17E
102
}
102
{ACAD_REACTORS
330
1A
102
}
330
1A
100
AcDbPlotSettings
  1
PDF A4横
  2
Macromedia FlashPaper.pc3
  4
A4
  6

 40
3.174999952316282
 41
3.174999952316282
 42
3.17498779296875
 43
3.175003051757812
 44
296.9259948730469
 45
209.9733276367186
 46
0.0
 47
0.0
 48
0.0
 49
0.0
140
0.0
141
0.0
142
1.0
143
0.0393700787401575
 70
   640
 72
     1
 73
     0
 74
     5
  7

 75
    16
147
25.4
 76
     0
 77
     2
 78
   300
148
0.0
149
0.0
100
AcDbLayout
  1
レイアウト1
 70
     1
 71
     1
 10
-0.1249999981226884
 20
-0.1249999981226884
 11
11.56499980002877
 21
8.141666444267812
 12
0.0
 22
0.0
 32
0.0
 14
0.2684868503613375
 24
0.268492814002694
 34
0.0
 15
11.16801751038457
 25
7.744705180083613
 35
0.0
146
0.0
 13
0.0
 23
0.0
 33
0.0
 16
1.0
 26
0.0
 36
0.0
 17
0.0
 27
1.0
 37
0.0
 76
     0
330
58
331
C8
1001
ACAD_PSEXT
1000
Macromedia FlashPaper.pc3
1000
MacromediaFlashPaper
1000
LPT1:
1000

1070
     0
  0
MATERIAL
  5
97
102
{ACAD_REACTORS
330
72
102
}
330
72
100
AcDbMaterial
  1
ByBlock
  0
MATERIAL
  5
96
102
{ACAD_REACTORS
330
72
102
}
330
72
100
AcDbMaterial
  1
ByLayer
  0
MATERIAL
  5
98
102
{ACAD_REACTORS
330
72
102
}
330
72
100
AcDbMaterial
  1
Global
  0
MLINESTYLE
  5
18
102
{ACAD_REACTORS
330
17
102
}
330
17
100
AcDbMlineStyle
  2
STANDARD
 70
     0
  3

 62
   256
 51
90.0
 52
90.0
 71
     2
 49
0.5
 62
   256
  6
BYLAYER
 49
-0.5
 62
   256
  6
BYLAYER
  0
PLOTSETTINGS
  5
B59
102
{ACAD_REACTORS
330
19
102
}
330
19
100
AcDbPlotSettings
  1
PDF A4横
  2
Macromedia FlashPaper.pc3
  4
A4
  6

 40
3.174999952316282
 41
3.174999952316282
 42
3.17498779296875
 43
3.175003051757812
 44
296.9259948730469
 45
209.9733276367186
 46
0.0
 47
0.0
 48
0.0
 49
0.0
140
0.0
141
0.0
142
1.0
143
0.0393700787401575
 70
  2688
 72
     1
 73
     0
 74
     5
  7

 75
    16
147
25.4
 76
     0
 77
     2
 78
   300
148
0.0
149
0.0
1001
ACAD_PSEXT
1000
Macromedia FlashPaper.pc3
1000
MacromediaFlashPaper
1000
LPT1:
1000

1070
     0
  0
ACDBPLACEHOLDER
  5
F
102
{ACAD_REACTORS
330
E
102
}
330
E
  0
TABLESTYLE
  5
87
102
{ACAD_REACTORS
330
86
102
}
330
86
100
AcDbTableStyle
  3
Standard
 70
     0
 71
     0
 40
0.06
 41
0.06
280
     0
281
     0
  7
Standard
140
0.18
170
     2
 62
     0
 63
     7
283
     0
 90
      512
 91
        0
  1

274
    -2
284
     1
 64
     0
275
    -2
285
     1
 65
     0
276
    -2
286
     1
 66
     0
277
    -2
287
     1
 67
     0
278
    -2
288
     1
 68
     0
279
    -2
289
     1
 69
     0
  7
Standard
140
0.25
170
     5
 62
     0
 63
     7
283
     0
 90
      512
 91
        0
  1

274
    -2
284
     1
 64
     0
275
    -2
285
     1
 65
     0
276
    -2
286
     1
 66
     0
277
    -2
287
     1
 67
     0
278
    -2
288
     1
 68
     0
279
    -2
289
     1
 69
     0
  7
Standard
140
0.18
170
     5
 62
     0
 63
     7
283
     0
 90
      512
 91
        0
  1

274
    -2
284
     1
 64
     0
275
    -2
285
     1
 65
     0
276
    -2
286
     1
 66
     0
277
    -2
287
     1
 67
     0
278
    -2
288
     1
 68
     0
279
    -2
289
     1
 69
     0
  0
VISUALSTYLE
  5
9F
102
{ACAD_REACTORS
330
99
102
}
330
99
100
AcDbVisualStyle
  2
2dWireframe
 70
     4
 71
     0
 72
     2
 73
     1
 90
        0
 40
-0.6
 41
-30.0
 62
     5
 63
     7
421
 16777215
 74
     1
 91
        4
 64
     7
 65
   257
 75
     1
175
     1
 42
1.0
 92
        0
 66
   257
 43
1.0
 76
     1
 77
     6
 78
     2
 67
     7
 79
     5
170
     0
171
     0
290
     0
174
     0
 93
        1
 44
0.0
173
     0
291
     0
 45
0.0
  0
VISUALSTYLE
  5
A1
102
{ACAD_REACTORS
330
99
102
}
330
99
100
AcDbVisualStyle
  2
3D Hidden
 70
     6
 71
     1
 72
     2
 73
     2
 90
        0
 40
-0.6
 41
-30.0
 62
     5
 63
     7
421
 16777215
 74
     2
 91
        2
 64
     7
 65
   257
 75
     2
175
     1
 42
40.0
 92
        0
 66
   257
 43
1.0
 76
     1
 77
     6
 78
     2
 67
     7
 79
     3
170
     0
171
     0
290
     0
174
     0
 93
        1
 44
0.0
173
     0
291
     0
 45
0.0
  0
VISUALSTYLE
  5
A0
102
{ACAD_REACTORS
330
99
102
}
330
99
100
AcDbVisualStyle
  2
3dWireframe
 70
     5
 71
     0
 72
     2
 73
     1
 90
        0
 40
-0.6
 41
-30.0
 62
     5
 63
     7
421
 16777215
 74
     1
 91
        4
 64
     7
 65
   257
 75
     1
175
     1
 42
1.0
 92
        0
 66
   257
 43
1.0
 76
     1
 77
     6
 78
     2
 67
     7
 79
     5
170
     0
171
     0
290
     0
174
     0
 93
        1
 44
0.0
173
     0
291
     0
 45
0.0
  0
VISUALSTYLE
  5
9E
102
{ACAD_REACTORS
330
99
102
}
330
99
100
AcDbVisualStyle
  2
Basic
 70
     7
 71
     1
 72
     0
 73
     1
 90
        0
 40
-0.6
 41
-30.0
 62
     5
 63
     7
421
 16777215
 74
     0
 91
        4
 64
     7
 65
   257
 75
     1
175
     1
 42
1.0
 92
        8
 66
     7
 43
1.0
 76
     1
 77
     6
 78
     2
 67
     7
 79
     5
170
     0
171
     0
290
     0
174
     0
 93
        1
 44
0.0
173
     0
291
     1
 45
0.0
  0
VISUALSTYLE
  5
A5
102
{ACAD_REACTORS
330
99
102
}
330
99
100
AcDbVisualStyle
  2
Brighten
 70
    12
 71
     2
 72
     2
 73
     1
 90
        0
 40
-0.6
 41
-30.0
 62
     5
 63
     7
421
 16777215
 74
     1
 91
        4
 64
     7
 65
   257
 75
     1
175
     1
 42
1.0
 92
        8
 66
     7
 43
1.0
 76
     1
 77
     6
 78
     2
 67
     7
 79
     5
170
     0
171
     0
290
     0
174
     0
 93
        1
 44
50.0
173
     0
291
     1
 45
0.0
  0
VISUALSTYLE
  5
A9
102
{ACAD_REACTORS
330
99
102
}
330
99
100
AcDbVisualStyle
  2
ColorChange
 70
    16
 71
     2
 72
     2
 73
     3
 90
        0
 40
-0.6
 41
-30.0
 62
     5
 63
     8
421
  8421504
 74
     1
 91
        4
 64
     7
 65
   257
 75
     1
175
     1
 42
1.0
 92
        8
 66
     8
424
  8421504
 43
1.0
 76
     1
 77
     6
 78
     2
 67
     7
 79
     5
170
     0
171
     0
290
     0
174
     0
 93
        1
 44
0.0
173
     0
291
     1
 45
0.0
  0
VISUALSTYLE
  5
A2
102
{ACAD_REACTORS
330
99
102
}
330
99
100
AcDbVisualStyle
  2
Conceptual
 70
     9
 71
     3
 72
     2
 73
     1
 90
        0
 40
-0.6
 41
-30.0
 62
     5
 63
     7
421
 16777215
 74
     2
 91
        2
 64
     7
 65
   257
 75
     1
175
     1
 42
40.0
 92
        8
 66
     7
 43
1.0
 76
     1
 77
     6
 78
     2
 67
     7
 79
     3
170
     0
171
     0
290
     0
174
     0
 93
        1
 44
0.0
173
     0
291
     0
 45
0.0
  0
VISUALSTYLE
  5
A4
102
{ACAD_REACTORS
330
99
102
}
330
99
100
AcDbVisualStyle
  2
Dim
 70
    11
 71
     2
 72
     2
 73
     1
 90
        0
 40
-0.6
 41
-30.0
 62
     5
 63
     7
421
 16777215
 74
     1
 91
        4
 64
     7
 65
   257
 75
     1
175
     1
 42
1.0
 92
        8
 66
     7
 43
1.0
 76
     1
 77
     6
 78
     2
 67
     7
 79
     5
170
     0
171
     0
290
     0
174
     0
 93
        1
 44
-50.0
173
     0
291
     1
 45
0.0
  0
VISUALSTYLE
  5
A8
102
{ACAD_REACTORS
330
99
102
}
330
99
100
AcDbVisualStyle
  2
Facepattern
 70
    15
 71
     2
 72
     2
 73
     1
 90
        0
 40
-0.6
 41
-30.0
 62
     5
 63
     7
421
 16777215
 74
     1
 91
        4
 64
     7
 65
   257
 75
     1
175
     1
 42
1.0
 92
        8
 66
     7
 43
1.0
 76
     1
 77
     6
 78
     2
 67
     7
 79
     5
170
     0
171
     0
290
     0
174
     0
 93
        1
 44
0.0
173
     0
291
     1
 45
0.0
  0
VISUALSTYLE
  5
9A
102
{ACAD_REACTORS
330
99
102
}
330
99
100
AcDbVisualStyle
  2
Flat
 70
     0
 71
     2
 72
     1
 73
     1
 90
        2
 40
-0.6
 41
30.0
 62
     5
 63
     7
421
 16777215
 74
     0
 91
        4
 64
     7
 65
   257
 75
     1
175
     1
 42
1.0
 92
        8
 66
     7
 43
1.0
 76
     1
 77
     6
 78
     2
 67
     7
 79
     5
170
     0
171
     0
290
     0
174
     0
 93
        1
 44
0.0
173
     0
291
     1
 45
0.0
  0
VISUALSTYLE
  5
9B
102
{ACAD_REACTORS
330
99
102
}
330
99
100
AcDbVisualStyle
  2
FlatWithEdges
 70
     1
 71
     2
 72
     1
 73
     1
 90
        2
 40
-0.6
 41
30.0
 62
     5
 63
     7
421
 16777215
 74
     1
 91
        4
 64
     7
 65
   257
 75
     1
175
     1
 42
1.0
 92
        0
 66
   257
 43
1.0
 76
     1
 77
     6
 78
     2
 67
     7
 79
     5
170
     0
171
     0
290
     0
174
     0
 93
        1
 44
0.0
173
     0
291
     1
 45
0.0
  0
VISUALSTYLE
  5
9C
102
{ACAD_REACTORS
330
99
102
}
330
99
100
AcDbVisualStyle
  2
Gouraud
 70
     2
 71
     2
 72
     2
 73
     1
 90
        2
 40
-0.6
 41
30.0
 62
     5
 63
     7
421
 16777215
 74
     0
 91
        4
 64
     7
 65
   257
 75
     1
175
     1
 42
1.0
 92
        0
 66
     7
 43
1.0
 76
     1
 77
     6
 78
     2
 67
     7
 79
     5
170
     0
171
     0
290
     0
174
     0
 93
        1
 44
0.0
173
     0
291
     1
 45
0.0
  0
VISUALSTYLE
  5
9D
102
{ACAD_REACTORS
330
99
102
}
330
99
100
AcDbVisualStyle
  2
GouraudWithEdges
 70
     3
 71
     2
 72
     2
 73
     1
 90
        2
 40
-0.6
 41
30.0
 62
     5
 63
     7
421
 16777215
 74
     1
 91
        4
 64
     7
 65
   257
 75
     1
175
     1
 42
1.0
 92
        0
 66
   257
 43
1.0
 76
     1
 77
     6
 78
     2
 67
     7
 79
     5
170
     0
171
     0
290
     0
174
     0
 93
        1
 44
0.0
173
     0
291
     1
 45
0.0
  0
VISUALSTYLE
  5
A7
102
{ACAD_REACTORS
330
99
102
}
330
99
100
AcDbVisualStyle
  2
Linepattern
 70
    14
 71
     2
 72
     2
 73
     1
 90
        0
 40
-0.6
 41
-30.0
 62
     5
 63
     7
421
 16777215
 74
     1
 91
        4
 64
     7
 65
   257
 75
     7
175
     7
 42
1.0
 92
        8
 66
     7
 43
1.0
 76
     1
 77
     6
 78
     2
 67
     7
 79
     5
170
     0
171
     0
290
     0
174
     0
 93
        1
 44
0.0
173
     0
291
     1
 45
0.0
  0
VISUALSTYLE
  5
A3
102
{ACAD_REACTORS
330
99
102
}
330
99
100
AcDbVisualStyle
  2
Realistic
 70
     8
 71
     2
 72
     2
 73
     1
 90
        0
 40
-0.6
 41
-30.0
 62
     5
 63
     7
421
 16777215
 74
     1
 91
        0
 64
     7
 65
   257
 75
     1
175
     1
 42
1.0
 92
        8
 66
     8
424
  7895160
 43
1.0
 76
     1
 77
     6
 78
     2
 67
     7
 79
     5
170
     0
171
     0
290
     0
174
     0
 93
       13
 44
0.0
173
     0
291
     0
 45
0.0
  0
VISUALSTYLE
  5
A6
102
{ACAD_REACTORS
330
99
102
}
330
99
100
AcDbVisualStyle
  2
Thicken
 70
    13
 71
     2
 72
     2
 73
     1
 90
        0
 40
-0.6
 41
-30.0
 62
     5
 63
     7
421
 16777215
 74
     1
 91
        4
 64
     7
 65
   257
 75
     1
175
     1
 42
1.0
 92
       12
 66
     7
 43
1.0
 76
     1
 77
     6
 78
     2
 67
     7
 79
     5
170
     0
171
     0
290
     0
174
     0
 93
        1
 44
0.0
173
     0
291
     1
 45
0.0
  0
DICTIONARYVAR
  5
89
102
{ACAD_REACTORS
330
66
102
}
330
66
100
DictionaryVariables
280
     0
  1
STANDARD
  0
DICTIONARYVAR
  5
67
102
{ACAD_REACTORS
330
66
102
}
330
66
100
DictionaryVariables
280
     0
  1
2
  0
DICTIONARYVAR
  5
6B
102
{ACAD_REACTORS
330
66
102
}
330
66
100
DictionaryVariables
280
     0
  1
1
  0
XRECORD
  5
B98
102
{ACAD_REACTORS
330
D3
102
}
330
D3
100
AcDbXrecord
280
     1
 91
      495
301

290
     0
302
0
  8
center
 90
        8
 62
     1
370
    13
331
AF2
  1
色_1
  8
dimention
 90
        8
 62
     5
370
    13
331
16
  1
色_5
  8
visible2
 90
        8
 62
     7
370
    13
331
16
  1
色_7
  8
visible1
 90
        8
 62
     7
370
    20
331
16
  1
色_7
  8
Defpoints
 90
        0
 62
     7
370
    -3
331
16
  1
色_7
  8
0
 90
        8
 62
     7
370
    -3
331
16
  1
色_7
  0
DICTIONARY
  5
17E
330
59
100
AcDbDictionary
280
     1
281
     1
  3
ADSK_XREC_LAYOUTTHUMBNAIL
360
17F
  0
XRECORD
  5
17F
102
{ACAD_REACTORS
330
17E
102
}
330
17E
100
AcDbXrecord
280
     1
310
28000000B40000007F00000001000800000000004C59000000000000000000000001000000000000FFFFFF0000000000FFFFFF000000000000000000000000000000000000000000000000000000000000000000330000006600000099000000CC000000FF00000000330000333300006633000099330000CC330000FF3300
310
0000660000336600006666000099660000CC660000FF66000000990000339900006699000099990000CC990000FF99000000CC000033CC000066CC000099CC0000CCCC0000FFCC000000FF000033FF000066FF000099FF0000CCFF0000FFFF000000003300330033006600330099003300CC003300FF003300003333003333
310
33006633330099333300CC333300FF33330000663300336633006666330099663300CC663300FF66330000993300339933006699330099993300CC993300FF99330000CC330033CC330066CC330099CC3300CCCC3300FFCC330000FF330033FF330066FF330099FF3300CCFF3300FFFF330000006600330066006600660099
310
006600CC006600FF00660000336600333366006633660099336600CC336600FF33660000666600336666006666660099666600CC666600FF66660000996600339966006699660099996600CC996600FF99660000CC660033CC660066CC660099CC6600CCCC6600FFCC660000FF660033FF660066FF660099FF6600CCFF6600
310
FFFF660000009900330099006600990099009900CC009900FF00990000339900333399006633990099339900CC339900FF33990000669900336699006666990099669900CC669900FF66990000999900339999006699990099999900CC999900FF99990000CC990033CC990066CC990099CC9900CCCC9900FFCC990000FF99
310
0033FF990066FF990099FF9900CCFF9900FFFF99000000CC003300CC006600CC009900CC00CC00CC00FF00CC000033CC003333CC006633CC009933CC00CC33CC00FF33CC000066CC003366CC006666CC009966CC00CC66CC00FF66CC000099CC003399CC006699CC009999CC00CC99CC00FF99CC0000CCCC0033CCCC0066CC
310
CC0099CCCC00CCCCCC00FFCCCC0000FFCC0033FFCC0066FFCC0099FFCC00CCFFCC00FFFFCC000000FF003300FF006600FF009900FF00CC00FF00FF00FF000033FF003333FF006633FF009933FF00CC33FF00FF33FF000066FF003366FF006666FF009966FF00CC66FF00FF66FF000099FF003399FF006699FF009999FF00CC
310
99FF00FF99FF0000CCFF0033CCFF0066CCFF0099CCFF00CCCCFF00FFCCFF0000FFFF0033FFFF0066FFFF0099FFFF00CCFFFF00FFFFFF00000000000D0D0D001A1A1A00282828003535350043434300505050005D5D5D006B6B6B00787878008686860093939300A1A1A100AEAEAE00BBBBBB00C9C9C900D6D6D600E4E4E400
310
F1F1F100FFFFFF0000000000000000000000000000000000000000000000000000000000000000000000000000000000E2E2E2E2E2E2E2E2E2E2E2E2E2E2E2E2E2E2E2E2E2E2E2E2E2E2E2E2E2E2E2E2E2E2E2E2E2E2E2E2E2E2E2E2E2E2E2E2E2E2E2E2E2E2E2E2E2E2E2E2E2E2E2E2E2E2E2E2E2E2E2E2E2E2E2E2E2E2E2
310
E2E2E2E2E2E2E2E2E2E2E2E2E2E2E2E2E2E2E2E2E2E2E2E2E2E2E2E2E2E2E2E2E2E2E2E2E2E2E2E2E2E2E2E2E2E2E2E2E2E2E2E2E2E2E2E2E2E2E2E2E2E2E2E2E2E2E2E2E2E2E2E2E2E2E2E2E2E2E2E2E2E2E2E2E2E2E2E2E2E2E2E2E2E2E2E2E2E2E2E2E2E2F5F5F5F5F5F5F5F5F5F5F5F5F5F5F5F5F5F5F5F5F5F5F5F5F5
310
F5F5F5F5F5F5F5F5F5F5F5F5F5F5F5F5F5F5F5F5F5F5F5F5F5F5F5F5F5F5F5F5F5F5F5F5F5F5F5F5F5F5F5F5F5F5F5F5F5F5F5F5F5F5F5F5F5F5F5F5F5F5F5F5F5F5F5F5F5F5F5F5F5F5F5F5F5F5F5F5F5F5F5F5F5F5F5F5F5F5F5F5F5F5F5F5F5F5F5F5F5F5F5F5F5F5F5F5F5F5F5F5F5F5F5F5F5F5F5F5F5F5F5F5F5F5F5
310
F5F5F5F5F5F5F5F5F5F5F5F5F5F5F5F5F5F5F5F5F5F5F5F5F5E2E2E2F5E2E2E2E2E2E2E2E2F5F5F5F5F5F5F5F5F5E2E2E2E2E2E2E2E2E2E2E2E2E2E2E2E2F5F5F5F5F5F5F5F5F5E2E2E2E2E2E2E2E2E2E2E2E2E2E2E2E2F5F5F5F5F5F5F5F5F5E2E2E2E2E2E2E2E2E2E2E2E2E2E2E2E2F5F5F5F5F5F5F5F5F5E2E2E2E2E2E2
310
E2E2E2E2E2E2E2E2E2E2F5F5F5F5F5F5F5F5F5E2E2E2E2E2E2E2E2E2E2E2E2E2E2E2E2F5F5F5F5F5F5F5F5F5E2E2E2E2E2E2E2E2E2E2E2E2E2E2E2E2F5F5F5F5F5F5F5F5F5E2E2E2E2E2E2E2E2F5E2E2E2F5E2F5F5F5F5F5F5F5F5F5F5F5F5F5F5F5F5F5F5F5F5F5F5F5F5F5F5F5F5F5F5F5F5F5F5F5F5F5F5F5F5F5F5F5F5
310
F5F5F5F5F5F5F5F5F5F5F5F5F5F5F5F5F5F5F5F5F5F5F5F5F5F5F5F5F5F5F5F5F5F5F5F5F5F5F5F5F5F5F5F5F5F5F5F5F5F5F5F5F5F5F5F5F5F5F5F5F5F5F5F5F5F5F5F5F5F5F5F5F5F5F5F5F5F5F5F5F5F5F5F5F5F5F5F5F5F5F5F5F5F5F5F5F5F5F5F5F5F5F5F5F5F5F5F5F5F5F5F5F5F5F5F5F5F5F5F5F5F5F5F5F5F5F5
310
F5F5E2F5E2E2E2F5E2F5F5F5F5F5F5F5F5F5F5F5F5F5F5F5F5F5F5F5F5F5F5F5F5F5F5F5F5F5F5F5F5F5F5F5F5F5F5F5F5F5F5F5F5F5F5F5F5F5F5F5F5F5F5F5F5F5F5F5F5F5F5F5F5F5F5F5F5F5F5F5F5F5F5F5F5F5F5F5F5F5F5F5F5F5F5F5F5F5F5F5F5F5F5F5F5F5F5F5F5F5F5F5F5F5F5F5F5F5F5F5F5F5F5F5F5F5F5
310
F5F5F5F5F5F5F5F5F5F5F5F5F5F5F5F5F5F5F5F5F5F5F5F5F5F5F5F5F5F5F5F5F5F5F5F5F5F5F5F5F5F5F5F5F5F5F5F5F5F5F5F5F5F5F5E2F5E2E2E2F5E2F5F5F5F5F5F5F5F5F5F5F5F5F5F5F5F5F5F5F5F5F5F5F5F5F5F5F5F5F5F5F5F5F5F5F5F5F5F5F5F5F5F5F5F5F5F5F5F5F5F5F5F5F5F5F5F5F5F5F5F5F5F5F5F5F5
310
F5F5F5F5F5F5F5F5F5F5F5F5F5F5F5F5F5F5F5F5F5F5F5F5F5F5F5F5F5F5F5F5F5F5F5F5F5F5F5F5F5F5F5F5F5F5F5F5F5F5F5F5F5F5F5F5F5F5F5F5F5F5F5F5F5F5F5F5F5F5F5F5F5F5F5F5F5F5F5F5F5F5F5F5F5F5F5F5F5F5F5F5F5F5F5F5F5F5F5F5F5F5F5F5F5F5F5F5E2F5E2E2E2F5E2F5F5F5F5F5F5F5F5F5F5F5F5
310
F5F5F5F5F5F5F5E2E2F5F5F5F5F5F5F5F5F5F5F5F5E2F5F5F5F5F5F5F5F5F5F5F5F5E2E2F5F5F5F5F5F5F5F5F5F5F5E2F5F5F5F5F5F5F5F5F5F5F5F5E2E2F5F5F5F5F5F5F5F5F5F5F5F5E2F5F5F5F5F5F5F5F5F5F5F5F5E2E2F5F5F5F5F5F5F5F5F5F5F5F5E2F5F5F5F5F5F5F5F5F5F5F5E2E2F5F5F5F5F5F5F5F5F5F5F5F5
310
E2F5F5F5F5F5F5F5F5F5F5F5F5E2E2F5F5F5F5F5F5F5F5F5F5F5F5F5F5F5F5F5F5F5E2F5E2E2E2F5E2F5F5F5F5F5F5F5F5F5F5F5F5F5F5F5F5F5F5F5E2E2F5F5F5F5F5F5F5F5F5F5F5F5E2F5F5F5F5F5F5F5F5F5F5F5F5E2E2F5F5F5F5F5F5F5F5F5F5F5E2F5F5F5F5F5F5F5F5F5F5F5F5E2E2F5F5F5F5F5F5F5F5F5F5F5F5
310
E2F5F5F5F5F5F5F5F5F5F5F5F5E2E2F5F5F5F5F5F5F5F5F5F5F5F5E2F5F5F5F5F5F5F5F5F5F5F5E2E2F5F5F5F5F5F5F5F5F5F5F5F5E2F5F5F5F5F5F5F5F5F5F5F5F5E2E2F5F5F5F5F5F5F5F5F5F5F5F5F5F5F5F5F5F5F5E2F5E2E2E2F5E2F5F5F5F5F5F5F5F5F5F5F5F5F5F5F5F5F5F5F5E2E2F5F5F5F5F5F5F5F5F5F5F5F5
310
E2F5F5F5F5F5F5F5F5F5F5F5F5E2E2F5F5F5F5F5F5F5F5F5F5F5E2F5F5F5F5F5F5F5F5F5F5F5F5E2E2F5F5F5F5F5F5F5F5F5F5F5F5E2F5F5F5F5F5F5F5F5F5F5F5F5E2E2F5F5F5F5F5F5F5F5F5F5F5F5E2F5F5F5F5F5F5F5F5F5F5F5E2E2F5F5F5F5F5F5F5F5F5F5F5F5E2F5F5F5F5F5F5F5F5F5F5F5F5E2E2F5F5F5F5F5F5
310
F5F5F5F5F5F5F5F5F5F5F5F5F5E2F5E2E2E2F5E2F5F5F5F5F5F5E2E2E2E2E2E2E2E2E2E2E2E2E2E2E2E2E2E2E2E2E2E2E2E2E2E2E2E2E2E2E2E2E2E2E2E2E2E2E2E2E2E2E2E2E2E2E2E2E2E2E2E2E2E2E2E2E2E2E2E2E2E2E2E2E2E2E2E2E2E2E2E2E2E2E2E2E2E2E2E2E2E2E2E2E2E2E2E2E2E2E2E2E2E2E2E2E2E2E2E2E2
310
E2E2E2E2E2E2E2E2E2E2E2E2E2E2E2E2E2E2E2E2E2E2E2E2E2E2E2E2E2E2E2E2E2E2E2E2E2E2E2E2E2E2E2E2E2E2E2E2E2E2E2E2E2E2E2E2E2E2E2E2F5F5F5F5F5F5E2F5E2E2E2F5F5F5F5F5F5F5F5E2F5F5F5F5F5F5F5F5F5F5F5F5F5F5F5F5F5F5F5F5F5F5F5F5F5F5F5F5F5F5F5F5F5F5F5F5F5F5F5F5F5F5F5F5F5F5F5
310
F5F5F5F5F5F5F5F5F5F5F5F5F5F5F5F5F5F5F5F5F5F5F5F5F5F5F5F5F5F5F5F5F5F5F5F5F5F5F5F5F5F5F5F5F5F5F5F5F5F5F5F5E2F5F5F5F5F5F5F5F5F5F5F5F5F5F5F5F5F5E2F5F5F5F5F5F5E2E2E2E2E2E2E2E2E2E2E2E2E2E2E2E2E2E2E2F5F5F5F5F5F5F5F5F5F5F5F5F5F5F5F5E2F5F5F5F5F5F5F5F5E2E2E2F5F5F5
310
F5F5F5F5F5E2F5F5F5F5F5F5F5F5F5F5F5F5F5F5F5F5F5F5F5F5F5F5F5F5F5F5F5F5F5F5F5F5F5F5F5F5F5F5F5F5F5F5F5F5F5F5F5F5F5F5F5F5F5F5F5F5F5F5F5F5F5F5F5F5F5F5F5F5F5F5F5F5F5F5F5F5F5F5F5F5F5F5F5F5F5F5F5F5F5F5F5F5F5F5F5F5F5F5F5E2F5F5F5F5F5F5F5F5F5F5F5F5F5F5F5F5F5E2F5F5F5
310
F5F5F5E2E2E2E2E2E2E2E2E2E2E2E2F5F5F5F5F5F5F5F5F5F5F5F5F5F5F5F5F5F5F5F5F5F5F5E2F5F5F5F5F5F5F5F5E2E2E2F5F5F5F5F5F5F5F5E2F5F5F5F5F5F5F5F5F5F5F5F5F5F5F5F5F5F5F5F5F5F5F5F5F5F5F5F5F5F5F5F5F5F5F5F5F5F5F5F5F5F5F5F5F5F5F5F5F5F5F5F5F5F5F5F5F5F5F5F5F5F5F5F5F5F5F5F5
310
F5F5F5F5F5F5F5F5F5F5F5F5F5F5F5F5F5F5F5F5F5F5F5F5F5F5F5F5F5F5F5E2E2E2E2E2E2E2E2E2E2E2E2E2E2E2E2E2E2E2F5F5F5F5F5F5E2E2E2E2E2E2E2E2E2E2E2E2E2E2E2E2E2E2E2E2E2E2E2E2E2E2E2F5F5F5F5F5F5F5F5E2F5F5F5F5F5F5F5F5E2E2E2F5F5F5F5F5F5F5F5E2F5F5F5F5F5F5F5F5F5F5F5F5F5F5F5
310
F5F5F5F5F5F5F5F5F5F5F5F5F5F5F5F5F5F5F5F5F5F5F5F5F5F5F5F5F5F5F5F5F5F5F5F5F5F5F5F5F5F5F5F5F5F5F5F5F5F5F5F5F5F5F5F5F5F5F5F5F5F5F5F5F5F5F5F5F5F5F5F5F5F5F5F5F5F5F5F5F5F5F5F5E2F5F5F5F5F5F5F5F5F5F5F5F5F5F5F5F5F5E2F5F5F5F5F5F5E2E2E2E2E2E2E2E2E2E2E2E2E2E2E2E2E2E2
310
E2E2E2E2E2E2E2E2E2F5F5F5F5F5F5F5F5E2F5F5F5F5F5F5F5F5E2E2E2F5F5F5F5F5F5F5F5E2F5F5F5F5F5F5F5F5F5F5F5F5F5F5F5F5F5F5F5F5F5F5F5F5F5F5F5F5F5F5F5F5F5F5F5F5F5F5F5F5F5F5F5F5F5F5F5F5F5F5F5F5F5F5F5F5F5F5F5F5F5F5F5F5F5F5F5F5F5F5F5F5F5F5F5F5F5F5F5F5F5F5F5F5F5F5F5F5F5
310
F5F5F5F5F5F5F5F5F5F5E2F5F5F5F5F5F5F5F5F5F5F5F5F5F5F5F5F5E2F5F5F5F5F5F5E2E2E2F5E2E2E2E2E2E2E2E2E2E2E2E2E2E2E2E2E2E2E2E2E2E2E2F5F5F5F5F5F5F5F5E2F5F5F5F5F5F5F5F5E2E2E2F5F5F5F5F5F5F5F5E2F5F5F5F5F5F5F5F5F5F5F5F5F5F5F5F5F5F5F5F5F5F5F5F5F5F5F5F5F5F5F5F5F5F5F5F5
310
F5F5F5F5F5F5F5F5F5F5F5F5F5F5F5F5F5F5F5F5F5F5F5F5F5F5F5F5F5F5F5F5F5F5F5F5F5F5F5F5F5F5F5F5F5F5F5F5F5F5F5F5F5F5F5F5F5F5F5F5F5F5F5E2E2E2E2E2E2E2E2E2E2E2E2E2E2E2E2E2E2E2F5F5F5F5F5F5E2E2E2E2E2E2E2F5E2E2F5F5F5F5F5F5F5F5F5F5F5F5F5F5F5F5F5F5F5F5F5F5F5F5F5E2F5F5F5
310
F5F5F5F5F5E2E2E2F5F5F5F5F5F5F5F5E2F5F5F5F5F5F5F5F5F5F5F5F5F5F5F5F5F5F5F5F5F5F5F5F5F5F5F5F5F5F5F5F5F5F5F5F5F5F5F5F5F5F5F5F5F5F5F5F5F5F5F5F5F5F5F5F5F5F5F5F5F5F5F5F5F5F5F5F5F5F5F5F5F5F5F5F5F5F5F5F5F5F5F5F5F5F5F5F5F5F5F5F5F5F5F5F5F5F5F5E2F5F5F5F5F5F5F5F5F5F5
310
F5F5F5F5F5F5F5E2F5F5F5F5F5F5F5F5F5F5F5F5F5F5F5F5F5F5F5F5F5F5F5F5F5F5F5F5F5F5F5F5F5F5F5F5F5F5F5F5F5E2F5F5F5F5F5F5F5F5E2E2E2F5F5F5F5F5F5F5F5E2F5F5F5F5F5F5F5F5F5F5F5F5F5F5F5F5F5F5F5F5F5F5F5F5F5F5F5F5F5F5F5F5F5F5F5F5F5F5F5F5F5F5F5F5F5F5F5F5F5F5F5F5F5F5F5F5F5
310
F5F5F5F5F5F5F5F5F5F5F5F5F5F5F5F5F5F5F5F5F5F5F5F5F5F5F5F5F5F5F5F5F5F5F5F5F5F5F5F5F5F5E2F5F5F5F5F5F5F5F5F5F5F5F5F5F5F5F5F5E2E2E2F5F5F5F5F5F5F5F5F5F5F5F5F5F5F5F5F5F5F5F5F5F5F5F5F5F5F5F5F5F5F5F5F5F5F5F5F5F5F5E2F5F5F5F5F5F5F5F5E2E2E2F5F5F5F5F5F5F5F5E2F5F5F5F5
310
F5F5F5F5F5F5F5F5F5F5F5F5F5F5F5F5F5F5F5F5F5F5F5F5F5F5F5F5F5F5F5F5F5F5F5F5F5F5F5F5F5F5F5F5F5F5F5F5F5F5F5F5F5F5F5F5F5F5F5F5F5F5F5F5F5F5F5F5F5F5F5F5F5F5F5F5F5F5F5F5F5F5F5F5F5F5F5F5F5F5F5F5F5F5F5E2E2E2E2E2E2E2E2E2E2E2E2E2E2E2E2E2E2E2E2E2E2E2E2E2E2E2E2E2E2E2E2
310
E2E2E2E2E2E2E2E2E2E2E2E2E2E2E2E2E2E2E2E2E2E2E2E2E2E2E2E2E2F5F5F5F5F5F5F5F5E2E2E2F5E2F5F5F5F5F5F5E2F5F5F5F5F5F5F5F5F5F5F5F5F5F5F5F5F5F5F5F5F5F5F5F5F5F5F5F5F5F5F5F5F5F5F5F5F5F5F5F5F5F5F5F5F5F5F5F5F5F5F5F5F5F5F5F5F5F5F5F5F5F5F5F5F5F5F5F5F5F5F5F5F5F5F5F5F5F5
310
F5F5F5F5F5F5F5F5F5F5F5F5F5F5F5F5F5F5F5F5F5E2F5F5F5F5E2E2E2E2E2E2E2E2F5F5F5F5F5E2F5F5F5F5F5F5F5F5F5F5F5F5F5F5F5F5F5F5F5F5F5F5F5F5F5F5F5F5F5F5F5F5F5F5F5F5F5F5F5F5F5E2F5F5F5F5F5F5E2F5E2E2E2F5E2F5F5F5F5F5F5E2F5F5F5F5F5F5F5F5F5F5F5F5F5F5F5F5F5F5F5F5F5F5F5F5F5
310
F5F5F5F5F5F5F5F5F5F5F5F5F5F5F5F5F5F5F5F5F5F5F5F5F5F5F5F5F5F5F5F5F5F5F5F5F5F5F5F5F5F5F5F5F5F5F5F5F5F5F5F5F5F5F5F5F5F5F5F5F5F5F5F5F5F5F5F5F5F5F5F5F5F5E2E2E2F5F5F5F5F5F5F5F5F5F5F5F5F5F5F5E2E2E2E2E2E2E2E2E2E2E2E2E2E2E2E2E2E2E2E2E2E2E2E2E2E2E2E2E2E2E2E2E2E2E2
310
E2E2F5F5F5F5F5E2F5F5F5F5F5F5E2F5E2E2E2F5E2F5F5F5F5E2E2E2F5F5F5F5F5F5F5F5F5F5F5F5F5F5F5F5F5F5F5F5F5F5F5F5F5F5F5F5F5F5F5F5F5F5F5F5F5F5F5F5F5F5F5F5F5F5F5F5F5F5F5F5F5F5F5F5F5F5F5F5F5F5F5F5F5F5F5F5F5F5F5F5F5F5F5F5F5F5F5F5F5F5F5F5F5F5F5F5F5F5F5F5F5F5F5F5F5F5F5
310
E2E2E2E2E2E2E2E2E2E2E2E2E2E2E2E2E2E2E2E2E2E2E2E2E2E2E2E2E2E2E2E2E2E2E2E2E2E2E2E2E2E2E2E2E2E2E2E2E2E2E2E2E2E2E2F5F5F5F5F5E2E2E2F5F5F5F5E2F5E2E2E2F5E2F5F5F5F5E2E2E2F5F5F5F5F5F5F5F5F5F5F5F5F5F5F5F5F5F5F5F5F5F5F5F5F5F5F5F5F5F5F5F5F5F5F5F5F5F5F5F5F5F5F5F5F5F5
310
F5F5F5F5F5F5F5F5F5F5F5F5F5F5F5F5F5F5F5F5F5F5F5F5F5F5F5F5F5F5F5F5F5F5F5F5F5F5F5F5F5F5F5F5F5F5F5F5F5F5F5F5F5E2F5F5F5F5F5E2E2E2E2E2E2F5F5F5F5F5F5E2F5F5F5F5F5F5F5F5F5F5F5F5F5F5F5F5F5F5F5F5F5F5F5F5F5F5F5F5F5F5F5F5F5F5F5F5F5F5F5F5F5E2E2E2F5F5F5F5E2F5E2E2E2F5E2
310
F5F5F5F5F5F5E2F5F5F5F5F5F5F5F5F5F5F5F5F5F5F5F5F5F5F5F5F5F5F5F5F5F5F5F5F5F5F5F5F5F5F5F5F5F5F5F5F5F5F5F5F5F5F5F5F5F5F5F5F5F5F5F5F5F5F5F5F5F5F5F5F5F5F5F5F5F5F5F5F5F5F5F5F5F5F5F5F5F5F5F5F5F5F5F5F5F5F5F5F5F5F5F5F5F5F5E2E2E2F5F5F5E2E2E2E2E2E2F5F5F5F5F5F5E2E2E2
310
F5F5F5F5F5F5F5F5F5F5F5F5F5F5F5F5F5F5F5F5F5F5F5F5F5F5F5F5F5F5F5F5F5F5F5F5F5F5F5E2F5F5F5F5F5F5E2F5E2E2E2F5E2F5F5F5F5F5F5E2F5F5F5F5F5F5F5F5F5F5F5F5F5F5F5F5F5F5F5F5F5F5F5F5F5F5F5F5F5F5F5F5F5F5F5F5F5F5F5F5F5F5F5F5F5F5F5F5F5F5F5F5F5F5F5F5F5F5F5F5F5F5F5F5F5F5F5
310
F5F5F5F5F5F5F5F5F5F5F5F5F5F5F5F5F5F5F5F5F5F5F5F5F5F5F5F5F5F5F5F5E2E2E2E2E2E2E2E2E2E2E2E2E2E2E2E2E2E2E2E2E2E2E2E2E2E2E2E2E2E2E2E2E2E2E2E2E2E2E2E2E2E2E2E2E2E2E2E2E2E2E2E2E2E2E2E2E2E2E2E2E2F5F5F5F5F5F5E2F5E2E2E2F5E2F5F5F5F5F5F5E2F5F5F5F5F5F5F5F5F5F5F5F5F5F5
310
F5F5F5F5F5F5F5F5F5F5F5F5F5F5F5F5F5F5F5F5F5F5F5F5F5F5F5F5F5F5F5F5F5F5F5F5F5F5F5F5F5F5F5F5F5F5F5F5F5F5F5F5F5F5F5F5F5F5F5F5F5F5F5F5F5F5F5F5F5F5F5F5F5F5F5F5F5F5F5F5F5F5F5F5F5E2F5F5F5F5F5E2F5F5F5F5F5E2E2F5F5F5F5E2F5F5F5F5F5F5F5F5F5F5F5F5F5F5F5F5F5F5F5F5F5F5F5
310
F5F5F5F5F5F5F5F5F5F5F5F5F5F5F5F5F5F5E2F5F5F5F5F5F5E2F5E2E2E2F5E2F5F5F5F5F5F5E2F5F5F5F5F5F5F5F5F5F5F5F5F5F5F5F5F5F5F5F5F5F5F5F5F5F5F5F5F5F5F5F5F5F5F5F5F5F5F5F5F5F5F5F5F5F5F5F5F5F5F5F5F5F5F5F5F5F5F5F5F5F5F5F5F5F5F5F5F5F5F5F5F5F5F5F5F5F5F5F5F5F5F5F5F5F5F5F5
310
F5F5F5F5F5F5F5F5F5F5F5E2F5F5F5E2E2E2E2F5E2E2E2F5E2F5F5F5F5E2E2E2E2E2E2E2E2E2E2E2E2E2E2E2E2E2E2E2E2E2E2E2E2E2E2E2E2E2E2E2E2E2E2E2E2F5F5F5F5F5F5E2F5F5F5F5F5F5E2F5E2E2E2F5E2F5F5F5F5F5F5E2F5F5F5F5F5F5F5F5F5F5F5F5F5F5F5F5F5F5F5F5F5F5F5F5F5F5F5F5F5F5F5F5F5F5F5
310
F5F5F5F5F5F5F5F5F5F5F5F5F5F5F5F5F5F5F5F5F5F5F5F5F5F5F5F5F5F5F5F5F5F5F5F5F5F5F5F5F5F5F5F5F5F5F5F5F5F5F5F5F5F5F5F5F5F5F5F5F5F5F5F5E2F5F5F5E2E2E2E2E2E2E2E2E2E2E2F5F5F5E2E2E2E2E2E2E2E2E2E2E2E2E2E2E2E2E2E2E2E2E2E2E2E2E2E2E2E2E2E2E2E2E2E2E2E2F5F5F5F5F5F5E2F5F5
310
F5F5F5F5E2F5E2E2E2F5E2F5F5F5F5F5F5E2F5F5F5F5F5F5F5F5F5F5F5F5F5F5F5F5F5F5F5F5F5F5F5F5F5F5F5F5F5F5F5F5F5F5F5F5F5F5F5F5F5F5F5F5F5F5F5F5F5F5F5F5F5F5F5F5F5F5F5F5F5F5F5F5F5F5F5F5F5F5F5F5F5F5F5F5F5F5F5F5F5F5F5F5F5F5F5F5F5F5F5F5F5F5F5F5F5F5F5E2F5F5F5E2E2E2E2F5E2
310
E2F5F5E2F5F5F5F5E2F5F5F5F5F5F5F5F5F5F5F5F5F5F5F5F5F5F5F5F5F5F5F5F5F5F5F5F5F5F5F5F5F5F5F5F5F5F5F5F5F5E2F5F5F5F5F5F5E2F5E2E2E2F5E2F5F5F5F5F5F5E2F5F5F5F5F5F5F5F5F5F5F5F5F5F5F5F5F5F5F5F5F5F5F5F5F5F5F5F5F5F5F5F5F5F5F5F5F5F5F5F5F5F5F5F5F5F5F5F5F5F5F5F5F5F5F5F5
310
F5F5F5F5F5F5F5F5F5F5F5F5F5F5F5F5F5F5F5F5F5F5F5F5F5F5F5F5F5F5F5F5F5F5F5F5F5F5F5F5F5F5F5E2E2E2F5F5E2E2E2F5F5F5E2E2E2F5F5F5F5E2E2E2F5F5F5F5F5F5F5F5F5F5F5F5F5F5F5F5F5F5F5F5F5F5F5F5F5F5F5F5F5F5F5F5F5F5F5F5F5F5F5E2F5F5F5F5F5F5E2F5E2E2E2F5E2F5F5F5F5F5F5E2F5F5F5
310
F5F5F5F5F5F5F5F5F5F5F5F5F5F5F5F5F5F5F5F5F5F5F5F5F5F5F5F5F5F5F5F5F5F5F5F5F5F5F5F5F5F5F5F5F5F5F5F5F5F5F5F5F5F5F5F5F5F5F5F5F5F5F5F5F5F5F5F5F5F5F5F5F5F5F5F5F5F5F5F5F5F5F5F5F5F5F5F5F5F5F5F5F5F5F5F5E2E2E2E2E2E2E2E2E2E2E2E2E2E2E2E2E2E2E2E2E2E2E2E2E2E2E2E2E2E2E2
310
E2E2E2E2E2E2E2E2E2E2E2E2E2E2E2E2E2E2E2E2E2E2E2E2E2E2E2E2E2E2F5F5F5F5F5F5E2F5E2E2E2F5E2F5F5F5F5F5F5E2F5F5F5F5F5F5F5F5F5F5F5F5F5F5F5F5F5F5F5F5F5F5F5F5F5F5F5F5F5F5F5F5F5F5F5F5F5F5F5F5F5F5F5F5F5F5F5F5F5F5F5F5F5F5F5F5F5F5F5F5F5F5F5F5F5F5F5F5F5F5F5F5F5F5F5F5F5
310
F5F5F5F5F5F5F5F5F5F5F5F5F5F5F5F5F5F5F5F5F5F5F5F5F5F5F5F5F5F5F5F5F5F5F5F5F5F5F5F5F5F5F5F5F5F5F5F5F5F5F5F5F5F5F5F5F5F5F5F5F5F5F5F5F5F5F5F5F5F5F5F5F5F5F5F5F5F5F5F5F5F5E2F5F5F5F5F5F5E2F5E2E2E2F5E2F5F5F5F5F5F5E2F5F5F5F5F5F5F5F5F5F5F5F5F5F5F5F5F5F5F5F5F5F5F5F5
310
F5F5F5F5F5F5F5F5F5F5F5F5F5F5F5F5F5F5F5F5F5F5F5F5F5F5F5F5F5F5F5F5F5F5F5F5F5F5F5F5F5F5F5F5F5F5F5F5F5F5F5F5F5F5F5F5F5F5F5F5F5F5F5F5F5F5F5F5F5F5F5F5F5F5F5F5F5F5F5F5F5F5F5F5F5F5F5F5F5F5F5F5F5F5F5F5F5F5F5F5F5F5F5F5F5F5F5F5F5F5F5F5F5F5F5F5F5F5F5F5F5F5F5F5F5F5F5
310
F5F5F5F5F5F5F5F5E2F5F5F5F5F5F5E2F5E2E2E2F5E2F5F5F5F5F5F5E2F5F5F5F5F5F5F5F5F5F5F5F5F5F5F5F5F5F5F5F5F5F5F5F5F5F5F5F5F5F5F5F5F5F5F5F5F5F5F5F5F5F5F5F5F5F5F5F5F5F5F5F5F5F5F5F5F5F5F5F5F5F5F5F5F5F5F5F5F5F5F5F5F5F5F5F5F5F5F5F5F5F5F5F5F5F5F5F5F5F5F5F5F5F5F5F5F5F5
310
F5F5F5F5F5F5F5F5F5F5F5F5F5F5F5F5F5F5F5F5F5F5F5F5F5F5F5F5F5F5F5F5F5F5F5F5F5F5F5F5F5F5F5F5F5F5F5F5F5F5F5F5F5F5F5F5F5F5F5F5F5E2F5F5F5F5F5F5E2F5E2E2E2F5E2F5F5F5F5F5F5E2F5F5F5F5F5F5F5F5F5F5F5F5F5F5F5F5F5F5F5F5F5F5F5F5F5F5F5F5F5F5F5F5F5F5F5F5F5F5F5F5F5F5F5F5F5
310
F5F5F5F5F5F5F5F5F5F5F5F5F5F5F5F5F5F5F5F5F5F5F5F5F5F5F5F5F5F5F5F5F5F5F5F5F5F5F5F5F5F5F5F5F5F5F5F5F5F5F5F5F5F5F5F5F5F5F5F5F5F5F5F5F5F5F5F5F5F5F5F5F5F5F5F5F5F5F5F5F5F5F5F5F5F5F5F5F5F5F5F5F5F5F5F5F5F5F5F5F5F5F5F5F5F5F5F5F5F5F5F5F5F5E2F5F5F5F5F5F5E2F5E2E2E2F5
310
F5F5F5F5F5F5F5E2F5F5F5F5F5F5F5F5F5F5F5F5F5F5F5F5F5F5F5F5F5F5F5F5F5F5F5F5F5F5F5F5F5F5F5F5F5F5F5F5F5F5F5F5F5F5F5F5F5F5F5F5F5F5F5F5F5F5F5F5F5F5F5F5F5F5F5F5F5F5F5F5F5F5F5F5F5F5F5F5F5F5F5F5F5F5F5F5F5F5F5F5F5F5F5F5F5F5F5F5F5F5F5F5F5F5F5F5F5F5F5F5F5F5F5F5F5F5F5
310
F5F5F5F5F5F5F5F5F5F5F5F5F5F5F5F5F5F5F5F5F5F5F5F5F5F5F5F5F5F5F5F5F5F5F5F5F5F5F5F5E2F5F5F5F5F5F5F5F5E2E2E2F5F5F5F5F5E2E2E2E2F5F5F5F5F5F5F5F5F5F5F5F5F5F5F5F5F5F5F5F5F5F5F5F5F5F5F5F5F5F5F5F5F5F5F5F5F5F5F5F5F5F5F5F5F5F5F5F5F5F5F5F5F5F5F5F5F5F5F5F5F5F5F5F5F5F5
310
F5F5F5F5F5F5F5F5F5F5F5F5F5F5F5F5F5F5F5F5F5F5F5F5F5F5F5F5F5F5F5F5F5F5F5F5F5F5F5F5F5F5F5F5F5F5F5F5F5F5F5F5F5F5F5F5F5F5F5F5F5F5F5F5F5F5F5F5F5F5F5F5F5F5F5F5F5F5F5F5F5F5F5F5F5F5F5F5F5F5F5F5F5E2E2E2E2F5F5F5F5F5E2E2E2F5F5F5F5F5F5F5F5E2F5F5F5F5F5F5F5F5F5F5F5F5F5
310
F5F5F5F5F5F5F5F5F5F5F5F5F5F5F5F5F5F5F5F5F5F5F5F5F5F5F5F5F5F5F5F5F5F5F5F5F5F5F5F5F5F5F5F5F5F5F5F5F5F5F5F5F5F5F5F5F5F5F5F5F5F5F5F5F5F5F5F5F5F5F5F5F5F5F5F5F5F5F5F5F5F5F5F5F5F5F5F5F5F5F5F5F5F5F5F5F5F5F5F5F5F5F5F5F5F5F5F5F5F5F5F5F5F5F5F5F5F5F5F5F5F5F5F5F5F5F5
310
F5F5F5F5F5F5F5F5F5F5F5F5F5F5F5F5F5F5F5E2F5F5F5F5F5F5F5F5E2E2E2F5F5F5F5F5F5F5F5E2F5F5F5F5F5F5F5F5F5F5F5F5F5F5F5F5F5F5F5F5F5F5F5F5F5F5F5F5F5F5F5F5F5F5F5F5F5F5F5F5F5F5F5F5F5F5F5F5F5F5F5F5F5F5F5F5F5F5F5F5F5F5F5F5F5F5F5F5F5F5F5F5F5F5F5F5F5F5F5F5F5F5F5F5F5F5F5
310
F5F5F5F5F5F5F5F5F5F5F5F5F5F5F5F5F5F5F5F5F5F5F5F5F5F5F5F5F5F5F5F5F5F5F5F5F5F5F5F5F5F5F5F5F5F5F5F5F5F5F5F5F5F5F5F5F5F5F5F5F5F5F5F5F5F5F5F5F5F5F5F5E2F5F5F5F5F5F5F5F5E2E2E2F5F5F5F5F5F5F5F5E2F5F5F5F5F5F5F5F5F5F5F5F5F5F5F5F5F5F5F5F5F5F5F5F5F5F5F5F5F5F5F5F5F5F5
310
F5F5F5F5F5F5F5F5F5F5F5F5F5F5F5F5F5F5F5F5F5F5F5F5F5F5F5F5F5F5F5F5F5F5F5F5F5F5F5F5F5F5F5F5F5F5F5F5F5F5F5F5F5F5F5F5F5F5F5F5F5F5F5F5F5F5F5F5F5F5F5F5F5F5F5F5F5F5F5F5F5F5F5F5F5F5F5F5F5F5F5F5F5F5F5F5F5F5F5F5F5F5F5F5F5F5F5F5F5F5F5F5F5F5F5F5F5F5F5F5F5F5F5F5F5E2F5
310
F5F5F5F5F5F5F5E2E2E2F5F5F5F5F5F5F5F5E2F5F5F5F5F5F5F5F5F5F5F5F5F5F5F5F5F5F5F5F5F5F5F5F5F5F5F5F5F5F5F5F5F5F5F5F5F5F5F5F5F5F5F5F5F5F5F5F5F5F5F5F5F5F5F5F5F5F5F5F5F5F5F5F5F5F5F5F5F5F5F5F5F5F5F5F5F5F5F5F5F5F5F5F5F5F5F5F5F5F5F5F5F5F5F5F5F5F5F5F5F5F5F5F5F5F5F5F5
310
F5F5F5F5F5F5F5F5F5F5F5F5F5F5F5F5F5F5F5F5F5F5F5F5F5F5F5F5F5F5F5F5F5F5F5F5F5F5F5F5F5F5F5F5F5F5F5F5F5F5F5E2F5F5F5F5F5F5F5F5E2E2E2F5F5F5F5F5F5F5F5E2F5F5F5F5F5F5F5F5F5F5F5F5F5F5F5F5F5F5F5F5F5F5F5F5F5F5F5F5F5F5F5F5F5F5F5F5F5F5F5F5F5F5F5F5F5F5F5F5F5F5F5F5F5F5F5
310
F5F5F5F5F5F5F5F5F5F5F5F5F5F5F5F5F5F5F5F5F5F5F5F5F5F5F5F5F5F5F5F5F5F5F5F5F5F5F5F5F5F5F5F5F5F5F5F5F5F5F5F5F5F5F5F5F5F5F5F5F5F5F5F5F5F5F5F5F5F5F5F5F5F5F5F5F5F5F5F5F5F5F5F5F5F5F5F5F5F5F5F5F5F5F5F5F5F5F5F5F5F5F5F5E2F5F5F5F5F5F5F5F5E2E2E2F5F5F5F5F5F5F5F5E2F5F5
310
F5F5F5F5F5F5F5F5F5F5F5F5F5F5F5F5F5F5F5F5F5F5F5F5F5F5F5F5F5F5F5F5F5F5F5F5F5F5F5F5F5F5F5F5F5F5F5F5F5F5F5F5F5F5F5F5F5F5F5F5F5F5F5F5F5F5F5F5F5F5F5F5F5F5F5F5F5F5F5F5F5F5F5F5F5F5F5F5F5F5F5F5F5F5F5F5F5F5F5F5F5F5F5F5F5F5F5F5F5F5F5F5F5F5F5F5F5F5F5F5F5F5F5F5F5F5F5
310
F5F5F5F5F5F5F5F5F5F5F5F5F5F5F5F5F5F5F5F5F5F5F5F5F5F5F5F5F5F5E2F5F5F5F5F5F5F5F5E2E2E2F5E2F5F5F5F5F5F5E2F5F5F5F5F5F5F5F5F5F5F5F5F5F5F5F5F5F5F5F5F5F5F5F5F5F5F5F5F5F5F5F5F5F5F5F5F5F5F5F5F5F5F5F5F5F5F5F5F5F5F5F5F5F5F5F5F5F5F5F5F5F5F5F5F5F5F5F5F5F5F5F5F5F5F5F5
310
F5F5F5F5F5F5F5F5F5F5F5F5F5F5F5F5F5F5F5F5F5F5F5F5F5F5F5F5F5F5F5F5F5F5F5F5F5F5F5F5F5F5F5F5F5F5F5F5F5F5F5F5F5F5F5F5F5F5F5F5F5F5F5F5F5F5F5F5F5F5F5F5F5F5F5F5F5F5F5F5F5F5F5E2F5F5F5F5F5F5E2F5E2E2E2F5E2F5F5F5F5F5F5E2F5F5F5F5F5F5F5F5F5F5F5F5F5F5F5F5F5F5F5F5F5F5F5
310
F5F5F5F5F5F5F5F5F5F5F5F5F5F5F5F5F5F5F5F5F5F5F5F5F5F5F5F5F5F5F5F5F5F5F5F5F5F5F5F5F5F5F5F5F5F5F5F5F5F5F5F5F5F5F5F5F5F5F5F5F5F5F5F5F5F5F5F5F5F5F5F5F5F5F5F5F5F5F5F5F5F5F5F5F5F5F5F5F5F5F5F5F5F5F5F5F5F5F5F5F5F5F5F5F5F5F5F5F5F5F5F5F5F5F5F5F5F5F5F5F5F5F5F5F5F5F5
310
F5F5F5F5F5F5F5F5F5E2F5F5F5F5F5F5E2F5E2E2E2F5E2F5F5F5F5F5F5E2F5F5F5F5F5F5F5F5F5F5F5F5F5F5F5F5F5F5F5F5F5F5F5F5F5F5F5F5F5F5F5F5F5F5F5F5F5F5F5F5F5F5F5F5F5F5F5F5F5F5F5F5F5F5F5F5F5F5F5F5F5F5F5F5F5F5F5F5F5F5F5F5F5F5F5F5F5F5F5F5F5F5F5F5F5F5F5F5F5F5F5F5F5F5F5F5F5
310
F5F5F5F5F5F5F5F5F5F5F5F5F5F5F5F5F5F5F5F5F5F5F5F5F5F5F5F5F5F5F5F5F5F5F5F5F5F5F5F5F5F5F5F5F5F5F5F5F5F5F5F5F5F5F5F5F5F5F5F5F5F5E2F5F5F5F5F5F5E2F5E2E2E2F5E2F5F5F5F5F5F5E2F5F5F5F5F5F5F5F5F5F5F5F5F5F5F5F5F5F5F5F5F5F5F5F5F5F5F5F5F5F5F5F5F5F5F5F5F5F5F5F5F5F5F5F5
310
F5F5F5F5F5F5F5F5F5F5F5F5F5F5F5F5F5F5F5F5F5F5F5F5F5F5F5F5F5F5F5F5F5F5F5F5F5F5F5F5F5F5F5F5F5F5F5F5F5F5F5F5F5F5F5F5F5F5F5F5F5F5F5F5F5F5F5F5F5F5F5F5F5F5F5F5F5F5F5F5F5F5F5F5F5F5F5F5F5F5F5F5F5F5F5F5F5F5F5F5F5F5F5F5F5F5F5F5F5F5F5F5F5F5F5E2F5F5F5F5F5F5E2F5E2E2E2
310
F5E2F5F5F5F5F5F5E2F5F5F5F5F5F5F5F5F5F5F5F5F5F5F5F5F5F5F5F5F5F5F5F5F5F5F5F5F5F5F5F5F5F5F5F5F5F5F5F5F5F5F5F5F5F5F5F5F5F5F5F5F5F5F5F5F5F5F5F5F5F5F5F5F5F5F5F5F5F5F5F5F5F5F5F5F5F5F5F5F5F5F5F5F5F5F5F5F5F5F5F5F5F5F5F5F5F5F5F5F5F5F5F5F5F5F5F5F5F5F5F5F5F5F5F5F5F5
310
F5F5F5F5F5F5F5F5F5F5F5F5F5F5F5F5F5F5F5F5F5F5F5F5F5F5F5F5F5F5F5F5F5F5F5F5F5F5F5F5F5E2F5F5F5F5F5F5E2F5E2E2E2F5E2F5F5F5F5E2E2E2F5F5F5F5F5F5F5F5F5F5F5F5F5F5F5F5F5F5F5F5F5F5F5F5F5F5F5F5F5F5F5F5F5F5F5F5F5F5F5F5F5F5F5F5F5F5F5F5F5F5F5F5F5F5F5F5F5F5F5F5F5F5F5F5F5
310
F5F5F5F5F5F5F5F5F5F5F5F5F5F5F5F5F5F5F5F5F5F5F5F5F5F5F5F5F5F5F5F5F5F5F5F5F5F5F5F5F5F5F5F5F5F5F5F5F5F5F5F5F5F5F5F5F5F5F5F5F5F5F5F5F5F5F5F5F5F5F5F5F5F5F5F5F5F5F5F5F5F5F5F5F5F5F5F5F5F5F5F5F5F5E2E2E2F5F5F5F5E2F5E2E2E2F5E2F5F5F5F5E2E2E2F5F5F5F5F5F5F5F5F5F5F5F5
310
F5F5F5F5F5F5F5F5F5F5F5F5F5F5F5F5F5F5F5F5F5F5F5F5F5F5F5F5F5F5F5F5F5F5F5F5F5F5F5F5F5F5F5F5F5F5F5F5F5F5F5F5F5F5F5F5F5F5F5F5F5F5F5F5F5F5F5F5F5F5F5F5F5F5F5F5F5F5F5F5F5F5F5F5F5F5F5F5F5F5F5F5F5F5F5F5F5F5F5F5F5F5F5F5F5F5F5F5F5F5F5F5F5F5F5F5F5F5F5F5F5F5F5F5F5F5F5
310
F5F5F5F5F5F5F5F5F5F5F5F5F5F5F5F5F5F5F5F5E2E2E2F5F5F5F5E2F5E2E2E2F5E2F5F5F5F5F5F5E2F5F5F5F5F5F5F5F5F5F5F5F5F5F5F5F5F5F5F5F5F5F5F5F5F5F5F5F5F5F5F5F5F5F5F5F5F5F5F5F5F5F5F5F5F5F5F5F5F5F5F5F5F5F5F5F5F5F5F5F5F5F5F5F5F5F5F5F5F5F5F5F5F5F5F5F5F5F5F5F5F5F5F5F5F5F5
310
F5F5F5F5F5F5F5F5F5F5F5F5F5F5F5F5F5F5F5F5F5F5F5F5F5F5F5F5F5F5F5F5F5F5F5F5F5F5F5F5F5F5F5F5F5F5F5F5F5F5F5F5F5F5F5F5F5F5F5F5F5F5F5F5F5F5F5F5F5F5F5F5F5E2F5F5F5F5F5F5E2F5E2E2E2F5E2F5F5F5F5F5F5E2F5F5F5F5F5F5F5F5F5F5F5F5F5F5F5F5F5F5F5F5F5F5F5F5F5F5F5F5F5F5F5F5F5
310
F5F5F5F5F5F5F5F5F5F5F5F5F5F5F5F5F5F5F5F5F5F5F5F5F5F5F5F5F5F5F5F5F5F5F5F5F5F5F5F5F5F5F5F5F5F5F5F5F5F5F5F5F5F5F5F5F5F5F5F5F5F5F5F5F5F5F5F5F5F5F5F5F5F5F5F5F5F5F5F5F5F5F5F5F5F5F5F5F5F5F5F5F5F5F5F5F5F5F5F5F5F5F5F5F5F5F5F5F5F5F5F5F5F5F5F5F5F5F5F5F5F5F5F5F5F5E2
310
F5F5F5F5F5F5E2F5E2E2E2F5E2F5F5F5F5F5F5E2F5F5F5F5F5F5F5F5F5F5F5F5F5F5F5F5F5F5F5F5F5F5F5F5F5F5F5F5F5F5F5F5F5F5F5F5F5F5F5F5F5F5F5F5F5F5F5F5F5F5F5F5F5F5F5F5F5F5F5F5F5F5F5F5F5F5F5F5F5F5F5F5F5F5F5F5F5F5F5F5F5F5F5F5F5F5F5F5F5F5F5F5F5F5F5F5F5F5F5F5F5F5F5F5F5F5F5
310
F5F5F5F5F5F5F5F5F5F5F5F5F5F5F5F5F5F5F5F5F5F5F5F5F5F5F5F5F5F5F5F5F5F5F5F5F5F5F5F5F5F5F5F5F5F5F5F5F5F5F5F5E2F5F5F5F5F5F5E2F5E2E2E2F5E2F5F5F5F5F5F5E2F5F5F5F5F5F5F5F5F5F5F5F5F5F5F5F5F5F5F5F5F5F5F5F5F5F5F5F5F5F5F5F5F5F5F5F5F5F5F5F5F5F5F5F5F5F5F5F5F5F5F5F5F5F5
310
F5F5F5F5F5F5F5F5F5F5F5F5F5F5F5F5F5F5F5F5F5F5F5F5F5F5F5F5F5F5F5F5F5F5F5F5F5F5F5F5F5F5F5F5F5F5F5F5F5F5F5F5F5F5F5F5F5F5F5F5F5F5F5F5F5F5F5F5F5F5F5F5F5F5F5F5F5F5F5F5F5F5F5F5F5F5F5F5F5F5F5F5F5F5F5F5F5F5F5F5F5F5F5F5F5E2F5F5F5F5F5F5E2F5E2E2E2F5E2F5F5F5F5F5F5E2F5
310
F5F5F5F5F5F5F5F5F5F5F5F5F5F5F5F5F5F5F5F5F5F5F5F5F5F5F5F5F5F5F5F5F5F5F5F5F5F5F5F5F5F5F5F5F5F5F5F5F5F5F5F5F5F5F5F5F5F5F5F5F5F5F5F5F5F5F5F5F5F5F5F5F5F5F5F5F5F5F5F5F5F5F5F5F5F5F5F5F5F5F5F5F5F5F5F5F5F5F5F5F5F5F5F5F5F5F5F5F5F5F5F5F5F5F5F5F5F5F5F5F5F5F5F5F5F5F5
310
F5F5F5F5F5F5F5F5F5F5F5F5F5F5F5F5F5F5F5F5F5F5F5F5F5F5F5F5F5F5F5E2F5F5F5F5F5F5E2F5E2E2E2F5E2F5F5F5F5F5F5E2F5F5F5F5F5F5F5F5F5F5F5F5F5F5F5F5F5F5F5F5F5F5F5F5F5F5F5F5F5F5F5F5F5F5F5F5F5F5F5F5F5F5F5F5F5F5F5F5F5F5F5F5F5F5F5F5F5F5F5F5F5F5F5F5F5F5F5F5F5F5F5F5F5F5F5
310
F5F5F5F5F5F5F5F5F5F5F5F5F5F5F5F5F5F5F5F5F5F5F5F5F5F5F5F5F5F5F5F5F5F5F5F5F5F5F5F5F5F5F5F5F5F5F5F5F5F5F5F5F5F5F5F5F5F5F5F5F5F5F5F5F5F5F5F5F5F5F5F5F5F5F5F5F5F5F5F5F5F5F5F5E2F5F5F5F5F5F5E2F5E2E2E2F5E2F5F5F5F5F5F5E2F5F5F5F5F5F5F5F5F5F5F5F5F5F5F5F5F5F5F5F5F5F5
310
F5F5F5F5F5F5F5F5F5F5F5F5F5F5F5F5F5F5F5F5F5F5F5F5F5F5F5F5F5F5F5F5F5F5F5F5F5F5F5F5F5F5F5F5F5F5F5F5F5F5F5F5F5F5F5F5F5F5F5F5F5F5F5F5F5F5F5F5F5F5F5F5F5F5F5F5F5F5F5F5F5F5F5F5F5F5F5F5F5F5F5F5F5F5F5F5F5F5F5F5F5F5F5F5F5F5F5F5F5F5F5F5F5F5F5F5F5F5F5F5F5F5F5F5F5F5F5
310
F5F5F5F5F5F5F5F5F5F5E2F5F5F5F5F5F5E2F5E2E2E2F5E2F5F5F5F5F5F5E2F5F5F5F5F5F5F5F5F5F5F5F5F5F5F5F5F5F5F5F5F5F5F5F5F5F5F5F5F5F5F5F5F5F5F5F5F5F5F5F5F5F5F5F5F5F5F5F5F5F5F5F5F5F5F5F5F5F5F5F5F5F5F5F5F5F5F5F5F5F5F5F5F5F5F5F5F5F5F5F5F5F5F5F5F5F5F5F5F5F5F5F5F5F5F5F5
310
F5F5F5F5F5F5F5F5F5F5F5F5F5F5F5F5F5F5F5F5F5F5F5F5F5F5F5F5F5F5F5F5F5F5F5F5F5F5F5F5F5F5F5F5F5F5F5F5F5F5F5F5F5F5F5F5F5F5F5F5F5F5F5E2F5F5F5F5F5F5E2F5E2E2E2F5E2F5F5F5F5F5F5E2F5F5F5F5F5F5F5F5F5F5F5F5F5F5F5F5F5F5F5F5F5F5F5F5F5F5F5F5F5F5F5F5F5F5F5F5F5F5F5F5F5F5F5
310
F5F5F5F5F5F5F5F5F5F5F5F5F5F5F5F5F5F5F5F5F5F5F5F5F5F5F5F5F5F5BEF5F5F5F5F5F5F5F5F5F5F5F5F5F5F5F5F5F5F5F5F5F50F0F0F0FF5F5F5F5F5F5F5F5F5F5F5F5F5F5F5F5F5F5F5F5F5F5F5F5F5F5F5F5F5F5F5F5F5F5F5F5F5F5F5F5F5F5F5F5F5F5F5F5F5F5F5F5F5F5F5F5F5F5F5E2F5F5F5F5F5F5E2F5E2E2
310
E2F5F5F5F5F5F5F5F5E2F5F5F5F5F5F5F5F5F5F5F5F5F5F5F5F5F5F5F5F5F5F5F5F5F5F5F5F5F5F5F5F5F5F5F5F5F5F5F5F5F5F5F5F5F5F5F5F5F5F5F5F5F5F5F5F5F5F5F5F5F5F5F5F5F5F5F5F5F5F5F5F5F5BEF5F5F5F5F5F5F5F5F5F5F5E2E2E2F5F5F5F5F5F50F0F0F0F0F0FF5F5F5F5F5F5F5F5F5F5F5F5F5F5F5F5F5
310
F5F5F5F5F5F5F5F5F5F5F5F5F5F5F5F5F5F5F5F5F5F5F5F5F5F5F5F5F5F5F5F5F5F5F5F5F5F5F5F5F5F5E2F5F5F5F5F5F5F5F5E2E2E2F5F5F5F5F5F5F5F5E2F5F5F5F5F5F5F5F5F5F5F5F5F5F5F5F5F5F5F5F5F5F5F5F5F5F5F5F5F5F5F5F5F5F5F5F5F5F5F5F5F5F5F5F5F5F5F5F5F5F5F5F5F5F5F5F5F5F5F5F5F5F5F5F5
310
F5F5F5F5F5F5F5E2E2BEE2E2F5F5F5F5F5F5F5F5F5E2F5E2F5F5F5F5F50FF5F50F0F0F0FF5F5F5F5F5F5F5F5F5F5F5F5F5F5F5F5F5F5F5F5F5F5F5F5F5F5F5F5F5F5F5F5F5F5F5F5F5F5F5F5F5F5F5F5F5F5F5F5F5F5F5F5F5F5F5F5F5F5F5E2F5F5F5F5F5F5F5F5E2E2E2F5F5F5F5F5F5F5F5E2F5F5F5F5F5F5F5F5F5F5F5
310
F5F5F5F5F5F5F5F5F5F5F5F5F5F5F5F5F5F5F5F5F5F5F5F5F5F5F5F5F5F5F5F5F5F5F5F5F5F5F5F5F5F5F5F5F5F5F5F5F5F5F5F5F5F5F5F5F5F5F5E2E2F5BEF5E2E2F5F5F5F5F5F5F5F5E2E2E2E2E2E2E2E2E2E2F5F5F5F5F5F5F5F5F5F5F5F5F5F5F5F5F5F5F5F5F5F5F5F5F5F5F5F5F5F5F5F5F5F5F5F5F5F5F5F5F5F5F5
310
F5F5F5F5F5F5F5F5F5F5F5F5F5F5F5F5F5F5F5F5F5E2F5F5F5F5F5F5F5F5E2E2E2F5F5F5F5F5F5F5F5E2F5F5F5F5F5F5F5F5F5F5F5F5F5F5F5F5F5F5F5F5F5F5F5F5F5F5F5F5F5F5F5F5F5F5F5F5F5F5F5F5F5F5F5F5F5F5F5F5F5F5F5F5F5F5F5F5F5F5F5F5F5F5F5F5F5F5F5F5F5F5E2F5F5BEF5F5E2F5F5F5F5F5F5F5F5
310
E2F5E2F5E2E2E2E2E2E2E2F5F5F5F5F5F5F5F5F5F5F5F5F5F5F5F5F5F5F5F5F5F5F5F5F5F5F5F5F5F5F5F5F5F5F5F5F5F5F5F5F5F5F5F5F5F5F5F5F5F5F5F5F5F5F5F5F5F5F5F5F5F5F5E2F5F5F5F5F5F5F5F5E2E2E2F5F5F5F5F5E2E2E2E2F5F5F5F5F5F5F5F5F5F5F5F5F5F5F5F5F5F5F5F5F5F5F5F5F5F5F5F5F5F5F5F5
310
F5F5F5F5F5F5F5F5F5F5F5F5F5F5F5F5F5F5F5F5F5F5F5F5F5F5F5F5F5F5F5F5F5F5F5F5BEBEBEBEBEBEBEBEBEBEF5F5F5F5F5F5BEBEBEBEBEBEBEBEBEBEBEBEBEF5F5F5F5F5F5F5F5F5F5F5F5F5F5F5F5F5F5F5F5F5F5F5F5F5F5F5F5F5F5F5F5F5F5F5F5F5F5F5F5F5F5F5F5F5F5F5F5F5F5F5F5F5F5F5F5F5F5F5F5F5F5
310
E2E2E2E2F5F5F5F5F5E2E2E2F5F5F5F5F5F5F5F5E2F5F5F5F5F5F5F5F5F5F5F5F5F5F5F5F5F5F5F5F5F5F5F5F5F5F5F5F5F5F5F5F5F5F5F5F5F5F5F5F5F5F5F5F5F5F5F5F5F5F5F5F5F5F5F5F5F5F5F5F5F5F5F5F5F5F5F5F5F5F5E2E2F5BEF5E2E2F5F5F5F5F5F5F5F5E2F5E2E2E2E2E2E2E2E2E2F5F5F5F5F5F5F5F5F5F5
310
F5F5F5F5F5F5F5F5F5F5F5F5F5F5F5F5F5F5F5F5F5F5F5F5F5F5F5F5F5F5F5F5F5F5F5F5F5F5F5F5F5F5F5F5F5F5F5F5F5F5F5F5F5E2F5F5F5F5F5F5F5F5E2E2E2F5F5F5F5F5F5F5F5E2F5F5F5F5F5F5F5F5F5F5F5F5F5F5F5F5F5F5F5F5F5F5F5F5F5F5F5F5F5F5F5F5F5F5F5F5F5F5F5F5F5F5F5F5F5F5F5F5F5F5F5F5F5
310
F5F5F5F5F5F5F5F5F5F5F5F5F5F5F5F5F50FE2E2BEE2E20FF5F5F5F5F5F5F5F5E2E2E2F50FF5F5F5F5F50FF5F5F5F5F5F5F5F5F5F5F5F5F5F5F5F5F5F5F5F5F5F5F5F5F5F5F5F5F5F5F5F5F5F5F5F5F5F5F5F5F5F5F5F5F5F5F5F5F5F5F5F5F5F5F5F5F5F5F5F5F5F5F5E2F5F5F5F5F5F5F5F5E2E2E2F5F5F5F5F5F5F5F5E2
310
F5F5F5F5F5F5F5F5F5F5F5F5F5F5F5F5F5F5F5F5F5F5F5F5F5F5F5F5F5F5F5F5F5F5F5F5F5F5F5F5F5F5F5F5F5F5F5F5F5F5F5F5F5F5F5F5F5F5F5F5F5F5F5F5F5F5F5F5F5F50FF5E2BEE2F50FF5F5F5F5F5F5F5F50FE20FF50FF5F5F5F5F50FF5F5F5F5F5F5F5F5F5F5F5F5F5F5F5F5F5F5F5F5F5F5F5F5F5F5F5F5F5F5F5
310
F5F5F5F5F5F5F5F5F5F5F5F5F5F5F5F5F5F5F5F5F5F5F5F5F5F5F5F5F5F5F5F5E2F5F5F5F5F5F5F5F5E2E2E2F5F5F5F5F5F5F5F5E2F5F5F5F5F5F5F5F5F5F5F5F5F5F5F5F5F5F5F5F5F5F5F5F5F5F5F5F5F5F5F5F5F5F5F5F5F5F5F5F5F5F5F5F5F5F5F5F5F5F5F5F5F5F5F5F5F5F5F5F5F5F5F5F5F5F5F5F5F5F50FF5F5BE
310
F5F50FF5F5F5F5F5F5F5F50FF50FF50FF5F5F5F50F0FF5F5F5F5F5F5F5F5F5F5F5F5F5F5F5F5F5F5F5F5F5F5F5F5F5F5F5F5F5F5F5F5F5F5F5F5F5F5F5F5F5F5F5F5F5F5F5F5F5F5F5F5F5F5F5F5F5F5F5F5F5F5F5E2F5F5F5F5F5F5F5F5E2E2E2F5E2F5F5F5F5F5F5E2F5F5F5F5F5F5F5F5F5F5F5F5F5F5F5F5F5F5F5F5F5
310
F5F5F5F5F5F5F5F5F5F5F5F5F5F5F5F5F5F5F5F5F5F5F5F5F5F5F5F5F5F5F5F5F5F5F5F5F5F5F5F5F5F5F5F5F5F5F5F5F50FF5F5BEF5F50FF5F5F5F5F5F5F5F50FF50FF50F0F0F0F0F0F0FF5F5F5F5F5F5F5F5F5F5F5F5F5F5F5F5F5F5F5F5F5F5F5F5F5F5F5F5F5F5F5F5F5F5F5F5F5F5F5F5F5F5F5F5F5F5F5F5F5F5F5F5
310
F5F5F5F5F5F5F5F5F5F5F5E2F5F5F5F5F5F5E2F5E2E2E2F5E2F5F5F5F5F5F5E2F5F5F5F5F5F5F5F5F5F5F5F5F5F5F5F5F5F5F5F5F5F5F5F5F5F5F5F5F5F5F5F5F5F5F5F5F5F5F5F5F5F5F5F5F5F5F5F5F5F5F5F5F5F5F5F5F5F5F5F5F5F5F5F5F5F5F5F5F5F50FF5F5F5F5F50FF5F5F5F5F5F5F5F50FF50FF5F50F0F0F0FF5
310
0FF5F5F5F5F5F5F5F5F5F5F5F5F5F5F5F5F5F5F5F5F5F5F5F5F5F5F5F5F5F5F5F5F5F5F5F5F5F5F5F5F5F5F5F5F5F5F5F5F5F5F5F5F5F5F5F5F5F5F5F5F5F5F5E2F5F5F5F5F5F5E2F5E2E2E2F5E2F5F5F5F5F5F5E2F5F5F5F5F5F5F5F5F5F5F5F5F5F5F5F5F5F5F5F5F5F5F5F5F5F5F5F5F5F5F5F5F5F5F5F5F5F5F5F5F5F5
310
F5F5F5F5F5F5F5F5F5F5F5F5F5F5F5F5F5F5F5F5F5F5F5F5F5F5F5F50F0F0F0F0F0F0FF5F5F50F0F0F0F0F0F0F0F0F0F0F0F0F0F0F0FF5F5F5F5F5F5F5F5F5F5F5F5F5F5F5F5F5F5F5F5F5F5F5F5F5F5F5F5F5F5F5F5F5F5F5F5F5F5F5F5F5F5F5F5F5F5F5F5F5F5F5F5F5F5F5F5F5F5F5F5F5F5F5E2F5F5F5F5F5F5E2F5E2
310
E2E2F5E2F5F5F5F5F5F5E2F5F5F5F5F5F5F5F5F5F5F5F5F5F5F5F5F5F5F5F5F5F5F5F5F5F5F5F5F5F5F5F5F5F5F5F5F5F5F5F5F5F5F5F5F5F5F5F5F5F5F5F5F5F5F5F5F5F5F5F5F5F5F5F5F5F5F5F5F5F50F0F0F0F0F0F0FF5F5F5F50F0F0F0F0FF50F0FF50F0F0FF50F0FF5F5F5F5F5F5F5F5F5F5F5F5F5F5F5F5F5F5F5F5
310
F5F5F5F5F5F5F5F5F5F5F5F5F5F5F5F5F5F5F5F5F5F5F5F5F5F5F5F5F5F5F5F5F5F5F5F5F5F5F5F5F5F5F5E2F5F5F5F5F5F5E2F5E2E2E2F5E2F5F5F5F5F5F5E2F5F5F5F5F5F5F5F5F5F5F5F5F5F5F5F5F5F5F5F5F5F5F5F5F5F5F5F5F5F5F5F5F5F5F5F5F5F5F5F5F5F5F5F5F5F5F5F5F5F5F5F5F5F5F5F5F5F5F5F5F5F5F5
310
F5F5F5F5F5F5F5F50F0F0F0FF5F5F5F5F5F50FF50FF5F5F5F5F5F50F0F0FF5F5F5F5F5F5F5F5F5F5F5F5F5F5F5F5F5F5F5F5F5F5F5F5F5F5F5F5F5F5F5F5F5F5F5F5F5F5F5F5F5F5F5F5F5F5F5F5F5F5F5F5F5F5F5F5F5F5F5F5F5F5F5F5F5F5E2F5F5F5F5F5F5E2F5E2E2E2F5E2F5F5F5F5F5F5E2F5F5F5F5F5F5F5F5F5F5
310
F5F5F5F5F5F5F5F5F5F5F5F5F5F5F5F5F5F5F5F5F5F5F5F5F5F5F5F5F5F5F5F5F5F5F5F5F5F5F5F5F5F5F5F5F5F5F5F5F5F5F5F5F5F5F5F5F5F5F5F5F5F5F5F5F5F5F5F5F5F5F5F5F5F5F5F5F5F5F5F5F5F5F5F5F5F5F5F5F5F5F5F5F5F5F5F5F5F5F5F5F5F5F5F5F5F5F5F5F5F5F5F5F5F5F5F5F5F5F5F5F5F5F5F5F5F5F5
310
F5F5F5F5F5F5F5F5F5F5F5F5F5F5F5F5F5F5F5F5F5F5E2F5F5F5F5F5F5E2F5E2E2E2F5E2F5F5F5F5F5F5E2F5F5F5F5F5F5F5F5F5F5F5F5F5F5F5F5F5F5F5F5F5F5F5F5F5F5F5F5F5F5F5F5F5F5F5F5F5F5F5F5F5F5F5F5F5F5F5F5F5F5F5F5F5F5F5F5F5F5F5F5F5F5F5F5F5F5F5F5F5F5F5F5F5F5F5F5F5F5F5F5F5F5F5F5
310
F5F5F5F5F5F5F5F5F5F5F5F5F5F5F5F5F5F5F5F5F5F5F5F5F5F5F5F5F5F5F5F5F5F5F5F5F5F5F5F5F5F5F5F5F5F5F5F5F5F5F5F5F5F5F5F5F5F5F5F5F5F5F5F5F5F5F5F5F5F5F5F5F5F5F5E2F5F5F5F5F5F5E2F5E2E2E2F5E2F5F5F5F5E2E2E2F5F5F5F5F5F5F5F5F5F5F5F5F5F5F5F5F5F5F5F5F5F5F5F5F5F5F5F5F5F5F5
310
F5F5F5F5F5F5F5F5F5F5F5F5F5F5F5F5F5F5F5F5F5F5F5F5F5F5F5F5F5F5F5F5F5F5F5F5F5F5F5F5F5F5F5F5F5F5F5F5F5F5F5F5F5F5F5F5F5F5F5F5F5F5F5F5F5F5F5F5F5F5F5F5F5F5F5F5F5F5F5F5F5F5F5F5F5F5F5F5F5F5F5F5F5F5F5F5F5F5F5F5F5F5F5F5F5F5F5F5F5F5F5F5F5F5F5F5F5F5F5F5F5F5F5F5F5F5F5
310
F5E2E2E2F5F5F5F5E2F5E2E2E2F5E2F5F5F5F5E2E2E2F5F5F5F5F5F5F5F5F5F5F5F5F5F5F5F5F5F5F5F5F5F5F5F5F5F5F5F5F5F5F5F5F5F5F5F5F5F5F5F5F5F5F5F5F5F5F5F5F5F5F5F5F5F5F5F5F5F5F5F5F5F5F5F5F5F5F5F5F5F5F5F5F5F5F5F5F5F5F5F5F5F5F5F5F5F5F5F5F5F5F5F5F5F5F5F5F5F5F5F5F5F5F5F5F5
310
F5F5F5F5F5F5F5F5F5F5F5F5F5F5F5F5F5F5F5F5F5F5F5F5F5F5F5F5F5F5F5F5F5F5F5F5F5F5F5F5F5F5F5F5F5F5F5F5F5F5F5F5F5F5E2E2E2F5F5F5F5E2F5E2E2E2F5E2F5F5F5F5F5F5E2F5F5F5F5F5F5F5F5F5F5F5F5F5F5F5F5F5F5F5F5F5F5F5F5F5F5F5F5F5F5F5F5F5F5F5F5F5F5F5F5F5F5F5F5F5F5F5F5F5F5F5F5
310
F5F5F5F5F5F5F5F5F5F5F5F5F5F5F5F5F5F5F5F5F5F5F5F5F5F5F5F5F5F5F5F5F5F5F5F5F5F5F5F5F5F5F5F5F5F5F5F5F5F5F5F5F5F5F5F5F5F5F5F5F5F5F5F5F5F5F5F5F5F5F5F5F5F5F5F5F5F5F5F5F5F5F5F5F5F5F5F5F5F5F5F5F5F5F5F5F5F5F5F5F5F5F5F5F5F5F5E2F5F5F5F5F5F5E2F5E2E2E2F5E2F5F5F5F5F5F5
310
E2F5F5F5F5F5F5F5F5F5F5F5F5F5F5F5F5F5F5F5F5F5F5F5F5F5F5F5F5F5F5F5F5F5F5F5F5F5F5F5F5F5F5F5F5F5F5F5F5F5F5F5F5F5F5F5F5F5F5F5F5F5F5F5F5F5F5F5F5F5F5F5F5F5F5F5F5F5F5F5F5F5F5F5F5F5F5F5F5F5F5F5F5F5F5F5F5F5F5F5F5F5F5F5F5F5F5F5F5F5F5F5F5F5F5F5F5F5F5F5F5F5F5F5F5F5F5
310
F5F5F5F5F5F5F5F5F5F5F5F5F5F5F5F5F5F5F5F5F5F5F5F5F5F5F5F5F5F5F5F5F5E2F5F5F5F5F5F5E2F5E2E2E2F5E2F5F5F5F5F5F5E2F5F5F5F5F5F5F5F5F5F5F5F5F5F5F5F5F5F5F5F5F5F5F5F5F5F5F5F5F5F5F5F5F5F5F5F5F5F5F5F5F5F5F5F5F5F5F5F5F5F5F5F5F5F5F5F5F5F5F5F5F5F5F5F5F5F5F5F5F5F5F5F5F5
310
F5F5F5F5F5F5F5F5F5F5F5F5F5F5F5F5F5F5F5F5F5F5F5F5F5F5F5F5F5F5F5F5F5F5F5F5F5F5F5F5F5F5F5F5F5F5F5F5F5F5F5F5F5F5F5F5F5F5F5F5F5F5F5F5F5F5F5F5F5F5F5F5F5F5F5F5F5F5F5F5F5F5F5F5F5F5E2F5F5F5F5F5F5E2F5E2E2E2F5E2F5F5F5F5F5F5E2F5F5F5F5F5F5F5F5F5F5F5F5F5F5F5F5F5F5F5F5
310
F5F5F5F5F5F5F5F5F5F5F5F5F5F5F5F5F5F5F5F5F5F5F5F5F5F5F5F5F5F5F5F5F5F5F5F5F5F5F5F5F5F5F5F5F5F5F5F5F5F5F5F5F5F5F5F5F5F5F5F5F5F5F5F5F5F5F5F5F5F5F5F5F5F5F5F5F5F5F5F5F5F5F5F5F5F5F5F5F5F5F5F5F5F5F5F5F5F5F5F5F5F5F5F5F5F5F5F5F5F5F5F5F5F5F5F5F5F5F5F5F5F5F5F5F5F5F5
310
F5F5F5F5F5F5F5F5F5F5F5F5E2F5F5F5F5F5F5E2F5E2E2E2F5E2F5F5F5F5F5F5E2F5F5F5F5F5F5F5F5F5F5F5F5F5F5F5F5F5F5F5F5F5F5F5F5F5F5F5F5F5F5F5F5F5F5F5F5F5F5F5F5F5F5F5F5F5F5F5F5F5F5F5F5F5F5F5F5F5F5F5F5F5F5F5F5F5F5F5F5F5F5F5F5F5F5F5F5F5F5F5F5F5F5F5F5F5F5F5F5F5F5F5F5F5F5
310
F5F5F5F5F5F5F5F5F5F5F5F5F5F5F5F5F5F5F5F5F5F5F5F5F5F5F5F5F5F5F5F5F5F5F5F5F5F5F5F5F5F5F5F5F5F5F5F5F5F5F5F5F5F5F5F5F5F5F5F5F5F5F5F5F5E2F5F5F5F5F5F5E2F5E2E2E2F5E2F5F5F5F5F5F5E2F5F5F5F5F5F5F5F5F5F5F5F5F5F5F5F5F5F5F5F5F5F5F5F5F5F5F5F5F5F5F5F5F5F5F5F5F5F5F5F5F5
310
F5F5F5F5F5F5F5F5F5F5F5F5F5F5F5F5F5F5F5F5F5F5F5F5F5F5F5F5F5F5F5F5F5F5F5F5F5F5F5F5F5F5F5F5F5F5F5F5F5F5F5F5F5F5F5F5F5F5F5F5F5F5F5F5F5F5F5F5F5F5F5F5F5F5F5F5F5F5F5F5F5F5F5F5F5F5F5F5F5F5F5F5F5F5F5F5F5F5F5F5F5F5F5F5F5F5F5F5F5F5F5F5F5F5F5F5F5F5E2F5F5F5F5F5F5E2F5
310
E2E2E2F5E2F5F5F5F5F5F5E2F5F5F5F5F5F5F5F5F5F5F5F5F5F5F5F5F5F5F5F5F5F5F5F5F5F5F5F5F5F5F5F5F5F5F5F5F5F5F5F5F5F5F5F5F5F5F5F5F5F5F5F5F5F5F5F5F5F5F5F5F5F5F5F5F5F5F5F5F5F5F5F5F5F5F5F5F5F5F5F5F5F5F5F5F5F5F5F5F5F5F5F5F5F5F5F5F5F5F5F5F5F5F5F5F5F5F5F5F5F5F5F5F5F5F5
310
F5F5F5F5F5F5F5F5F5F5F5F5F5F5F5F5F5F5F5F5F5F5F5F5F5F5F5F5F5F5F5F5F5F5F5F5F5F5F5F5F5F5F5F5E2F5F5F5F5F5F5E2F5E2E2E2F5F5F5F5F5F5F5F5E2F5F5F5F5F5F5F5F5F5F5F5F5F5F5F5F5F5F5F5F5F5F5F5F5F5F5F5F5F5F5F5F5F5F5F5F5F5F5F5F5F5F5F5F5F5F5F5F5F5F5F5F5F5F5F5F5F5F5F5F5F5F5
310
F5F5F5F5F5F5F5F5F5F5F5F5F5F5F5F5F5F5F5F5F5F5F5F5F5F5F5F5F5F5F5F5F5F5F5F5F5F5F5F5F5F5F5F5F5F5F5F5F5F5F5F5F5F5F5F5F5F5F5F5F5F5F5F5F5F5F5F5F5F5F5F5F5F5F5F5F5F5F5F5F5F5F5F5F5F5F5F5F5F5F5F5F5F5F5F5F5E2F5F5F5F5F5F5F5F5E2E2E2F5F5F5F5F5F5F5F5E2F5F5F5F5F5F5F5F5F5
310
F5F5F5F5F5F5F5F5F5F5F5F5F5F5F5F5F5F5F5F5F5F5F5F5F5F5F5F5F5F5F5F5F5F5F5F5F5F5F5F5F5F5F5F5F5F5F5F5F5F5F5F5F5F5F5F5F5F5F5F5F5F5F5F5F5F5F5F5F5F5F5F5F5F5F5F5F5F5F5F5F5F5F5F5F5F5F5F5F5F5F5F5F5F5F5F5F5F5F5F5F5F5F5F5F5F5F5F5F5F5F5F5F5F5F5F5F5F5F5F5F5F5F5F5F5F5F5
310
F5F5F5F5F5F5F5F5F5F5F5F5F5F5F5F5F5F5F5F5F5F5F5E2F5F5F5F5F5F5F5F5E2E2E2F5F5F5F5F5F5F5F5E2F5F5F5F5F5F5F5F5F5F5F5F5F5F5F5F5F5F5F5F5F5F5F5F5F5F5F5F5F5F5F5F5F5F5F5F5F5F5F5F5F5F5F5F5F5F5F5F5F5F5F5F5F5F5F5F5F5F5F5F5F5F5F5F5F5F5F5F5F5F5F5F5F5F5F5F5F5F5F5F5F5F5F5
310
F5F5F5F5F5F5F5F5F5F5F5F5F5F5F5F5F5F5F5F5F5F5F5F5F5F5F5F5F5F5F5F5F5F5F5F5F5F5F5F5F5F5F5F5F5F5F5F5F5F5F5F5F5F5F5F5F5F5F5F5F5F5F5F5F5F5F5F5F5F5F5F5F5F5F5F5E2F5F5F5F5F5F5F5F5E2E2E2F5F5F5F5F5F5F5F5E2F5F5F5F5F5F5F5F5F5F5F5F5F5F5F5F5F5F5F5F5F5F5F5F5F5F5F5F5F5F5
310
F5F5F5F5F5F5F5F5F5F5F5F5F5F5F5F5F5F5F5F5F5F5F5F5F5F5F5F5F5F5F5F5F5F5F5F5F5F5F5F5F5F5F5F5F5F5F5F5F5F5F5F5F5F5F5F5F5F5F5F5F5F5F5F5F5F5F5F5F5F5F5F5F5F5F5F5F5F5F5F5F5F5F5F5F5F5F5F5F5F5F5F5F5F5F5F5F5F5F5F5F5F5F5F5F5F5F5F5F5F5F5F5F5F5F5F5F5F5F5F5F5F5F5F5F5F5F5
310
F5F5E2F5F5F5F5F5F5F5F5E2E2E2F5F5F5F5F5F5F5F5E2F5F5F5F5F5F5F5F5F5F5F5F5F5F5F5F5F5F5F5F5F5F5F5F5F5F5F5F5F5F5F5F5F5F5F5F5F5F5F5F5F5F5F5F5F5F5F5F5F5F5F5F5F5F5F5F5F5F5F5F5F5F5F5F5F5F5F5F5F5F5F5F5F5F5F5F5F5F5F5F5F5F5F5F5F5F5F5F5F5F5F5F5F5F5F5F5F5F5F5F5F5F5F5F5
310
F5F5F5F5F5F5F5F5F5F5F5F5F5F5F5F5F5F5F5F5F5F5F5F5F5F5F5F5F5F5F5F5F5F5F5F5F5F5F5F5F5F5F5F5F5F5F5F5F5F5F5F5F5F5F5E2F5F5F5F5F5F5F5F5E2E2E2F5F5F5F5F5F5F5F5E2F5F5F5F5F5F5F5F5F5F5F5F5F5F5F5F5F5F5F5F5F5F5F5F5F5F5F5F5F5F5F5F5F5F5F5F5F5F5F5F5F5F5F5F5F5F5F5F5F5F5F5
310
F5F5F5F5F5F5F5F5F5F5F5F5F5F5F5F5F5F5F5F5F5F5F5F5F5F5F5F5F5F5F5F5F5F5F5F5F5F5F5F5F5F5F5F5F5F5F5F5F5F5F5F5F5F5F5F5F5F5F5F5F5F5F5F5F5F5F5F5F5F5F5F5F5F5F5F5F5F5F5F5F5F5F5F5F5F5F5F5F5F5F5F5F5F5F5F5F5F5F5F5F5F5F5F5F5F5F5F5E2F5F5F5F5F5F5F5F5E2E2E2F5F5F5F5F5E2E2
310
E2E2F5F5F5F5F5F5F5F5F5F5F5F5F5F5F5F5F5F5F5F5F5F5F5F5F5F5F5F5F5F5F5F5F5F5F5F5F5F5F5F5F5F5F5F5F5F5F5F5F5F5F5F5F5F5F5F5F5F5F5F5F5F5F5F5F5F5F5F5F5F5F5F5F5F5F5F5F5F5F5F5F5F5F5F5F5F5F5F5F5F5F5F5F5F5F5F5F5F5F5F5F5F5F5F5F5F5F5F5F5F5F5F5F5F5F5F5F5F5F5F5F5F5F5F5F5
310
F5F5F5F5F5F5F5F5F5F5F5F5F5F5F5F5F5F5F5F5F5F5F5F5F5F5F5F5F5F5F5F5F5F5E2E2E2E2F5F5F5F5F5E2E2E2F5F5F5F5F5F5F5F5E2F5F5F5F5F5F5F5F5F5F5F5F5F5F5F5F5F5F5F5F5F5F5F5F5F5F5F5F5F5F5F5F5F5F5F5F5F5F5F5F5F5F5F5F5F5F5F5F5F5F5F5F5F5F5F5F5F5F5F5F5F5F5F5F5F5F5F5F5F5F5F5F5
310
F5F5F5F5F5F5F5F5F5F5F5F5F5F5F5F5F5F5F5F5F5F5F5F5F5F5F5F5F5F5F5F5F5F5F5F5F5F5F5F5F5F5F5F5F5F5F5F5F5F5F5F5F5F5F5F5F5F5F5F5F5F5F5F5F5F5F5F5F5F5F5F5F5F5F5F5F5F5F5F5F5F5F5F5F5F5F5E2F5F5F5F5F5F5F5F5E2E2E2F5E2F5F5F5F5F5F5E2F5F5F5F5F5F5F5F5F5F5F5F5F5F5F5F5F5F5F5
310
F5F5F5F5F5F5F5F5F5F5F5F5F5F5F5F5F5F5F5F5F5F5F5F5F5F5F5F5F5F5F5F5F5F5F5F5F5F5F5F5F5F5F5F5F5F5F5F5F5F5F5F5F5F5F5F5F5F5F5F5F5F5F5F5F5F5F5F5F5F5F5F5F5F5F5F5F5F5F5F5F5F5F5F5F5F5F5F5F5F5F5F5F5F5F5F5F5F5F5F5F5F5F5F5F5F5F5F5F5F5F5F5F5F5F5F5F5F5F5F5F5F5F5F5F5F5F5
310
F5F5F5F5F5F5F5F5F5F5F5F5F5E2F5F5F5F5F5F5E2F5E2E2E2F5E2F5F5F5F5F5F5E2F5F5F5F5F5F5F5F5F5F5F5F5F5F5F5F5F5F5F5F5F5F5F5F5F5F5F5F5F5F5F5F5F5F5F5F5F5F5F5F5F5F5F5F5F5F5F5F5F5F5F5F5F5F5F5F5F5F5F5F5F5F5F5F5F5F5F5F5F5F5F5F5F5F5F5F5F5F5F5F5F5F5F5F5F5F5F5F5F5F5F5F5F5
310
F5F5F5F5F5F5F5F5F5F5F5F5F5F5F5F5F5F5F5F5F5F5F5F5F5F5F5F5F5F5F5F5F5F5F5F5F5F5F5F5F5F5F5F5F5F5F5F5F5F5F5F5F5F5F5F5F5F5F5F5F5F5F5F5F5F5E2F5F5F5F5F5F5E2F5E2E2E2F5E2F5F5F5F5F5F5E2F5F5F5F5F5F5F5F5F5F5F5F5F5F5F5F5F5F5F5F5F5F5F5F5F5F5F5F5F5F5F5F5F5F5F5F5F5F5F5F5
310
F5F5F5F5F5F5F5F5F5F5F5F5F5F5F5F5F5F5F5F5F5F5F5F5F5F5F5F5F5F5F5F5F5F5F5F5F5F5F5F5F5F5F5F5F5F5F5F5F5F5F5F5F5F5F5F5F5F5F5F5F5F5F5F5F5F5F5F5F5F5F5F5F5F5F5F5F5F5F5F5F5F5F5F5F5F5F5F5F5F5F5F5F5F5F5F5F5F5F5F5F5F5F5F5F5F5F5F5F5F5F5F5F5F5F5F5F5F5F5E2F5F5F5F5F5F5E2
310
F5E2E2E2F5E2F5F5F5F5F5F5E2F5F5F5F5F5F5F5F5F5F5F5F5F5F5F5F5F5F5F5F5F5F5F5F5F5F5F5F5F5F5F5F5F5F5F5F5F5F5F5F5F5F5F5F5F5F5F5F5F5F5F5F5F5F5F5F5F5F5F5F5F5F5F5F5F5F5F5F5F5F5F5F5F5F5F5F5F5F5F5F5F5F5F5F5F5F5F5F5F5F5F5F5F5F5F5F5F5F5F5F5F5F5F5F5F5F5F5F5F5F5F5F5F5F5
310
F5F5F5F5F5F5F5F5F5F5F5F5F5F5F5F5F5F5F5F5F5F5F5F5F5F5F5F5F5F5F5F5F5F5F5F5F5F5F5F5F5F5F5F5F5E2F5F5F5F5F5F5E2F5E2E2E2F5E2F5F5F5F5F5F5E2F5F5F5F5F5F5F5F5F5F5F5F5F5F5F5F5F5F5F5F5F5F5F5F5F5F5F5F5F5F5F5F5F5F5F5F5F5F5F5F5F5F5F5F5F5F5F5F5F5F5F5F5F5F5F5F5F5F5F5F5F5
310
F5F5F5F5F5F5F5F5F5F5F5F5F5F5F5F5F5F5F5F5F5F5F5F5F5F5F5F5F5F5F5F5F5F5F5F5F5F5F5F5F5F5F5F5F5F5F5F5F5F5F5F5F5F5F5F5F5F5F5F5F5F5F5F5F5F5F5F5F5F5F5F5F5F5F5F5F5F5F5F5F5F5F5F5F5F5F5F5F5F5F5F5F5F5F5F5F5F5E2F5F5F5F5F5F5E2F5E2E2E2F5E2F5F5F5F5F5F5E2F5F5F5F5F5F5F5F5
310
F5F5F5F5F5F5F5F5F5F5F5F5F5F5F5F5F5F5F5F5F5F5F5F5F5F5F5F5F5F5F5F5F5F5F5F5F5F5F5F5F5F5F5F5F5F5F5F5F5F5F5F5F5F5F5F5F5F5F5F5F5F5F5F5F5F5F5F5F5F5F5F5F5F5F5F5F5F5F5F5F5F5F5F5F5F5F5F5F5F5F5F5F5F5F5F5F5F5F5F5F5F5F5F5F5F5F5F5F5F5F5F5F5F5F5F5F5F5F5F5F5F5F5F5F5F5F5
310
F5F5F5F5F5F5F5F5F5F5F5F5F5F5F5F5F5F5F5F5F5F5F5F5E2F5F5F5F5F5F5E2F5E2E2E2F5E2F5F5F5F5F5F5E2F5F5F5F5F5F5F5F5F5F5F5F5F5F5F5F5F5F5F5F5F5F5F5F5F5F5F5F5F5F5F5F5F5F5F5F5F5F5F5F5F5F5F5F5F5F5F5F5F5F5F5F5F5F5F5F5F5F5F5F5F5F5F5F5F5F5F5F5F5F5F5F5F5F5F5F5F5F5F5F5F5F5
310
F5F5F5F5F5F5F5F5F5F5F5F5F5F5F5F5F5F5F5F5F5F5F5F5F5F5F5F5F5F5F5F5F5F5F5F5F5F5F5F5F5F5F5F5F5F5F5F5F5F5F5F5F5F5F5F5F5F5F5F5F5F5F5F5F5F5F5F5F5F5F5F5F5F5F5F5F5E2F5F5F5F5F5F5E2F5E2E2E2F5E2F5F5F5F5F5F5E2F5F5F5F5F5F5F5F5F5F5F5F5F5F5F5F5F5F5F5F5F5F5F5F5F5F5F5F5F5
310
F5F5F5F5F5F5F5F5F5F5F5F5F5F5F5F5F5F5F5F5F5F5F5F5F5F5F5F5F5F5F5F5F5F5F5F5F5F5F5F5F5F5F5F5F5F5F5F5F5F5F5F5F5F5F5F5F5F5F5F5F5F5F5F5F5F5F5F5F5F5F5F5F5F5F5F5F5F5F5F5F5F5F5F5F5F5F5F5F5F5F5F5F5F5F5F5F5F5F5F5F5F5F5F5F5F5F5F5F5F5F5F5F5F5F5F5F5F5F5F5F5F5F5F5F5F5F5
310
F5F5F5E2F5F5F5F5F5F5E2F5E2E2E2F5E2F5F5F5F5F5F5E2F5F5F5F5F5F5F5F5F5F5F5F5F5F5F5F5F5F5F5F5F5F5F5F5F5F5F5F5F5F5F5F5F5F5F5F5F5F5F5F5F5F5F5F5F5F5F5F5F5F5F5F5F5F5F5F5F5F5F5F5F5F5F5F5F5F5F5F5F5F5F5F5F5F5F5F5F5F5F5F5F5F5F5F5F5F5F5F5F5F5F5F5F5F5F5F5F5F5F5F5F5F5F5
310
F5F5F5F5F5F5F5F5F5F5F5F5F5F5F5F5F5F5F5F5F5F5F5F5F5F5F5F5F5F5F5F5F5F5F5F5F5F5F5F5F5F5F5F5F5F5F5F5F5F5F5F5F5F5F5F5E2F5F5F5F5F5F5E2F5E2E2E2F5E2F5F5F5F5F5F5E2F5F5F5F5F5F5F5F5F5F5F5F5F5F5F5F5F5F5F5F5F5F5F5F5F5F5F5F5F5F5F5F5F5F5F5F5F5F5F5F5F5F5F5F5F5F5F5F5F5F5
310
F5F5F5F5F5F5F5F5F5F5F5F5F5F5F5F5F5F5F5F5F5F5F5F5F5F5F5F5F5F5F5F5F5F5F5F5F5F5F5F5F5F5F5F5F5F5F5F5F5F5F5F5F5F5F5F5F5F5F5F5F5F5F5F5F5F5F5F5F5F5F5F5F5F5F5F5F5F5F5F5F5F5F5F5F5F5F5F5F5F5F5F5F5F5F5F5F5F5F5F5F5F5F5F5F5F5F5F5F5E2F5F5F5F5F5F5E2F5E2E2E2F5E2F5F5F5F5
310
E2E2E2F5F5F5F5F5F5F5F5F5F5F5F5F5F5F5F5F5F5F5F5F5F5F5F5F5F5F5F5F5F5F5F5F5F5F5F5F5F5F5F5F5F5F5F5F5F5F5F5F5F5F5F5F5F5F5F5F5F5F5F5F5F5F5F5F5F5F5F5F5F5F5F5F5F5F5F5F5F5F5F5F5F5F5F5F5F5F5F5F5F5F5F5F5F5F5F5F5F5F5F5F5F5F5F5F5F5F5F5F5F5F5F5F5F5F5F5F5F5F5F5F5F5F5F5
310
F5F5F5F5F5F5F5F5F5F5F5F5F5F5F5F5F5F5F5F5F5F5F5F5F5F5F5F5F5F5F5F5F5F5F5E2E2E2F5F5F5F5E2F5E2E2E2F5E2F5F5F5F5E2E2E2F5F5F5F5F5F5F5F5F5F5F5F5F5F5F5F5F5F5F5F5F5F5F5F5F5F5F5F5F5F5F5F5F5F5F5F5F5F5F5F5F5F5F5F5F5F5F5F5F5F5F5F5F5F5F5F5F5F5F5F5F5F5F5F5F5F5F5F5F5F5F5
310
F5F5F5F5F5F5F5F5F5F5F5F5F5F5F5F5F5F5F5F5F5F5F5F5F5F5F5F5F5F5F5F5F5F5F5F5F5F5F5F5F5F5F5F5F5F5F5F5F5F5F5F5F5F5F5F5F5F5F5F5F5F5F5F5F5F5F5F5F5F5F5F5F5F5F5F5F5F5F5F5F5F5F5F5F5F5F5F5E2E2E2F5F5F5F5E2F5E2E2E2F5E2F5F5F5F5F5F5E2F5F5F5F5F5F5F5F5F5F5F5F5F5F5F5F5F5F5
310
F5F5F5F5F5F5F5F5F5F5F5F5F5F5F5F5F5F5F5F5F5F5F5F5F5F5F5F5F5F5F5F5F5F5F5F5F5F5F5F5F5F5F5F5F5F5F5F5F5F5F5F5F5F5F5F5F5F5F5F5F5F5F5F5F5F5F5F5F5F5F5F5F5F5F5F5F5F5F5F5F5F5F5F5F5F5F5F5F5F5F5F5F5F5F5F5F5F5F5F5F5F5F5F5F5F5F5F5F5F5F5F5F5F5F5F5F5F5F5F5F5F5F5F5F5F5F5
310
F5F5F5F5F5F5F5F5F5F5F5F5F5F5E2F5F5F5F5F5F5E2F5E2E2E2F5E2F5F5F5F5F5F5E2F5F5F5F5F5F5F5F5F5F5F5F5F5F5F5F5F5F5F5F5F5F5F5F5F5F5F5F5F5F5F5F5F5F5F5F5F5F5F5F5F5F5F5F5F5F5F5F5F5F5F5F5F5F5F5F5F5F5F5F5F5F5F5F5F5F5F5F5F5F5F5F5F5F5F5F5F5F5F5F5F5F5F5F5F5F5F5F5F5F5F5F5
310
F5F5F5F5F5F5F5F5F5F5F5F5F5F5F5F5F5F5F5F5F5F5F5F5F5F5F5F5F5F5F5F5F5F5F5F5F5F5F5F5F5F5F5F5F5F5F5F5F5F5F5F5F5F5F5F5F5F5F5F5F5F5F5F5F5F5F5E2F5F5F5F5F5F5E2F5E2E2E2F5E2F5F5F5F5F5F5E2F5F5F5F5F5F5F5F5F5F5F5F5F5F5F5F5F5F5F5F5F5F5F5F5F5F5F5F5F5F5F5F5F5F5F5F5F5F5F5
310
F5F5F5F5F5F5F5F5F5F5F5F5F5F5F5F5F5F5F5F5F5F5F5F5F5F5F5F5F5F5F5F5F5F5F5F5F5F5F5F5F5F5F5F5F5F5F5F5F5F5F5F5F5F5F5F5F5F5F5F5F5F5F5F5F5F5F5F5F5F5F5F5F5F5F5F5F5F5F5F5F5F5F5F5F5F5F5F5F5F5F5F5F5F5F5F5F5F5F5F5F5F5F5F5F5F5F5F5F5F5F5F5F5F5F5F5F5F5F5F5E2F5F5F5F5F5F5
310
E2F5E2E2E2F5E2F5F5F5F5F5F5E2F5F5F5F5F5F5F5F5F5F5F5F5F5F5F5F5F5F5F5F5F5F5F5F5F5F5F5F5F5F5F5F5F5F5F5F5F5F5F5F5F5F5F5F5F5F5F5F5F5F5F5F5F5F5F5F5F5F5F5F5F5F5F5F5F5F5F5F5F5F5F5F5F5F5F5F5F5F5F5F5F5F5F5F5F5F5F5F5F5F5F5F5F5F5F5F5F5F5F5F5F5F5F5F5F5F5F5F5F5F5F5F5F5
310
F5F5F5F5F5F5F5F5F5F5F5F5F5F5F5F5F5F5F5F5F5F5F5F5F5F5F5F5F5F5F5F5F5F5F5F5F5F5F5F5F5F5F5F5F5F5E2F5F5F5F5F5F5E2F5E2E2E2F5F5F5F5F5F5F5F5E2F5F5F5F5F5F5F5F5F5F5F5F5F5F5F5F5F5F5F5F5F5F5F5F5F5F5F5F5F5F5F5F5F5F5F5F5F5F5F5F5F5F5F5F5F5F5F5F5F5F5F5F5F5F5F5F5F5F5F5F5
310
F5F5F5F5F5F5F5F5F5F5F5F5F5F5F5F5F5F5F5F5F5F5F5F5F5F5F5F5F5F5F5F5F5F5F5F5F5F5F5F5F5F5F5F5F5F5F5F5F5F5F5F5F5F5F5F5F5F5F5F5F5F5F5F5F5F5F5F5F5F5F5F5F5F5F5F5F5F5F5F5F5F5F5F5F5F5F5F5F5F5F5F5F5F5F5F5F5F5F5E2F5F5F5F5F5F5F5F5E2E2E2F5F5F5F5F5F5F5F5E2F5F5F5F5F5F5F5
310
F5F5F5F5F5F5F5F5F5F5F5F5F5F5F5F5F5F5F5F5F5F5F5F5F5F5F5F5F5F5F5F5F5F5F5F5F5F5F5F5F5F5F5F5F5F5F5F5F5F5F5F5F5F5F5F5F5F5F5F5F5F5F5F5F5F5F5F5F5F5F5F5F5F5F5F5F5F5F5F5F5F5F5F5F5F5F5F5F5F5F5F5F5F5F5F5F5F5F5F5F5F5F5F5F5F5F5F5F5F5F5F5F5F5F5F5F5F5F5F5F5F5F5F5F5F5F5
310
F5F5F5F5F5F5F5F5F5F5F5F5F5F5F5F5F5F5F5F5F5F5F5F5F5E2F5F5F5F5F5F5F5F5E2E2E2F5F5F5F5F5F5F5F5E2F5F5F5F5F5F5F5F5F5F5F5F5F5F5F5F5F5F5F5F5F5F5F5F5F5F5F5F5F5F5F5F5F5F5F5F5F5F5F5F5F5F5F5F5F5F5F5F5F5F5F5F5F5F5F5F5F5F5F5F5F5F5F5F5F5F5F5F5F5F5F5F5F5F5F5F5F5F5F5F5F5
310
F5F5F5F5F5F5F5F5F5F5F5F5F5F5F5F5F5F5F5F5F5F5F5F5F5F5F5F5F5F5F5F5F5F5F5F5F5F5F5F5F5F5F5F5F5F5F5F5F5F5F5F5F5F5F5F5F5F5F5F5F5F5F5F5F5F5F5F5F5F5F5F5F5F5F5F5F5F5E2F5F5F5F5F5F5F5F5E2E2E2F5F5F5F5F5F5F5F5E2F5F5F5F5F5F5F5F5F5F5F5F5F5F5F5F5F5F5F5F5F5F5F5F5F5F5F5F5
310
F5F5F5F5F5F5F5F5F5F5F5F5F5F5F5F5F5F5F5F5F5F5F5F5F5F5F5F5F5F5F5F5F5F5F5F5F5F5F5F5F5F5F5F5F5F5F5F5F5F5F5F5F5F5F5F5F5F5F5F5F5F5F5F5F5F5F5F5F5F5F5F5F5F5F5F5F5F5F5F5F5F5F5F5F5F5F5F5F5F5F5F5F5F5F5F5F5F5F5F5F5F5F5F5F5F5F5F5F5F5F5F5F5F5F5F5F5F5F5F5F5F5F5F5F5F5F5
310
F5F5F5F5E2F5F5F5F5F5F5F5F5E2E2E2F5F5F5F5F5F5F5F5E2F5F5F5F5F5F5F5F5F5F5F5F5F5F5F5F5F5F5F5F5F5F5F5F5F5F5F5F5F5F5F5F5F5F5F5F5F5F5F5F5F5F5F5F5F5F5F5F5F5F5F5F5F5F5F5F5F5F5F5F5F5F5F5F5F5F5F5F5F5F5F5F5F5F5F5F5F5F5F5F5F5F5F5F5F5F5F5F5F5F5F5F5F5F5F5F5F5F5F5F5F5F5
310
F5F5F5F5F5F5F5F5F5F5F5F5F5F5F5F5F5F5F5F5F5F5F5F5F5F5F5F5F5F5F5F5F5F5F5F5F5F5F5F5F5F5F5F5F5F5F5F5F5F5F5F5F5F5F5F5F5E2F5F5F5F5F5F5F5F5E2E2E2F5F5F5F5F5F5F5F5E2F5F5F5F5F5F5F5F5F5F5F5F5F5F5F5F5F5F5F5F5F5F5F5F5F5F5F5F5F5F5F5F5F5F5F5F5F5F5F5F5F5F5F5F5F5F5F5F5F5
310
F5F5F5F5F5F5F5F5F5F5F5F5F5F5F5F5F5F5F5F5F5F5F5F5F5F5F5F5F5F5F5F5F5F5F5F5F5F5F5F5F5F5F5F5F5F5F5F5F5F5F5F5F5F5F5F5F5F5F5F5F5F5F5F5F5F5F5F5F5F5F5F5F5F5F5F5F5F5F5F5F5F5F5F5F5F5F5F5F5F5F5F5F5F5F5F5F5F5F5F5F5F5F5F5F5F5F5F5F5F5E2F5F5F5F5F5F5F5F5E2E2E2F5F5F5F5F5
310
F5F5F5E2F5F5F5F5F5F5F5F5F5F5F5F5F5F5F5F5F5F5F5F5F5F5F5F5F5F5F5F5F5F5F5F5F5F5F5F5F5F5F5F5F5F5F5F5F5F5F5F5F5F5F5F5F5F5F5F5F5F5F5F5F5F5F5F5F5F5F5F5F5F5F5F5F5F5F5F5F5F5F5F5F5F5F5F5F5F5F5F5F5F5F5F5F5F5F5F5F5F5F5F5F5F5F5F5F5F5F5F5F5F5F5F5F5F5F5F5F5F5F5F5F5F5F5
310
F5F5F5F5F5F5F5F5F5F5F5F5F5F5F5F5F5F5F5F5F5F5F5F5F5F5F5F5F5F5F5F5F5F5F5F5E2F5F5F5F5F5F5F5F5E2E2E2F5F5F5F5F5F5F5F5E2F5F5F5F5F5F5F5F5F5F5F5F5F5F5F5F5F5F5F5F5F5F5F5F5F5F5F5F5F5F5F5F5F5F5F5F5F5F5F5F5F5F5F5F5F5F5F5F5F5F5F5F5F5F5F5F5F5F5F5F5F5F5F5F5F5F5F5F5F5F5
310
F5F5F5F5F5F5F5F5F5F5F5F5F5F5F5F5F5F5F5F5F5F5F5F5F5F5F5F5F5F5F5F5F5F5F5F5F5F5F5F5F5F5F5F5F5F5F5F5F5F5F5F5F5F5F5F5F5F5F5F5F5F5F5F5F5F5F5F5F5F5F5F5F5F5F5F5F5F5F5F5F5F5F5F5F5F5F5F5F5E2F5F5F5F5F5F5F5F5E2E2E2F5F5F5F5F5F5F5F5E2F5F5F5F5F5F5F5F5F5F5F5F5F5F5F5F5F5
310
F5F5F5F5F5F5F5F5F5F5F5F5F5F5F5F5F5F5F5F5F5F5F5F5F5F5F5F5F5F5F5F5F5F5F5F5F5F5F5F5F5F5F5F5F5F5F5F5F5F5F5F5F5F5F5F5F5F5F5F5F5F5F5F5F5F5F5F5F5F5F5F5F5F5F5F5F5F5F5F5F5F5F5F5F5F5F5F5F5F5F5F5F5F5F5F5F5F5F5F5F5F5F5F5F5F5F5F5F5F5F5F5F5F5F5F5F5F5F5F5F5F5F5F5F5F5F5
310
F5F5F5F5F5F5F5F5F5F5F5F5F5F5F5E2F5F5F5F5F5F5F5F5E2E2E2F5E2F5F5F5F5F5F5E2E2E2E2E2E2E2E2E2E2E2E2E2E2E2E2E2E2E2E2E2E2E2E2E2E2E2E2E2E2E2E2E2E2E2E2E2E2E2E2E2E2E2E2E2E2E2E2E2E2E2E2E2E2E2E2E2E2E2E2E2E2E2E2E2E2E2E2E2E2E2E2E2E2E2E2E2E2E2E2E2E2E2E2E2E2E2E2E2E2E2E2
310
E2E2E2E2E2E2E2E2E2E2E2E2E2E2E2E2E2E2E2E2E2E2E2E2E2E2E2E2E2E2E2E2E2E2E2E2E2E2E2E2E2E2E2E2E2E2E2E2E2E2E2E2E2E2E2E2E2E2E2E2E2E2E2E2E2E2E2E2E2F5F5F5F5F5F5E2F5E2E2E2F5E2F5F5F5F5F5F5F5F5F5F5F5F5F5F5F5F5F5F5F5E2E2F5F5F5F5F5F5F5F5F5F5F5F5E2F5F5F5F5F5F5F5F5F5F5F5
310
F5E2E2F5F5F5F5F5F5F5F5F5F5F5E2F5F5F5F5F5F5F5F5F5F5F5F5E2E2F5F5F5F5F5F5F5F5F5F5F5F5E2F5F5F5F5F5F5F5F5F5F5F5F5E2E2F5F5F5F5F5F5F5F5F5F5F5F5E2F5F5F5F5F5F5F5F5F5F5F5E2E2F5F5F5F5F5F5F5F5F5F5F5F5E2F5F5F5F5F5F5F5F5F5F5F5F5E2E2F5F5F5F5F5F5F5F5F5F5F5F5F5F5F5F5F5F5
310
F5E2F5E2E2E2F5E2F5F5F5F5F5F5F5F5F5F5F5F5F5F5F5F5F5F5F5F5F5F5F5F5F5F5F5F5F5F5F5F5F5E2F5F5F5F5F5F5F5F5F5F5F5F5F5F5F5F5F5F5F5F5F5F5F5F5F5E2F5F5F5F5F5F5F5F5F5F5F5F5F5F5F5F5F5F5F5F5F5F5F5F5F5F5E2F5F5F5F5F5F5F5F5F5F5F5F5F5F5F5F5F5F5F5F5F5F5F5F5F5F5E2F5F5F5F5F5
310
F5F5F5F5F5F5F5F5F5F5F5F5F5F5F5F5F5F5F5F5E2F5F5F5F5F5F5F5F5F5F5F5F5F5F5F5F5F5F5F5F5F5F5F5F5F5F5F5F5F5F5F5F5F5E2F5E2E2E2F5E2F5F5F5F5F5F5F5F5F5F5F5F5F5F5F5F5F5F5F5F5F5F5F5F5F5F5F5F5F5F5F5F5F5E2F5F5F5F5F5F5F5F5F5F5F5F5F5F5F5F5F5F5F5F5F5F5F5F5F5E2F5F5F5F5F5F5
310
F5F5F5F5F5F5F5F5F5F5F5F5F5F5F5F5F5F5F5F5E2F5F5F5F5F5F5F5F5F5F5F5F5F5F5F5F5F5F5F5F5F5F5F5F5F5F5E2F5F5F5F5F5F5F5F5F5F5F5F5F5F5F5F5F5F5F5F5F5F5F5F5F5E2F5F5F5F5F5F5F5F5F5F5F5F5F5F5F5F5F5F5F5F5F5F5F5F5F5F5F5F5F5F5F5F5F5E2F5E2E2E2F5E2F5F5F5F5F5F5F5F5F5F5F5F5F5
310
F5F5F5F5F5F5F5F5F5F5F5F5F5F5F5F5F5F5F5F5F5F5F5F5F5F5F5F5F5F5F5F5F5F5F5F5F5F5F5F5F5F5F5F5F5F5F5F5F5F5F5F5F5F5F5F5F5F5F5F5F5F5F5F5F5F5F5F5F5F5F5F5F5F5F5F5F5F5F5F5F5F5F5F5F5F5F5F5F5F5F5F5F5F5F5F5F5F5F5F5F5F5F5F5F5F5F5F5F5F5F5F5F5F5F5F5F5F5F5F5F5F5F5F5F5F5F5
310
F5F5F5F5F5F5F5F5F5F5F5F5F5F5F5F5F5F5F5F5F5F5F5F5F5F5F5F5F5F5F5F5F5E2F5E2E2E2F5E2F5F5F5F5F5F5F5F5F5F5F5F5F5F5F5F5F5F5F5F5F5F5F5F5F5F5F5F5F5F5F5F5F5F5F5F5F5F5F5F5F5F5F5F5F5F5F5F5F5F5F5F5F5F5F5F5F5F5F5F5F5F5F5F5F5F5F5F5F5F5F5F5F5F5F5F5F5F5F5F5F5F5F5F5F5F5F5
310
F5F5F5F5F5F5F5F5F5F5F5F5F5F5F5F5F5F5F5F5F5F5F5F5F5F5F5F5F5F5F5F5F5F5F5F5F5F5F5F5F5F5F5F5F5F5F5F5F5F5F5F5F5F5F5F5F5F5F5F5F5F5F5F5F5F5F5F5F5F5F5F5F5F5F5F5F5F5F5F5F5F5F5F5F5F5E2F5E2E2E2F5E2F5F5F5F5F5F5F5F5F5F5F5F5F5F5F5F5F5F5F5F5F5F5F5F5F5F5F5F5F5F5F5F5F5F5
310
F5F5F5F5F5F5F5F5F5F5F5F5F5F5F5F5F5F5F5F5F5F5F5F5F5F5F5F5F5F5F5F5F5F5F5F5F5F5F5F5F5F5F5F5F5F5F5F5F5F5F5F5F5F5F5F5F5F5F5F5F5F5F5F5F5F5F5F5F5F5F5F5F5F5F5F5F5F5F5F5F5F5F5F5F5F5F5F5F5F5F5F5F5F5F5F5F5F5F5F5F5F5F5F5F5F5F5F5F5F5F5F5F5F5F5F5F5F5F5F5F5F5F5F5F5F5F5
310
F5F5F5F5F5F5F5F5F5F5F5F5E2F5E2E2E2F5E2E2E2E2E2E2E2E2F5F5F5F5F5F5F5F5F5E2E2E2E2E2E2E2E2E2E2E2E2E2E2E2E2F5F5F5F5F5F5F5F5F5E2E2E2E2E2E2E2E2E2E2E2E2E2E2E2E2F5F5F5F5F5F5F5F5F5E2E2E2E2E2E2E2E2E2E2E2E2E2E2E2E2F5F5F5F5F5F5F5F5F5E2E2E2E2E2E2E2E2E2E2E2E2E2E2E2E2F5
310
F5F5F5F5F5F5F5F5E2E2E2E2E2E2E2E2E2E2E2E2E2E2E2E2F5F5F5F5F5F5F5F5F5E2E2E2E2E2E2E2E2E2E2E2E2E2E2E2E2F5F5F5F5F5F5F5F5F5E2E2E2E2E2E2E2E2F5E2E2E2F5F5F5F5F5F5F5F5F5F5F5F5F5F5F5F5F5F5F5F5F5F5F5F5F5F5F5F5F5F5F5F5F5F5F5F5F5F5F5F5F5F5F5F5F5F5F5F5F5F5F5F5F5F5F5F5F5
310
F5F5F5F5F5F5F5F5F5F5F5F5F5F5F5F5F5F5F5F5F5F5F5F5F5F5F5F5F5F5F5F5F5F5F5F5F5F5F5F5F5F5F5F5F5F5F5F5F5F5F5F5F5F5F5F5F5F5F5F5F5F5F5F5F5F5F5F5F5F5F5F5F5F5F5F5F5F5F5F5F5F5F5F5F5F5F5F5F5F5F5F5F5F5F5F5F5F5F5F5F5F5F5F5F5F5F5F5F5F5F5F5F5F5F5F5F5F5F5F5E2EFE2E2E2E2E2
310
E2E2E2E2E2E2E2E2E2E2E2E2E2E2E2E2E2E2E2E2E2E2E2E2E2E2E2E2E2E2E2E2E2E2E2E2E2E2E2E2E2E2E2E2E2E2E2E2E2E2E2E2E2E2E2E2E2E2E2E2E2E2E2E2E2E2E2E2E2E2E2E2E2E2E2E2E2E2E2E2E2E2E2E2E2E2E2E2E2E2E2E2E2E2E2E2E2E2E2E2E2E2E2E2E2E2E2E2E2E2E2E2E2E2E2E2E2E2E2E2E2E2E2E2E2E2E2
310
E2E2E2E2E2E2E2E2E2E2E2E2E2E2E2E2E2E2E2E2E2E2E2E2E2E2E2E2E2E2E2E2E2E2E2E2E2E2E2E2E2E2E2E2E2E2E2EF
  0
ENDSEC
  0
EOF
