  0
SECTION
  2
HEADER
  9
$ACADVER
  1
AC1021
  9
$ACADMAINTVER
 70
     1
  9
$DWGCODEPAGE
  3
ANSI_932
  9
$LASTSAVEDBY
  1
kida10
  9
$INSBASE
 10
0.0
 20
0.0
 30
0.0
  9
$EXTMIN
 10
-3.81029339229622
 20
-2.812476620078092
 30
0.0
  9
$EXTMAX
 10
82.54181393379798
 20
21.87550529186857
 30
0.0
  9
$LIMMIN
 10
0.0
 20
0.0
  9
$LIMMAX
 10
12.0
 20
9.0
  9
$ORTHOMODE
 70
     0
  9
$REGENMODE
 70
     1
  9
$FILLMODE
 70
     1
  9
$QTEXTMODE
 70
     0
  9
$MIRRTEXT
 70
     0
  9
$LTSCALE
 40
1.0
  9
$ATTMODE
 70
     1
  9
$TEXTSIZE
 40
0.2
  9
$TRACEWID
 40
0.05
  9
$TEXTSTYLE
  7
Standard
  9
$CLAYER
  8
0
  9
$CELTYPE
  6
ByLayer
  9
$CECOLOR
 62
   256
  9
$CELTSCALE
 40
1.0
  9
$DISPSILH
 70
     0
  9
$DIMSCALE
 40
1.0
  9
$DIMASZ
 40
0.5
  9
$DIMEXO
 40
0.5
  9
$DIMDLI
 40
0.38
  9
$DIMRND
 40
0.0
  9
$DIMDLE
 40
0.0
  9
$DIMEXE
 40
0.5
  9
$DIMTP
 40
0.0
  9
$DIMTM
 40
0.0
  9
$DIMTXT
 40
0.8
  9
$DIMCEN
 40
0.5
  9
$DIMTSZ
 40
0.0
  9
$DIMTOL
 70
     0
  9
$DIMLIM
 70
     0
  9
$DIMTIH
 70
     0
  9
$DIMTOH
 70
     0
  9
$DIMSE1
 70
     0
  9
$DIMSE2
 70
     0
  9
$DIMTAD
 70
     1
  9
$DIMZIN
 70
     0
  9
$DIMBLK
  1
Open30
  9
$DIMASO
 70
     1
  9
$DIMSHO
 70
     1
  9
$DIMPOST
  1

  9
$DIMAPOST
  1

  9
$DIMALT
 70
     0
  9
$DIMALTD
 70
     2
  9
$DIMALTF
 40
25.4
  9
$DIMLFAC
 40
1.0
  9
$DIMTOFL
 70
     1
  9
$DIMTVP
 40
0.0
  9
$DIMTIX
 70
     0
  9
$DIMSOXD
 70
     0
  9
$DIMSAH
 70
     0
  9
$DIMBLK1
  1

  9
$DIMBLK2
  1

  9
$DIMSTYLE
  2
Standard
  9
$DIMCLRD
 70
     0
  9
$DIMCLRE
 70
     0
  9
$DIMCLRT
 70
     0
  9
$DIMTFAC
 40
1.0
  9
$DIMGAP
 40
0.3
  9
$DIMJUST
 70
     0
  9
$DIMSD1
 70
     0
  9
$DIMSD2
 70
     0
  9
$DIMTOLJ
 70
     1
  9
$DIMTZIN
 70
     0
  9
$DIMALTZ
 70
     0
  9
$DIMALTTZ
 70
     0
  9
$DIMUPT
 70
     0
  9
$DIMDEC
 70
     1
  9
$DIMTDEC
 70
     1
  9
$DIMALTU
 70
     2
  9
$DIMALTTD
 70
     2
  9
$DIMTXSTY
  7
Standard
  9
$DIMAUNIT
 70
     0
  9
$DIMADEC
 70
     0
  9
$DIMALTRND
 40
0.0
  9
$DIMAZIN
 70
     0
  9
$DIMDSEP
 70
    46
  9
$DIMATFIT
 70
     3
  9
$DIMFRAC
 70
     0
  9
$DIMLDRBLK
  1
Open30
  9
$DIMLUNIT
 70
     2
  9
$DIMLWD
 70
    -2
  9
$DIMLWE
 70
    -2
  9
$DIMTMOVE
 70
     0
  9
$DIMFXL
 40
1.0
  9
$DIMFXLON
 70
     0
  9
$DIMJOGANG
 40
0.7853981633974483
  9
$DIMTFILL
 70
     0
  9
$DIMTFILLCLR
 70
     0
  9
$DIMARCSYM
 70
     0
  9
$DIMLTYPE
  6

  9
$DIMLTEX1
  6

  9
$DIMLTEX2
  6

  9
$LUNITS
 70
     2
  9
$LUPREC
 70
     4
  9
$SKETCHINC
 40
0.1
  9
$FILLETRAD
 40
0.0
  9
$AUNITS
 70
     0
  9
$AUPREC
 70
     0
  9
$MENU
  1
.
  9
$ELEVATION
 40
0.0
  9
$PELEVATION
 40
0.0
  9
$THICKNESS
 40
0.0
  9
$LIMCHECK
 70
     0
  9
$CHAMFERA
 40
0.0
  9
$CHAMFERB
 40
0.0
  9
$CHAMFERC
 40
0.0
  9
$CHAMFERD
 40
0.0
  9
$SKPOLY
 70
     0
  9
$TDCREATE
 40
2455313.446981968
  9
$TDUCREATE
 40
2455313.071981967
  9
$TDUPDATE
 40
2455328.407862118
  9
$TDUUPDATE
 40
2455328.032862118
  9
$TDINDWG
 40
0.1807168403
  9
$TDUSRTIMER
 40
0.1807130324
  9
$USRTIMER
 70
     1
  9
$ANGBASE
 50
0.0
  9
$ANGDIR
 70
     0
  9
$PDMODE
 70
     0
  9
$PDSIZE
 40
0.0
  9
$PLINEWID
 40
0.0
  9
$SPLFRAME
 70
     0
  9
$SPLINETYPE
 70
     6
  9
$SPLINESEGS
 70
     8
  9
$HANDSEED
  5
208D
  9
$SURFTAB1
 70
     6
  9
$SURFTAB2
 70
     6
  9
$SURFTYPE
 70
     6
  9
$SURFU
 70
     6
  9
$SURFV
 70
     6
  9
$UCSBASE
  2

  9
$UCSNAME
  2

  9
$UCSORG
 10
0.0
 20
0.0
 30
0.0
  9
$UCSXDIR
 10
1.0
 20
0.0
 30
0.0
  9
$UCSYDIR
 10
0.0
 20
1.0
 30
0.0
  9
$UCSORTHOREF
  2

  9
$UCSORTHOVIEW
 70
     0
  9
$UCSORGTOP
 10
0.0
 20
0.0
 30
0.0
  9
$UCSORGBOTTOM
 10
0.0
 20
0.0
 30
0.0
  9
$UCSORGLEFT
 10
0.0
 20
0.0
 30
0.0
  9
$UCSORGRIGHT
 10
0.0
 20
0.0
 30
0.0
  9
$UCSORGFRONT
 10
0.0
 20
0.0
 30
0.0
  9
$UCSORGBACK
 10
0.0
 20
0.0
 30
0.0
  9
$PUCSBASE
  2

  9
$PUCSNAME
  2

  9
$PUCSORG
 10
0.0
 20
0.0
 30
0.0
  9
$PUCSXDIR
 10
1.0
 20
0.0
 30
0.0
  9
$PUCSYDIR
 10
0.0
 20
1.0
 30
0.0
  9
$PUCSORTHOREF
  2

  9
$PUCSORTHOVIEW
 70
     0
  9
$PUCSORGTOP
 10
0.0
 20
0.0
 30
0.0
  9
$PUCSORGBOTTOM
 10
0.0
 20
0.0
 30
0.0
  9
$PUCSORGLEFT
 10
0.0
 20
0.0
 30
0.0
  9
$PUCSORGRIGHT
 10
0.0
 20
0.0
 30
0.0
  9
$PUCSORGFRONT
 10
0.0
 20
0.0
 30
0.0
  9
$PUCSORGBACK
 10
0.0
 20
0.0
 30
0.0
  9
$USERI1
 70
     0
  9
$USERI2
 70
     0
  9
$USERI3
 70
     0
  9
$USERI4
 70
     0
  9
$USERI5
 70
     0
  9
$USERR1
 40
0.0
  9
$USERR2
 40
0.0
  9
$USERR3
 40
0.0
  9
$USERR4
 40
0.0
  9
$USERR5
 40
0.0
  9
$WORLDVIEW
 70
     1
  9
$SHADEDGE
 70
     3
  9
$SHADEDIF
 70
    70
  9
$TILEMODE
 70
     0
  9
$MAXACTVP
 70
    64
  9
$PINSBASE
 10
0.0
 20
0.0
 30
0.0
  9
$PLIMCHECK
 70
     0
  9
$PEXTMIN
 10
0.2679611643237827
 20
0.2683024197663073
 30
-0.0000000000112498
  9
$PEXTMAX
 10
11.16847214462166
 20
7.745210581882446
 30
0.0000000000002956
  9
$PLIMMIN
 10
-0.1249999981226884
 20
-0.1249999981226884
  9
$PLIMMAX
 10
11.56499980002876
 20
8.141666444267812
  9
$UNITMODE
 70
     0
  9
$VISRETAIN
 70
     1
  9
$PLINEGEN
 70
     0
  9
$PSLTSCALE
 70
     1
  9
$TREEDEPTH
 70
  3020
  9
$CMLSTYLE
  2
Standard
  9
$CMLJUST
 70
     0
  9
$CMLSCALE
 40
1.0
  9
$PROXYGRAPHICS
 70
     1
  9
$MEASUREMENT
 70
     1
  9
$CELWEIGHT
370
    -1
  9
$ENDCAPS
280
     0
  9
$JOINSTYLE
280
     0
  9
$LWDISPLAY
290
     0
  9
$INSUNITS
 70
     1
  9
$HYPERLINKBASE
  1

  9
$STYLESHEET
  1

  9
$XEDIT
290
     1
  9
$CEPSNTYPE
380
     0
  9
$PSTYLEMODE
290
     1
  9
$FINGERPRINTGUID
  2
{479F0969-6BA6-46F1-8619-975CAA442445}
  9
$VERSIONGUID
  2
{20CEE81D-7F5B-486F-A7C2-05004AEB9BD3}
  9
$EXTNAMES
290
     1
  9
$PSVPSCALE
 40
0.0
  9
$OLESTARTUP
290
     0
  9
$SORTENTS
280
   127
  9
$INDEXCTL
280
     0
  9
$HIDETEXT
280
     1
  9
$XCLIPFRAME
290
     0
  9
$HALOGAP
280
     0
  9
$OBSCOLOR
 70
   257
  9
$OBSLTYPE
280
     0
  9
$INTERSECTIONDISPLAY
280
     0
  9
$INTERSECTIONCOLOR
 70
   257
  9
$DIMASSOC
280
     2
  9
$PROJECTNAME
  1

  9
$CAMERADISPLAY
290
     0
  9
$LENSLENGTH
 40
50.0
  9
$CAMERAHEIGHT
 40
0.0
  9
$STEPSPERSEC
 40
2.0
  9
$STEPSIZE
 40
6.0
  9
$3DDWFPREC
 40
2.0
  9
$PSOLWIDTH
 40
0.25
  9
$PSOLHEIGHT
 40
4.0
  9
$LOFTANG1
 40
1.570796326794896
  9
$LOFTANG2
 40
1.570796326794896
  9
$LOFTMAG1
 40
0.0
  9
$LOFTMAG2
 40
0.0
  9
$LOFTPARAM
 70
     7
  9
$LOFTNORMALS
280
     1
  9
$LATITUDE
 40
37.795
  9
$LONGITUDE
 40
-122.394
  9
$NORTHDIRECTION
 40
0.0
  9
$TIMEZONE
 70
 -8000
  9
$LIGHTGLYPHDISPLAY
280
     1
  9
$TILEMODELIGHTSYNCH
280
     1
  9
$CMATERIAL
347
96
  9
$SOLIDHIST
280
     1
  9
$SHOWHIST
280
     1
  9
$DWFFRAME
280
     2
  9
$DGNFRAME
280
     0
  9
$REALWORLDSCALE
290
     1
  9
$INTERFERECOLOR
 62
     1
  9
$INTERFEREOBJVS
345
A3
  9
$INTERFEREVPVS
346
A0
  9
$CSHADOW
280
     0
  9
$SHADOWPLANELOCATION
 40
0.0
  0
ENDSEC
  0
SECTION
  2
CLASSES
  0
CLASS
  1
ACDBDICTIONARYWDFLT
  2
AcDbDictionaryWithDefault
  3
ObjectDBX Classes
 90
        0
 91
        1
280
     0
281
     0
  0
CLASS
  1
DICTIONARYVAR
  2
AcDbDictionaryVar
  3
ObjectDBX Classes
 90
        0
 91
        3
280
     0
281
     0
  0
CLASS
  1
TABLESTYLE
  2
AcDbTableStyle
  3
ObjectDBX Classes
 90
     4095
 91
        1
280
     0
281
     0
  0
CLASS
  1
MATERIAL
  2
AcDbMaterial
  3
ObjectDBX Classes
 90
     1024
 91
        3
280
     0
281
     0
  0
CLASS
  1
VISUALSTYLE
  2
AcDbVisualStyle
  3
ObjectDBX Classes
 90
     4095
 91
       16
280
     0
281
     0
  0
CLASS
  1
SORTENTSTABLE
  2
AcDbSortentsTable
  3
ObjectDBX Classes
 90
        0
 91
       10
280
     0
281
     0
  0
CLASS
  1
ACAD_EVALUATION_GRAPH
  2
AcDbEvalGraph
  3
ObjectDBX Classes
 90
     1153
 91
        0
280
     0
281
     0
  0
CLASS
  1
ACAECUSTOBJ
  2
AcAeEditorObj
  3
AcAeEditorObj
 90
     1024
 91
        0
280
     0
281
     0
  0
CLASS
  1
ACDB_DYNAMICBLOCKPURGEPREVENTER_VERSION
  2
AcDbDynamicBlockPurgePreventer
  3
ObjectDBX Classes
 90
     1153
 91
        0
280
     0
281
     0
  0
CLASS
  1
DIMASSOC
  2
AcDbDimAssoc
  3
"AcDbDimAssoc|Product Desc:     AcDim ARX App For Dimension|Company:          Autodesk, Inc.|WEB Address:      www.autodesk.com"
 90
        0
 91
        0
280
     0
281
     0
  0
CLASS
  1
PLOTSETTINGS
  2
AcDbPlotSettings
  3
ObjectDBX Classes
 90
        0
 91
        1
280
     0
281
     0
  0
ENDSEC
  0
SECTION
  2
TABLES
  0
TABLE
  2
VPORT
  5
8
330
0
100
AcDbSymbolTable
 70
     1
  0
VPORT
  5
94
330
8
100
AcDbSymbolTableRecord
100
AcDbViewportTableRecord
  2
*Active
 70
     0
 10
0.0
 20
0.0
 11
1.0
 21
1.0
 12
38.79331389616906
 22
5.971326917511163
 13
0.0
 23
0.0
 14
0.5
 24
0.5
 15
0.5
 25
0.5
 16
0.0
 26
0.0
 36
1.0
 17
0.0
 27
0.0
 37
0.0
 40
116.2158167862116
 41
1.19546027742749
 42
50.0
 43
0.0
 44
0.0
 50
0.0
 51
0.0
 71
     0
 72
  1000
 73
     1
 74
     3
 75
     0
 76
     0
 77
     0
 78
     0
281
     0
 65
     1
110
0.0
120
0.0
130
0.0
111
1.0
121
0.0
131
0.0
112
0.0
122
1.0
132
0.0
 79
     0
146
0.0
348
9F
 60
     2
 61
     5
292
     1
282
     1
141
0.0
142
0.0
 63
   250
421
  3355443
  0
ENDTAB
  0
TABLE
  2
LTYPE
  5
5
330
0
100
AcDbSymbolTable
 70
     3
  0
LTYPE
  5
14
330
5
100
AcDbSymbolTableRecord
100
AcDbLinetypeTableRecord
  2
ByBlock
 70
     0
  3

 72
    65
 73
     0
 40
0.0
  0
LTYPE
  5
15
330
5
100
AcDbSymbolTableRecord
100
AcDbLinetypeTableRecord
  2
ByLayer
 70
     0
  3

 72
    65
 73
     0
 40
0.0
  0
LTYPE
  5
16
330
5
100
AcDbSymbolTableRecord
100
AcDbLinetypeTableRecord
  2
Continuous
 70
     0
  3
Solid line
 72
    65
 73
     0
 40
0.0
  0
LTYPE
  5
2035
330
5
100
AcDbSymbolTableRecord
100
AcDbLinetypeTableRecord
  2
CENTER
 70
     0
  3
Center ____ _ ____ _ ____ _ ____ _ ____ _ ____
 72
    65
 73
     4
 40
50.8
 49
31.75
 74
     0
 49
-6.349999999999999
 74
     0
 49
6.349999999999999
 74
     0
 49
-6.349999999999999
 74
     0
  0
ENDTAB
  0
TABLE
  2
LAYER
  5
2
102
{ACAD_XDICTIONARY
360
D2
102
}
330
0
100
AcDbSymbolTable
 70
     6
  0
LAYER
  5
10
330
2
100
AcDbSymbolTableRecord
100
AcDbLayerTableRecord
  2
0
 70
     0
 62
     7
  6
Continuous
370
    -3
390
F
347
98
  0
LAYER
  5
61A
330
2
100
AcDbSymbolTableRecord
100
AcDbLayerTableRecord
  2
Defpoints
 70
     0
 62
     7
  6
Continuous
290
     0
370
    -3
390
F
347
98
  0
LAYER
  5
2036
330
2
100
AcDbSymbolTableRecord
100
AcDbLayerTableRecord
  2
center
 70
     0
 62
     1
  6
CENTER
370
    13
390
F
347
98
  0
LAYER
  5
204D
330
2
100
AcDbSymbolTableRecord
100
AcDbLayerTableRecord
  2
dimention
 70
     0
 62
     5
  6
Continuous
370
    13
390
F
347
98
  0
LAYER
  5
204E
330
2
100
AcDbSymbolTableRecord
100
AcDbLayerTableRecord
  2
visible2
 70
     0
 62
     7
  6
Continuous
370
    13
390
F
347
98
  0
LAYER
  5
204F
330
2
100
AcDbSymbolTableRecord
100
AcDbLayerTableRecord
  2
visible1
 70
     0
 62
     7
  6
Continuous
370
    20
390
F
347
98
  0
ENDTAB
  0
TABLE
  2
STYLE
  5
3
330
0
100
AcDbSymbolTable
 70
     3
  0
STYLE
  5
11
330
3
100
AcDbSymbolTableRecord
100
AcDbTextStyleTableRecord
  2
Standard
 70
     0
 40
0.8
 41
1.0
 50
0.0
 71
     0
 42
0.2
  3
txt.shx
  4
extfont2.shx
  0
ENDTAB
  0
TABLE
  2
VIEW
  5
6
330
0
100
AcDbSymbolTable
 70
     0
  0
ENDTAB
  0
TABLE
  2
UCS
  5
7
330
0
100
AcDbSymbolTable
 70
     0
  0
ENDTAB
  0
TABLE
  2
APPID
  5
9
330
0
100
AcDbSymbolTable
 70
     7
  0
APPID
  5
12
330
9
100
AcDbSymbolTableRecord
100
AcDbRegAppTableRecord
  2
ACAD
 70
     0
  0
APPID
  5
C9
330
9
100
AcDbSymbolTableRecord
100
AcDbRegAppTableRecord
  2
ACAD_PSEXT
 70
     0
  0
APPID
  5
4D2
330
9
100
AcDbSymbolTableRecord
100
AcDbRegAppTableRecord
  2
ACAUTHENVIRON
 70
     0
  0
APPID
  5
52A
330
9
100
AcDbSymbolTableRecord
100
AcDbRegAppTableRecord
  2
AcDbDynamicBlockTrueName
 70
     0
  0
APPID
  5
52B
330
9
100
AcDbSymbolTableRecord
100
AcDbRegAppTableRecord
  2
AcDbDynamicBlockGUID
 70
     0
  0
APPID
  5
52D
330
9
100
AcDbSymbolTableRecord
100
AcDbRegAppTableRecord
  2
AcDbBlockRepETag
 70
     0
  0
APPID
  5
A2C
330
9
100
AcDbSymbolTableRecord
100
AcDbRegAppTableRecord
  2
ACAD_EXEMPT_FROM_CAD_STANDARDS
 70
     0
  0
ENDTAB
  0
TABLE
  2
DIMSTYLE
  5
A
330
0
100
AcDbSymbolTable
 70
     5
100
AcDbDimStyleTable
 71
     2
340
27
340
9E6
  0
DIMSTYLE
105
27
102
{ACAD_REACTORS
330
D1A
330
D44
330
D5C
330
D74
102
}
330
A
100
AcDbSymbolTableRecord
100
AcDbDimStyleTableRecord
  2
Standard
 70
     0
 41
0.5
 42
0.5
 44
0.5
 73
     0
 74
     0
 77
     1
140
0.8
141
0.5
147
0.3
172
     1
271
     1
272
     1
340
11
341
CC
342
CC
  0
DIMSTYLE
105
9E6
330
A
100
AcDbSymbolTableRecord
100
AcDbDimStyleTableRecord
  2
ISO-25
 70
     0
 41
1.8
 42
0.625
 43
3.75
 44
1.25
 73
     0
 74
     0
 77
     1
 78
     8
140
2.2
141
2.5
143
0.03937007874016
147
0.625
171
     3
172
     1
271
     2
272
     2
274
     3
278
    44
283
     0
284
     8
340
11
341
CC
342
CC
  0
ENDTAB
  0
TABLE
  2
BLOCK_RECORD
  5
1
330
0
100
AcDbSymbolTable
 70
    50
  0
BLOCK_RECORD
  5
1F
102
{ACAD_XDICTIONARY
360
2044
102
}
330
1
100
AcDbSymbolTableRecord
100
AcDbBlockTableRecord
  2
*Model_Space
340
22
 70
     0
280
     1
281
     0
  0
BLOCK_RECORD
  5
58
330
1
100
AcDbSymbolTableRecord
100
AcDbBlockTableRecord
  2
*Paper_Space
340
59
 70
     0
280
     1
281
     0
  0
BLOCK_RECORD
  5
CC
330
1
100
AcDbSymbolTableRecord
100
AcDbBlockTableRecord
  2
_Open30
340
0
102
{BLKREFS
331
8E5
331
8E6
331
8F3
331
8F4
331
8FF
331
900
331
90B
331
90C
331
99B
331
99C
331
9A6
331
9A7
331
B98
331
B99
331
BA1
331
BA2
331
C3A
331
C3B
331
C12
331
C13
331
C20
331
C21
331
C2C
331
C2D
331
CB6
331
CB7
331
CC1
331
CC2
331
CCA
331
CCB
331
CD6
331
CD7
331
ECB
331
ECC
331
ED7
331
ED8
331
F9F
331
FA0
331
FA8
331
FA9
331
11A7
331
11A8
331
117F
331
1180
331
118D
331
118E
331
1199
331
119A
331
1219
331
121A
331
1224
331
1225
331
122E
331
122F
331
123C
331
123D
331
186B
331
186C
331
18BA
331
18BB
331
2058
331
2059
331
2061
331
2062
331
206A
331
206B
331
2073
331
2074
102
}
 70
     0
280
     1
281
     0
  0
BLOCK_RECORD
  5
223
102
{ACAD_XDICTIONARY
360
272
102
}
330
1
100
AcDbSymbolTableRecord
100
AcDbBlockTableRecord
  2
A$C4D404F4F
340
0
 70
     1
280
     1
281
     0
  0
BLOCK_RECORD
  5
276
102
{ACAD_XDICTIONARY
360
2C5
102
}
330
1
100
AcDbSymbolTableRecord
100
AcDbBlockTableRecord
  2
A$C2CA859AB
340
0
 70
     1
280
     1
281
     0
  0
BLOCK_RECORD
  5
31E
330
1
100
AcDbSymbolTableRecord
100
AcDbBlockTableRecord
  2
A$C539F4AFD
340
0
 70
     1
280
     1
281
     0
  0
BLOCK_RECORD
  5
42F
102
{ACAD_XDICTIONARY
360
527
102
}
330
1
100
AcDbSymbolTableRecord
100
AcDbBlockTableRecord
  2
A$C1BB53514
340
0
 70
     1
280
     1
281
     0
1001
AcDbDynamicBlockGUID
1000
{90423CEA-54F4-42B6-B145-098392DF75EF}
1001
AcDbBlockRepETag
1070
     1
1071
       70
  0
BLOCK_RECORD
  5
534
102
{ACAD_XDICTIONARY
360
5CF
102
}
330
1
100
AcDbSymbolTableRecord
100
AcDbBlockTableRecord
  2
A$C783F31C3
340
0
 70
     1
280
     1
281
     0
1001
AcDbDynamicBlockGUID
1000
{A8D883BD-1CC2-42D7-B30B-58AC648400C6}
1001
AcDbBlockRepETag
1070
     1
1071
       66
  0
BLOCK_RECORD
  5
7A7
102
{ACAD_XDICTIONARY
360
7F6
102
}
330
1
100
AcDbSymbolTableRecord
100
AcDbBlockTableRecord
  2
A$C66450189
340
0
 70
     1
280
     1
281
     0
  0
BLOCK_RECORD
  5
7FA
102
{ACAD_XDICTIONARY
360
8C1
102
}
330
1
100
AcDbSymbolTableRecord
100
AcDbBlockTableRecord
  2
A$C77245723
340
0
102
{BLKREFS
331
84D
102
}
 70
     1
280
     1
281
     0
1001
AcDbDynamicBlockGUID
1000
{F29643EE-5C68-4348-84B6-BF90D78144BC}
1001
AcDbBlockRepETag
1070
     1
1071
       66
  0
BLOCK_RECORD
  5
8E0
330
1
100
AcDbSymbolTableRecord
100
AcDbBlockTableRecord
  2
*D8
340
0
 70
     0
280
     1
281
     0
  0
BLOCK_RECORD
  5
8EC
330
1
100
AcDbSymbolTableRecord
100
AcDbBlockTableRecord
  2
*D9
340
0
 70
     0
280
     1
281
     0
  0
BLOCK_RECORD
  5
8FA
330
1
100
AcDbSymbolTableRecord
100
AcDbBlockTableRecord
  2
*D10
340
0
 70
     0
280
     1
281
     0
  0
BLOCK_RECORD
  5
906
330
1
100
AcDbSymbolTableRecord
100
AcDbBlockTableRecord
  2
*D11
340
0
 70
     0
280
     1
281
     0
  0
BLOCK_RECORD
  5
966
330
1
100
AcDbSymbolTableRecord
100
AcDbBlockTableRecord
  2
*D12
340
0
 70
     0
280
     1
281
     0
  0
BLOCK_RECORD
  5
972
330
1
100
AcDbSymbolTableRecord
100
AcDbBlockTableRecord
  2
*D13
340
0
 70
     0
280
     1
281
     0
  0
BLOCK_RECORD
  5
980
330
1
100
AcDbSymbolTableRecord
100
AcDbBlockTableRecord
  2
*D14
340
0
 70
     0
280
     1
281
     0
  0
BLOCK_RECORD
  5
98C
330
1
100
AcDbSymbolTableRecord
100
AcDbBlockTableRecord
  2
*D15
340
0
 70
     0
280
     1
281
     0
  0
BLOCK_RECORD
  5
9E7
102
{ACAD_XDICTIONARY
360
A0B
102
}
330
1
100
AcDbSymbolTableRecord
100
AcDbBlockTableRecord
  2
A$C377A480F
340
0
 70
     4
280
     1
281
     0
  0
BLOCK_RECORD
  5
BB4
102
{ACAD_XDICTIONARY
360
BDC
102
}
330
1
100
AcDbSymbolTableRecord
100
AcDbBlockTableRecord
  2
A$C61973EBA
340
0
 70
     4
280
     1
281
     0
  0
BLOCK_RECORD
  5
BE0
102
{ACAD_XDICTIONARY
360
C08
102
}
330
1
100
AcDbSymbolTableRecord
100
AcDbBlockTableRecord
  2
A$C283B13A9
340
0
 70
     4
280
     1
281
     0
  0
BLOCK_RECORD
  5
C0C
330
1
100
AcDbSymbolTableRecord
100
AcDbBlockTableRecord
  2
*D19
340
0
 70
     0
280
     1
281
     0
  0
BLOCK_RECORD
  5
C19
330
1
100
AcDbSymbolTableRecord
100
AcDbBlockTableRecord
  2
*D20
340
0
 70
     0
280
     1
281
     0
  0
BLOCK_RECORD
  5
C27
330
1
100
AcDbSymbolTableRecord
100
AcDbBlockTableRecord
  2
*D21
340
0
 70
     0
280
     1
281
     0
  0
BLOCK_RECORD
  5
C33
330
1
100
AcDbSymbolTableRecord
100
AcDbBlockTableRecord
  2
*D22
340
0
 70
     0
280
     1
281
     0
  0
BLOCK_RECORD
  5
C8B
330
1
100
AcDbSymbolTableRecord
100
AcDbBlockTableRecord
  2
*D23
340
0
 70
     0
280
     1
281
     0
  0
BLOCK_RECORD
  5
C98
330
1
100
AcDbSymbolTableRecord
100
AcDbBlockTableRecord
  2
*D24
340
0
 70
     0
280
     1
281
     0
  0
BLOCK_RECORD
  5
CA6
330
1
100
AcDbSymbolTableRecord
100
AcDbBlockTableRecord
  2
*D25
340
0
 70
     0
280
     1
281
     0
  0
BLOCK_RECORD
  5
CD0
330
1
100
AcDbSymbolTableRecord
100
AcDbBlockTableRecord
  2
*D26
340
0
 70
     0
280
     1
281
     0
  0
BLOCK_RECORD
  5
D1B
330
1
100
AcDbSymbolTableRecord
100
AcDbBlockTableRecord
  2
*D27
340
0
 70
     0
280
     1
281
     0
  0
BLOCK_RECORD
  5
D45
330
1
100
AcDbSymbolTableRecord
100
AcDbBlockTableRecord
  2
*D28
340
0
 70
     0
280
     1
281
     0
  0
BLOCK_RECORD
  5
D5D
330
1
100
AcDbSymbolTableRecord
100
AcDbBlockTableRecord
  2
*D29
340
0
 70
     0
280
     1
281
     0
  0
BLOCK_RECORD
  5
D75
330
1
100
AcDbSymbolTableRecord
100
AcDbBlockTableRecord
  2
*D30
340
0
 70
     0
280
     1
281
     0
  0
BLOCK_RECORD
  5
EC6
330
1
100
AcDbSymbolTableRecord
100
AcDbBlockTableRecord
  2
*D31
340
0
 70
     0
280
     1
281
     0
  0
BLOCK_RECORD
  5
ED2
330
1
100
AcDbSymbolTableRecord
100
AcDbBlockTableRecord
  2
*D32
340
0
 70
     0
280
     1
281
     0
  0
BLOCK_RECORD
  5
F28
330
1
100
AcDbSymbolTableRecord
100
AcDbBlockTableRecord
  2
*D33
340
0
 70
     0
280
     1
281
     0
  0
BLOCK_RECORD
  5
F3D
330
1
100
AcDbSymbolTableRecord
100
AcDbBlockTableRecord
  2
*D34
340
0
 70
     0
280
     1
281
     0
  0
BLOCK_RECORD
  5
117A
330
1
100
AcDbSymbolTableRecord
100
AcDbBlockTableRecord
  2
*D35
340
0
 70
     0
280
     1
281
     0
  0
BLOCK_RECORD
  5
1186
330
1
100
AcDbSymbolTableRecord
100
AcDbBlockTableRecord
  2
*D36
340
0
 70
     0
280
     1
281
     0
  0
BLOCK_RECORD
  5
1194
330
1
100
AcDbSymbolTableRecord
100
AcDbBlockTableRecord
  2
*D37
340
0
 70
     0
280
     1
281
     0
  0
BLOCK_RECORD
  5
11A0
330
1
100
AcDbSymbolTableRecord
100
AcDbBlockTableRecord
  2
*D38
340
0
 70
     0
280
     1
281
     0
  0
BLOCK_RECORD
  5
11FC
330
1
100
AcDbSymbolTableRecord
100
AcDbBlockTableRecord
  2
*D39
340
0
 70
     0
280
     1
281
     0
  0
BLOCK_RECORD
  5
1208
330
1
100
AcDbSymbolTableRecord
100
AcDbBlockTableRecord
  2
*D40
340
0
 70
     0
280
     1
281
     0
  0
BLOCK_RECORD
  5
122A
330
1
100
AcDbSymbolTableRecord
100
AcDbBlockTableRecord
  2
*D41
340
0
 70
     0
280
     1
281
     0
  0
BLOCK_RECORD
  5
1236
330
1
100
AcDbSymbolTableRecord
100
AcDbBlockTableRecord
  2
*D42
340
0
 70
     0
280
     1
281
     0
  0
BLOCK_RECORD
  5
156D
102
{ACAD_XDICTIONARY
360
1595
102
}
330
1
100
AcDbSymbolTableRecord
100
AcDbBlockTableRecord
  2
A$C05606886
340
0
 70
     4
280
     1
281
     0
  0
BLOCK_RECORD
  5
1866
330
1
100
AcDbSymbolTableRecord
100
AcDbBlockTableRecord
  2
*D44
340
0
 70
     0
280
     1
281
     0
  0
BLOCK_RECORD
  5
18B6
330
1
100
AcDbSymbolTableRecord
100
AcDbBlockTableRecord
  2
*D45
340
0
 70
     0
280
     1
281
     0
  0
ENDTAB
  0
ENDSEC
  0
SECTION
  2
BLOCKS
  0
BLOCK
  5
20
330
1F
100
AcDbEntity
  8
0
100
AcDbBlockBegin
  2
*Model_Space
 70
     0
 10
0.0
 20
0.0
 30
0.0
  3
*Model_Space
  1

  0
ENDBLK
  5
21
330
1F
100
AcDbEntity
  8
0
100
AcDbBlockEnd
  0
BLOCK
  5
5A
330
58
100
AcDbEntity
 67
     1
  8
0
100
AcDbBlockBegin
  2
*Paper_Space
 70
     0
 10
0.0
 20
0.0
 30
0.0
  3
*Paper_Space
  1

  0
ENDBLK
  5
5B
330
58
100
AcDbEntity
 67
     1
  8
0
100
AcDbBlockEnd
  0
BLOCK
  5
CD
330
CC
100
AcDbEntity
  8
0
100
AcDbBlockBegin
  2
_Open30
 70
     0
 10
0.0
 20
0.0
 30
0.0
  3
_Open30
  1

  0
LINE
  5
CE
330
CC
100
AcDbEntity
  8
0
  6
ByBlock
 62
     0
370
    -2
100
AcDbLine
 10
-1.0
 20
0.26794919
 30
0.0
 11
0.0
 21
0.0
 31
0.0
  0
LINE
  5
CF
330
CC
100
AcDbEntity
  8
0
  6
ByBlock
 62
     0
370
    -2
100
AcDbLine
 10
0.0
 20
0.0
 30
0.0
 11
-1.0
 21
-0.26794919
 31
0.0
  0
LINE
  5
D0
330
CC
100
AcDbEntity
  8
0
  6
ByBlock
 62
     0
370
    -2
100
AcDbLine
 10
0.0
 20
0.0
 30
0.0
 11
-1.0
 21
0.0
 31
0.0
  0
ENDBLK
  5
D1
330
CC
100
AcDbEntity
  8
0
100
AcDbBlockEnd
  0
BLOCK
  5
274
330
223
100
AcDbEntity
  8
0
100
AcDbBlockBegin
  2
A$C4D404F4F
 70
     0
 10
0.0
 20
0.0
 30
0.0
  3
A$C4D404F4F
  1

  0
LINE
  5
224
330
223
100
AcDbEntity
  8
0
100
AcDbLine
 10
15.0
 20
15.0
 30
0.0
 11
15.00000000000001
 21
195.0
 31
0.0
  0
LINE
  5
225
330
223
100
AcDbEntity
  8
0
100
AcDbLine
 10
0.0000000000000001
 20
0.0000000000000018
 30
0.0
 11
0.0000000000000008
 21
15.0
 31
0.0
  0
LINE
  5
226
330
223
100
AcDbEntity
  8
0
100
AcDbLine
 10
0.0000000000000091
 20
195.0
 30
0.0
 11
0.0000000000000098
 21
210.0
 31
0.0
  0
LINE
  5
227
330
223
100
AcDbEntity
  8
0
100
AcDbLine
 10
15.00000000000001
 20
195.0
 30
0.0
 11
282.0
 21
195.0
 31
0.0
  0
LINE
  5
228
330
223
100
AcDbEntity
  8
0
100
AcDbLine
 10
0.0000000000000098
 20
210.0
 30
0.0
 11
15.00000000000001
 21
210.0
 31
0.0
  0
LINE
  5
229
330
223
100
AcDbEntity
  8
0
100
AcDbLine
 10
282.0
 20
210.0
 30
0.0
 11
297.0
 21
210.0
 31
0.0
  0
LINE
  5
22A
330
223
100
AcDbEntity
  8
0
100
AcDbLine
 10
282.0
 20
195.0
 30
0.0
 11
281.9999999999999
 21
15.0
 31
0.0
  0
LINE
  5
22B
330
223
100
AcDbEntity
  8
0
100
AcDbLine
 10
297.0
 20
210.0
 30
0.0
 11
297.0
 21
195.0
 31
0.0
  0
LINE
  5
22C
330
223
100
AcDbEntity
  8
0
100
AcDbLine
 10
296.9999999999999
 20
15.0
 30
0.0
 11
296.9999999999999
 21
0.0
 31
0.0
  0
LINE
  5
22D
330
223
100
AcDbEntity
  8
0
100
AcDbLine
 10
281.9999999999999
 20
15.0
 30
0.0
 11
15.0
 21
15.0
 31
0.0
  0
LINE
  5
22E
330
223
100
AcDbEntity
  8
0
100
AcDbLine
 10
296.9999999999999
 20
0.0
 30
0.0
 11
281.9999999999999
 21
0.0000000000000001
 31
0.0
  0
LINE
  5
22F
330
223
100
AcDbEntity
  8
0
100
AcDbLine
 10
15.0
 20
0.0000000000000017
 30
0.0
 11
0.0
 21
0.0000000000000018
 31
0.0
  0
LINE
  5
230
330
223
100
AcDbEntity
  8
0
100
AcDbLine
 10
281.9999999999999
 20
30.00000000000001
 30
0.0
 11
212.096194219452
 21
30.00000000000002
 31
0.0
  0
LINE
  5
231
330
223
100
AcDbEntity
  8
0
100
AcDbLine
 10
181.9999999999999
 20
50.0
 30
0.0
 11
181.9999999999999
 21
15.0
 31
0.0
  0
LINE
  5
232
330
223
100
AcDbEntity
  8
0
100
AcDbLine
 10
181.9999999999999
 20
40.0
 30
0.0
 11
281.9999999999999
 21
40.0
 31
0.0
  0
LINE
  5
233
330
223
100
AcDbEntity
  8
0
100
AcDbLine
 10
181.9999999999999
 20
35.00000000000002
 30
0.0
 11
212.096194219452
 21
35.0
 31
0.0
  0
LINE
  5
234
330
223
100
AcDbEntity
  8
0
100
AcDbLine
 10
181.9999999999999
 20
30.00000000000002
 30
0.0
 11
212.096194219452
 21
30.0
 31
0.0
  0
LINE
  5
235
330
223
100
AcDbEntity
  8
0
100
AcDbLine
 10
181.9999999999999
 20
25.00000000000002
 30
0.0
 11
212.096194219452
 21
25.00000000000001
 31
0.0
  0
LINE
  5
236
330
223
100
AcDbEntity
  8
0
100
AcDbLine
 10
181.9999999999999
 20
20.00000000000001
 30
0.0
 11
212.096194219452
 21
20.00000000000001
 31
0.0
  0
LINE
  5
237
330
223
100
AcDbEntity
  8
0
100
AcDbLine
 10
181.9999999999999
 20
50.0
 30
0.0
 11
281.9999999999999
 21
50.0
 31
0.0
  0
LINE
  5
238
330
223
100
AcDbEntity
  8
0
100
AcDbLine
 10
212.096194219452
 20
50.0
 30
0.0
 11
212.096194219452
 21
15.00000000000001
 31
0.0
  0
MTEXT
  5
239
330
223
100
AcDbEntity
  8
0
100
AcDbMText
 10
247.048097109726
 20
23.00000000000001
 30
0.0
 40
20.0
 41
69.90380578054788
 46
14.0
 71
     5
 72
     5
  1
{\fArial Black|b0|i0|c0|p34;\H0.25x;KDA\H0.6x; Corporation}
 73
     1
 44
1.0
  0
MTEXT
  5
23A
330
223
100
AcDbEntity
  8
0
100
AcDbMText
 10
217.0961942194521
 20
44.99999999999999
 30
0.0
 40
3.5
 41
64.90380578054793
 46
10.00000000000002
 71
     4
 72
     5
  1
{\fMS Gothic|b0|i0|c128|p49; \H0.7143x;ARM05-10 アルミナ六角ボルトM5x10L}
 73
     1
 44
1.0
  0
MTEXT
  5
23B
330
223
100
AcDbEntity
  8
0
100
AcDbMText
 10
217.0961942194521
 20
35.0
 30
0.0
 40
3.5
 41
64.90380578054793
 46
10.00000000000001
 71
     4
 72
     5
  1
{\fMS Gothic|b0|i0|c128|p49; \H0.7143x;ZRM05-10 ジルコニア六角ボルトM5x10L}
 73
     1
 44
1.0
  0
MTEXT
  5
23C
330
223
100
AcDbEntity
  8
0
100
AcDbMText
 10
197.0480971097259
 20
32.50000000000002
 30
0.0
 40
2.0
 41
30.09619421945209
 46
5.000000000000011
 71
     5
 72
     5
  1
{\fMS PGothic|b0|i0|c128|p50;W.O 20100422}
 73
     1
 44
1.0
  0
LINE
  5
23D
330
223
100
AcDbEntity
  8
0
100
AcDbLine
 10
148.4999999999999
 20
15.0
 30
0.0
 11
148.4999999999999
 21
10.0
 31
0.0
  0
LINE
  5
23E
330
223
100
AcDbEntity
  8
0
100
AcDbLine
 10
192.9999999999999
 20
15.0
 30
0.0
 11
192.9999999999999
 21
10.0
 31
0.0
  0
LINE
  5
23F
330
223
100
AcDbEntity
  8
0
100
AcDbLine
 10
237.5
 20
15.0
 30
0.0
 11
237.5
 21
10.0
 31
0.0
  0
LINE
  5
240
330
223
100
AcDbEntity
  8
0
100
AcDbLine
 10
104.0
 20
15.0
 30
0.0
 11
104.0
 21
10.0
 31
0.0
  0
LINE
  5
241
330
223
100
AcDbEntity
  8
0
100
AcDbLine
 10
59.49999999999997
 20
15.0
 30
0.0
 11
59.49999999999997
 21
10.0
 31
0.0
  0
LINE
  5
242
330
223
100
AcDbEntity
  8
0
100
AcDbLine
 10
15.0
 20
105.0
 30
0.0
 11
10.0
 21
105.0
 31
0.0
  0
LINE
  5
243
330
223
100
AcDbEntity
  8
0
100
AcDbLine
 10
15.0
 20
150.0
 30
0.0
 11
10.0
 21
150.0
 31
0.0
  0
LINE
  5
244
330
223
100
AcDbEntity
  8
0
100
AcDbLine
 10
15.0
 20
60.0
 30
0.0
 11
10.0
 21
60.0
 31
0.0
  0
LINE
  5
245
330
223
100
AcDbEntity
  8
0
100
AcDbLine
 10
148.4999999999999
 20
195.0
 30
0.0
 11
148.4999999999999
 21
200.0
 31
0.0
  0
LINE
  5
246
330
223
100
AcDbEntity
  8
0
100
AcDbLine
 10
192.9999999999999
 20
195.0
 30
0.0
 11
192.9999999999999
 21
200.0
 31
0.0
  0
LINE
  5
247
330
223
100
AcDbEntity
  8
0
100
AcDbLine
 10
237.5
 20
195.0
 30
0.0
 11
237.5
 21
200.0
 31
0.0
  0
LINE
  5
248
330
223
100
AcDbEntity
  8
0
100
AcDbLine
 10
104.0
 20
195.0
 30
0.0
 11
104.0
 21
200.0
 31
0.0
  0
LINE
  5
249
330
223
100
AcDbEntity
  8
0
100
AcDbLine
 10
59.49999999999997
 20
195.0
 30
0.0
 11
59.49999999999997
 21
200.0
 31
0.0
  0
LINE
  5
24A
330
223
100
AcDbEntity
  8
0
100
AcDbLine
 10
281.9999999999999
 20
105.0
 30
0.0
 11
287.0
 21
105.0
 31
0.0
  0
LINE
  5
24B
330
223
100
AcDbEntity
  8
0
100
AcDbLine
 10
281.9999999999999
 20
150.0
 30
0.0
 11
287.0
 21
150.0
 31
0.0
  0
LINE
  5
24C
330
223
100
AcDbEntity
  8
0
100
AcDbLine
 10
281.9999999999999
 20
60.0
 30
0.0
 11
287.0
 21
60.0
 31
0.0
  0
MTEXT
  5
24D
330
223
100
AcDbEntity
  8
0
100
AcDbMText
 10
37.25
 20
197.5
 30
0.0
 40
2.0
 41
44.49999999999996
 46
5.0
 71
     5
 72
     5
  1
{\fMS PGothic|b0|i0|c128|p50;1}
 73
     1
 44
1.0
  0
MTEXT
  5
24E
330
223
100
AcDbEntity
  8
0
100
AcDbMText
 10
81.74999999999995
 20
197.5
 30
0.0
 40
2.0
 41
44.49999999999996
 46
5.0
 71
     5
 72
     5
  1
{\fMS PGothic|b0|i0|c128|p50;2}
 73
     1
 44
1.0
  0
MTEXT
  5
24F
330
223
100
AcDbEntity
  8
0
100
AcDbMText
 10
126.2499999999999
 20
197.5
 30
0.0
 40
2.0
 41
44.49999999999996
 46
5.0
 71
     5
 72
     5
  1
{\fMS PGothic|b0|i0|c128|p50;3}
 73
     1
 44
1.0
  0
MTEXT
  5
250
330
223
100
AcDbEntity
  8
0
100
AcDbMText
 10
170.7499999999999
 20
197.5
 30
0.0
 40
2.0
 41
44.49999999999996
 46
5.0
 71
     5
 72
     5
  1
{\fMS PGothic|b0|i0|c128|p50;4}
 73
     1
 44
1.0
  0
MTEXT
  5
251
330
223
100
AcDbEntity
  8
0
100
AcDbMText
 10
215.2499999999999
 20
197.5
 30
0.0
 40
2.0
 41
44.49999999999996
 46
5.0
 71
     5
 72
     5
  1
{\fMS PGothic|b0|i0|c128|p50;5}
 73
     1
 44
1.0
  0
MTEXT
  5
252
330
223
100
AcDbEntity
  8
0
100
AcDbMText
 10
259.75
 20
197.5
 30
0.0
 40
2.0
 41
44.49999999999996
 46
5.0
 71
     5
 72
     5
  1
{\fMS PGothic|b0|i0|c128|p50;6}
 73
     1
 44
1.0
  0
MTEXT
  5
253
330
223
100
AcDbEntity
  8
0
100
AcDbMText
 10
37.25
 20
12.5
 30
0.0
 40
2.0
 41
44.49999999999996
 46
5.0
 71
     5
 72
     5
  1
{\fMS PGothic|b0|i0|c128|p50;1}
 73
     1
 44
1.0
  0
MTEXT
  5
254
330
223
100
AcDbEntity
  8
0
100
AcDbMText
 10
81.74999999999995
 20
12.5
 30
0.0
 40
2.0
 41
44.49999999999996
 46
5.0
 71
     5
 72
     5
  1
{\fMS PGothic|b0|i0|c128|p50;2}
 73
     1
 44
1.0
  0
MTEXT
  5
255
330
223
100
AcDbEntity
  8
0
100
AcDbMText
 10
126.2499999999999
 20
12.5
 30
0.0
 40
2.0
 41
44.49999999999996
 46
5.0
 71
     5
 72
     5
  1
{\fMS PGothic|b0|i0|c128|p50;3}
 73
     1
 44
1.0
  0
MTEXT
  5
256
330
223
100
AcDbEntity
  8
0
100
AcDbMText
 10
170.7499999999999
 20
12.5
 30
0.0
 40
2.0
 41
44.49999999999996
 46
5.0
 71
     5
 72
     5
  1
{\fMS PGothic|b0|i0|c128|p50;4}
 73
     1
 44
1.0
  0
MTEXT
  5
257
330
223
100
AcDbEntity
  8
0
100
AcDbMText
 10
215.2499999999999
 20
12.5
 30
0.0
 40
2.0
 41
44.49999999999996
 46
5.0
 71
     5
 72
     5
  1
{\fMS PGothic|b0|i0|c128|p50;5}
 73
     1
 44
1.0
  0
MTEXT
  5
258
330
223
100
AcDbEntity
  8
0
100
AcDbMText
 10
259.75
 20
12.5
 30
0.0
 40
2.0
 41
44.49999999999996
 46
5.0
 71
     5
 72
     5
  1
{\fMS PGothic|b0|i0|c128|p50;6}
 73
     1
 44
1.0
  0
MTEXT
  5
259
330
223
100
AcDbEntity
  8
0
100
AcDbMText
 10
12.5
 20
172.5
 30
0.0
 40
2.0
 41
4.999999999999992
 46
45.0
 71
     5
 72
     5
  1
{\fMS PGothic|b0|i0|c128|p50;A}
 73
     1
 44
1.0
  0
MTEXT
  5
25A
330
223
100
AcDbEntity
  8
0
100
AcDbMText
 10
12.5
 20
127.5
 30
0.0
 40
2.0
 41
4.999999999999992
 46
45.0
 71
     5
 72
     5
  1
{\fMS PGothic|b0|i0|c128|p50;B}
 73
     1
 44
1.0
  0
MTEXT
  5
25B
330
223
100
AcDbEntity
  8
0
100
AcDbMText
 10
12.5
 20
82.5
 30
0.0
 40
2.0
 41
4.999999999999992
 46
45.0
 71
     5
 72
     5
  1
{\fMS PGothic|b0|i0|c128|p50;C}
 73
     1
 44
1.0
  0
MTEXT
  5
25C
330
223
100
AcDbEntity
  8
0
100
AcDbMText
 10
12.5
 20
37.5
 30
0.0
 40
2.0
 41
4.999999999999992
 46
45.0
 71
     5
 72
     5
  1
{\fMS PGothic|b0|i0|c128|p50;D}
 73
     1
 44
1.0
  0
MTEXT
  5
25D
330
223
100
AcDbEntity
  8
0
100
AcDbMText
 10
284.5
 20
172.4999999999999
 30
0.0
 40
2.0
 41
4.999999999999992
 46
45.0
 71
     5
 72
     5
  1
{\fMS PGothic|b0|i0|c128|p50;A}
 73
     1
 44
1.0
  0
MTEXT
  5
25E
330
223
100
AcDbEntity
  8
0
100
AcDbMText
 10
284.5
 20
127.4999999999999
 30
0.0
 40
2.0
 41
4.999999999999992
 46
45.0
 71
     5
 72
     5
  1
{\fMS PGothic|b0|i0|c128|p50;B}
 73
     1
 44
1.0
  0
MTEXT
  5
25F
330
223
100
AcDbEntity
  8
0
100
AcDbMText
 10
284.5
 20
82.49999999999991
 30
0.0
 40
2.0
 41
4.999999999999992
 46
45.0
 71
     5
 72
     5
  1
{\fMS PGothic|b0|i0|c128|p50;C}
 73
     1
 44
1.0
  0
MTEXT
  5
260
330
223
100
AcDbEntity
  8
0
100
AcDbMText
 10
284.5
 20
37.49999999999992
 30
0.0
 40
2.0
 41
4.999999999999992
 46
45.0
 71
     5
 72
     5
  1
{\fMS PGothic|b0|i0|c128|p50;D}
 73
     1
 44
1.0
  0
CIRCLE
  5
261
330
223
100
AcDbEntity
  8
0
100
AcDbCircle
 10
192.0812866212884
 20
45.00834951764214
 30
0.0
 40
2.799999999999999
  0
CIRCLE
  5
262
330
223
100
AcDbEntity
  8
0
100
AcDbCircle
 10
192.0812866212884
 20
45.00834951764214
 30
0.0
 40
1.6
  0
LINE
  5
263
330
223
100
AcDbEntity
  8
0
100
AcDbLine
 10
197.2812866212884
 20
46.60834951764214
 30
0.0
 11
204.0812866212884
 21
47.80834951764214
 31
0.0
  0
LINE
  5
264
330
223
100
AcDbEntity
  8
0
100
AcDbLine
 10
197.2812866212884
 20
46.60834951764214
 30
0.0
 11
197.2812866212884
 21
43.40834951764214
 31
0.0
  0
LINE
  5
265
330
223
100
AcDbEntity
  8
0
100
AcDbLine
 10
204.0812866212884
 20
47.80834951764214
 30
0.0
 11
204.0812866212884
 21
42.20834951764214
 31
0.0
  0
LINE
  5
266
330
223
100
AcDbEntity
  8
0
100
AcDbLine
 10
197.2812866212884
 20
43.40834951764214
 30
0.0
 11
204.0812866212884
 21
42.20834951764214
 31
0.0
  0
LINE
  5
267
330
223
100
AcDbEntity
  8
0
100
AcDbLine
 10
192.0812866212884
 20
48.60834951764214
 30
0.0
 11
192.0812866212884
 21
41.40834951764214
 31
0.0
  0
LINE
  5
268
330
223
100
AcDbEntity
  8
0
100
AcDbLine
 10
188.5066509681369
 20
45.00834951764214
 30
0.0
 11
195.6524624469594
 21
45.00834951764214
 31
0.0
  0
LINE
  5
269
330
223
100
AcDbEntity
  8
0
100
AcDbLine
 10
196.4812866212884
 20
45.00834951764214
 30
0.0
 11
204.8812866212884
 21
45.00834951764214
 31
0.0
  0
MTEXT
  5
26A
330
223
100
AcDbEntity
  8
0
100
AcDbMText
 10
212.096194219452
 20
29.00000000000001
 30
0.0
 40
1.0
 41
8.780474292418944
 46
0.0
 71
     1
 72
     5
  1
{\fMS PGothic|b0|i0|c128|p50;　社　名}
 73
     1
 44
1.0
  0
MTEXT
  5
26B
330
223
100
AcDbEntity
  8
0
100
AcDbMText
 10
212.096194219452
 20
39.0
 30
0.0
 40
1.0
 41
8.780474292418944
 46
0.0
 71
     1
 72
     5
  1
{\fMS PGothic|b0|i0|c128|p50;　品 名 2}
 73
     1
 44
1.0
  0
MTEXT
  5
26C
330
223
100
AcDbEntity
  8
0
100
AcDbMText
 10
212.096194219452
 20
49.00000000000001
 30
0.0
 40
1.0
 41
8.780474292418944
 46
0.0
 71
     1
 72
     5
  1
{\fMS PGothic|b0|i0|c128|p50;　品 名 1}
 73
     1
 44
1.0
  0
MTEXT
  5
26D
330
223
100
AcDbEntity
  8
0
100
AcDbMText
 10
181.9999999999999
 20
49.00000000000001
 30
0.0
 40
1.0
 41
8.780474292418944
 46
0.0
 71
     1
 72
     5
  1
{\fMS PGothic|b0|i0|c128|p50;　図　法}
 73
     1
 44
1.0
  0
MTEXT
  5
26E
330
223
100
AcDbEntity
  8
0
100
AcDbMText
 10
181.9999999999999
 20
34.00000000000002
 30
0.0
 40
1.0
 41
8.780474292418944
 46
0.0
 71
     1
 72
     5
  1
{\fMS PGothic|b0|i0|c128|p50;　製　図}
 73
     1
 44
1.0
  0
MTEXT
  5
26F
330
223
100
AcDbEntity
  8
0
100
AcDbMText
 10
197.0480971097259
 20
37.50000000000002
 30
0.0
 40
2.0
 41
30.09619421945209
 46
5.000000000000011
 71
     5
 72
     5
  1
{\fMS PGothic|b0|i0|c128|p50;1 ： 2}
 73
     1
 44
1.0
  0
MTEXT
  5
270
330
223
100
AcDbEntity
  8
0
100
AcDbMText
 10
181.9999999999999
 20
39.00000000000002
 30
0.0
 40
1.0
 41
8.780474292418944
 46
0.0
 71
     1
 72
     5
  1
{\fMS PGothic|b0|i0|c128|p50;　尺　度}
 73
     1
 44
1.0
  0
MTEXT
  5
271
330
223
100
AcDbEntity
  8
0
100
AcDbMText
 10
224.6818550727283
 20
19.50000000000001
 30
0.0
 40
2.0
 41
57.3181449272716
 46
5.000000000000004
 71
     1
 72
     5
  1
{\fMS Gothic|b0|i0|c128|p49;株式会社 ＫＤＡ\H0.5x; (ケーディーエー)}
 73
     1
 44
1.0
  0
ENDBLK
  5
275
330
223
100
AcDbEntity
  8
0
100
AcDbBlockEnd
  0
BLOCK
  5
2C7
330
276
100
AcDbEntity
  8
0
100
AcDbBlockBegin
  2
A$C2CA859AB
 70
     0
 10
0.0
 20
0.0
 30
0.0
  3
A$C2CA859AB
  1

  0
LINE
  5
277
330
276
100
AcDbEntity
  8
0
100
AcDbLine
 10
15.0
 20
15.0
 30
0.0
 11
15.00000000000001
 21
195.0
 31
0.0
  0
LINE
  5
278
330
276
100
AcDbEntity
  8
0
100
AcDbLine
 10
0.0000000000000001
 20
0.0000000000000018
 30
0.0
 11
0.0000000000000008
 21
15.0
 31
0.0
  0
LINE
  5
279
330
276
100
AcDbEntity
  8
0
100
AcDbLine
 10
0.0000000000000091
 20
195.0
 30
0.0
 11
0.0000000000000098
 21
210.0
 31
0.0
  0
LINE
  5
27A
330
276
100
AcDbEntity
  8
0
100
AcDbLine
 10
15.00000000000001
 20
195.0
 30
0.0
 11
282.0
 21
195.0
 31
0.0
  0
LINE
  5
27B
330
276
100
AcDbEntity
  8
0
100
AcDbLine
 10
0.0000000000000098
 20
210.0
 30
0.0
 11
15.00000000000001
 21
210.0
 31
0.0
  0
LINE
  5
27C
330
276
100
AcDbEntity
  8
0
100
AcDbLine
 10
282.0
 20
210.0
 30
0.0
 11
297.0
 21
210.0
 31
0.0
  0
LINE
  5
27D
330
276
100
AcDbEntity
  8
0
100
AcDbLine
 10
282.0
 20
195.0
 30
0.0
 11
281.9999999999999
 21
15.0
 31
0.0
  0
LINE
  5
27E
330
276
100
AcDbEntity
  8
0
100
AcDbLine
 10
297.0
 20
210.0
 30
0.0
 11
297.0
 21
195.0
 31
0.0
  0
LINE
  5
27F
330
276
100
AcDbEntity
  8
0
100
AcDbLine
 10
296.9999999999999
 20
15.0
 30
0.0
 11
296.9999999999999
 21
0.0
 31
0.0
  0
LINE
  5
280
330
276
100
AcDbEntity
  8
0
100
AcDbLine
 10
281.9999999999999
 20
15.0
 30
0.0
 11
15.0
 21
15.0
 31
0.0
  0
LINE
  5
281
330
276
100
AcDbEntity
  8
0
100
AcDbLine
 10
296.9999999999999
 20
0.0
 30
0.0
 11
281.9999999999999
 21
0.0000000000000001
 31
0.0
  0
LINE
  5
282
330
276
100
AcDbEntity
  8
0
100
AcDbLine
 10
15.0
 20
0.0000000000000017
 30
0.0
 11
0.0
 21
0.0000000000000018
 31
0.0
  0
LINE
  5
283
330
276
100
AcDbEntity
  8
0
100
AcDbLine
 10
281.9999999999999
 20
30.00000000000001
 30
0.0
 11
212.096194219452
 21
30.00000000000002
 31
0.0
  0
LINE
  5
284
330
276
100
AcDbEntity
  8
0
100
AcDbLine
 10
181.9999999999999
 20
50.0
 30
0.0
 11
181.9999999999999
 21
15.0
 31
0.0
  0
LINE
  5
285
330
276
100
AcDbEntity
  8
0
100
AcDbLine
 10
181.9999999999999
 20
40.0
 30
0.0
 11
281.9999999999999
 21
40.0
 31
0.0
  0
LINE
  5
286
330
276
100
AcDbEntity
  8
0
100
AcDbLine
 10
181.9999999999999
 20
35.00000000000002
 30
0.0
 11
212.096194219452
 21
35.0
 31
0.0
  0
LINE
  5
287
330
276
100
AcDbEntity
  8
0
100
AcDbLine
 10
181.9999999999999
 20
30.00000000000002
 30
0.0
 11
212.096194219452
 21
30.0
 31
0.0
  0
LINE
  5
288
330
276
100
AcDbEntity
  8
0
100
AcDbLine
 10
181.9999999999999
 20
25.00000000000002
 30
0.0
 11
212.096194219452
 21
25.00000000000001
 31
0.0
  0
LINE
  5
289
330
276
100
AcDbEntity
  8
0
100
AcDbLine
 10
181.9999999999999
 20
20.00000000000001
 30
0.0
 11
212.096194219452
 21
20.00000000000001
 31
0.0
  0
LINE
  5
28A
330
276
100
AcDbEntity
  8
0
100
AcDbLine
 10
181.9999999999999
 20
50.0
 30
0.0
 11
281.9999999999999
 21
50.0
 31
0.0
  0
LINE
  5
28B
330
276
100
AcDbEntity
  8
0
100
AcDbLine
 10
212.096194219452
 20
50.0
 30
0.0
 11
212.096194219452
 21
15.00000000000001
 31
0.0
  0
MTEXT
  5
28C
330
276
100
AcDbEntity
  8
0
100
AcDbMText
 10
247.048097109726
 20
23.00000000000001
 30
0.0
 40
20.0
 41
69.90380578054788
 46
14.0
 71
     5
 72
     5
  1
{\fArial Black|b0|i0|c0|p34;\H0.25x;KDA\H0.6x; Corporation}
 73
     1
 44
1.0
  0
MTEXT
  5
28D
330
276
100
AcDbEntity
  8
0
100
AcDbMText
 10
217.0961942194521
 20
44.99999999999999
 30
0.0
 40
3.5
 41
64.90380578054793
 46
10.00000000000002
 71
     4
 72
     5
  1
{\fMS Gothic|b0|i0|c128|p49; \H0.7143x;ARM05-10 アルミナ六角ボルトM5x10L}
 73
     1
 44
1.0
  0
MTEXT
  5
28E
330
276
100
AcDbEntity
  8
0
100
AcDbMText
 10
217.0961942194521
 20
35.0
 30
0.0
 40
3.5
 41
64.90380578054793
 46
10.00000000000001
 71
     4
 72
     5
  1
{\fMS Gothic|b0|i0|c128|p49; \H0.7143x;ZRM05-10 ジルコニア六角ボルトM5x10L}
 73
     1
 44
1.0
  0
MTEXT
  5
28F
330
276
100
AcDbEntity
  8
0
100
AcDbMText
 10
197.0480971097259
 20
32.50000000000002
 30
0.0
 40
2.0
 41
30.09619421945209
 46
5.000000000000011
 71
     5
 72
     5
  1
{\fMS PGothic|b0|i0|c128|p50;W.O 20100422}
 73
     1
 44
1.0
  0
LINE
  5
290
330
276
100
AcDbEntity
  8
0
100
AcDbLine
 10
148.4999999999999
 20
15.0
 30
0.0
 11
148.4999999999999
 21
10.0
 31
0.0
  0
LINE
  5
291
330
276
100
AcDbEntity
  8
0
100
AcDbLine
 10
192.9999999999999
 20
15.0
 30
0.0
 11
192.9999999999999
 21
10.0
 31
0.0
  0
LINE
  5
292
330
276
100
AcDbEntity
  8
0
100
AcDbLine
 10
237.5
 20
15.0
 30
0.0
 11
237.5
 21
10.0
 31
0.0
  0
LINE
  5
293
330
276
100
AcDbEntity
  8
0
100
AcDbLine
 10
104.0
 20
15.0
 30
0.0
 11
104.0
 21
10.0
 31
0.0
  0
LINE
  5
294
330
276
100
AcDbEntity
  8
0
100
AcDbLine
 10
59.49999999999997
 20
15.0
 30
0.0
 11
59.49999999999997
 21
10.0
 31
0.0
  0
LINE
  5
295
330
276
100
AcDbEntity
  8
0
100
AcDbLine
 10
15.0
 20
105.0
 30
0.0
 11
10.0
 21
105.0
 31
0.0
  0
LINE
  5
296
330
276
100
AcDbEntity
  8
0
100
AcDbLine
 10
15.0
 20
150.0
 30
0.0
 11
10.0
 21
150.0
 31
0.0
  0
LINE
  5
297
330
276
100
AcDbEntity
  8
0
100
AcDbLine
 10
15.0
 20
60.0
 30
0.0
 11
10.0
 21
60.0
 31
0.0
  0
LINE
  5
298
330
276
100
AcDbEntity
  8
0
100
AcDbLine
 10
148.4999999999999
 20
195.0
 30
0.0
 11
148.4999999999999
 21
200.0
 31
0.0
  0
LINE
  5
299
330
276
100
AcDbEntity
  8
0
100
AcDbLine
 10
192.9999999999999
 20
195.0
 30
0.0
 11
192.9999999999999
 21
200.0
 31
0.0
  0
LINE
  5
29A
330
276
100
AcDbEntity
  8
0
100
AcDbLine
 10
237.5
 20
195.0
 30
0.0
 11
237.5
 21
200.0
 31
0.0
  0
LINE
  5
29B
330
276
100
AcDbEntity
  8
0
100
AcDbLine
 10
104.0
 20
195.0
 30
0.0
 11
104.0
 21
200.0
 31
0.0
  0
LINE
  5
29C
330
276
100
AcDbEntity
  8
0
100
AcDbLine
 10
59.49999999999997
 20
195.0
 30
0.0
 11
59.49999999999997
 21
200.0
 31
0.0
  0
LINE
  5
29D
330
276
100
AcDbEntity
  8
0
100
AcDbLine
 10
281.9999999999999
 20
105.0
 30
0.0
 11
287.0
 21
105.0
 31
0.0
  0
LINE
  5
29E
330
276
100
AcDbEntity
  8
0
100
AcDbLine
 10
281.9999999999999
 20
150.0
 30
0.0
 11
287.0
 21
150.0
 31
0.0
  0
LINE
  5
29F
330
276
100
AcDbEntity
  8
0
100
AcDbLine
 10
281.9999999999999
 20
60.0
 30
0.0
 11
287.0
 21
60.0
 31
0.0
  0
MTEXT
  5
2A0
330
276
100
AcDbEntity
  8
0
100
AcDbMText
 10
37.25
 20
197.5
 30
0.0
 40
2.0
 41
44.49999999999996
 46
5.0
 71
     5
 72
     5
  1
{\fMS PGothic|b0|i0|c128|p50;1}
 73
     1
 44
1.0
  0
MTEXT
  5
2A1
330
276
100
AcDbEntity
  8
0
100
AcDbMText
 10
81.74999999999995
 20
197.5
 30
0.0
 40
2.0
 41
44.49999999999996
 46
5.0
 71
     5
 72
     5
  1
{\fMS PGothic|b0|i0|c128|p50;2}
 73
     1
 44
1.0
  0
MTEXT
  5
2A2
330
276
100
AcDbEntity
  8
0
100
AcDbMText
 10
126.2499999999999
 20
197.5
 30
0.0
 40
2.0
 41
44.49999999999996
 46
5.0
 71
     5
 72
     5
  1
{\fMS PGothic|b0|i0|c128|p50;3}
 73
     1
 44
1.0
  0
MTEXT
  5
2A3
330
276
100
AcDbEntity
  8
0
100
AcDbMText
 10
170.7499999999999
 20
197.5
 30
0.0
 40
2.0
 41
44.49999999999996
 46
5.0
 71
     5
 72
     5
  1
{\fMS PGothic|b0|i0|c128|p50;4}
 73
     1
 44
1.0
  0
MTEXT
  5
2A4
330
276
100
AcDbEntity
  8
0
100
AcDbMText
 10
215.2499999999999
 20
197.5
 30
0.0
 40
2.0
 41
44.49999999999996
 46
5.0
 71
     5
 72
     5
  1
{\fMS PGothic|b0|i0|c128|p50;5}
 73
     1
 44
1.0
  0
MTEXT
  5
2A5
330
276
100
AcDbEntity
  8
0
100
AcDbMText
 10
259.75
 20
197.5
 30
0.0
 40
2.0
 41
44.49999999999996
 46
5.0
 71
     5
 72
     5
  1
{\fMS PGothic|b0|i0|c128|p50;6}
 73
     1
 44
1.0
  0
MTEXT
  5
2A6
330
276
100
AcDbEntity
  8
0
100
AcDbMText
 10
37.25
 20
12.5
 30
0.0
 40
2.0
 41
44.49999999999996
 46
5.0
 71
     5
 72
     5
  1
{\fMS PGothic|b0|i0|c128|p50;1}
 73
     1
 44
1.0
  0
MTEXT
  5
2A7
330
276
100
AcDbEntity
  8
0
100
AcDbMText
 10
81.74999999999995
 20
12.5
 30
0.0
 40
2.0
 41
44.49999999999996
 46
5.0
 71
     5
 72
     5
  1
{\fMS PGothic|b0|i0|c128|p50;2}
 73
     1
 44
1.0
  0
MTEXT
  5
2A8
330
276
100
AcDbEntity
  8
0
100
AcDbMText
 10
126.2499999999999
 20
12.5
 30
0.0
 40
2.0
 41
44.49999999999996
 46
5.0
 71
     5
 72
     5
  1
{\fMS PGothic|b0|i0|c128|p50;3}
 73
     1
 44
1.0
  0
MTEXT
  5
2A9
330
276
100
AcDbEntity
  8
0
100
AcDbMText
 10
170.7499999999999
 20
12.5
 30
0.0
 40
2.0
 41
44.49999999999996
 46
5.0
 71
     5
 72
     5
  1
{\fMS PGothic|b0|i0|c128|p50;4}
 73
     1
 44
1.0
  0
MTEXT
  5
2AA
330
276
100
AcDbEntity
  8
0
100
AcDbMText
 10
215.2499999999999
 20
12.5
 30
0.0
 40
2.0
 41
44.49999999999996
 46
5.0
 71
     5
 72
     5
  1
{\fMS PGothic|b0|i0|c128|p50;5}
 73
     1
 44
1.0
  0
MTEXT
  5
2AB
330
276
100
AcDbEntity
  8
0
100
AcDbMText
 10
259.75
 20
12.5
 30
0.0
 40
2.0
 41
44.49999999999996
 46
5.0
 71
     5
 72
     5
  1
{\fMS PGothic|b0|i0|c128|p50;6}
 73
     1
 44
1.0
  0
MTEXT
  5
2AC
330
276
100
AcDbEntity
  8
0
100
AcDbMText
 10
12.5
 20
172.5
 30
0.0
 40
2.0
 41
4.999999999999992
 46
45.0
 71
     5
 72
     5
  1
{\fMS PGothic|b0|i0|c128|p50;A}
 73
     1
 44
1.0
  0
MTEXT
  5
2AD
330
276
100
AcDbEntity
  8
0
100
AcDbMText
 10
12.5
 20
127.5
 30
0.0
 40
2.0
 41
4.999999999999992
 46
45.0
 71
     5
 72
     5
  1
{\fMS PGothic|b0|i0|c128|p50;B}
 73
     1
 44
1.0
  0
MTEXT
  5
2AE
330
276
100
AcDbEntity
  8
0
100
AcDbMText
 10
12.5
 20
82.5
 30
0.0
 40
2.0
 41
4.999999999999992
 46
45.0
 71
     5
 72
     5
  1
{\fMS PGothic|b0|i0|c128|p50;C}
 73
     1
 44
1.0
  0
MTEXT
  5
2AF
330
276
100
AcDbEntity
  8
0
100
AcDbMText
 10
12.5
 20
37.5
 30
0.0
 40
2.0
 41
4.999999999999992
 46
45.0
 71
     5
 72
     5
  1
{\fMS PGothic|b0|i0|c128|p50;D}
 73
     1
 44
1.0
  0
MTEXT
  5
2B0
330
276
100
AcDbEntity
  8
0
100
AcDbMText
 10
284.5
 20
172.4999999999999
 30
0.0
 40
2.0
 41
4.999999999999992
 46
45.0
 71
     5
 72
     5
  1
{\fMS PGothic|b0|i0|c128|p50;A}
 73
     1
 44
1.0
  0
MTEXT
  5
2B1
330
276
100
AcDbEntity
  8
0
100
AcDbMText
 10
284.5
 20
127.4999999999999
 30
0.0
 40
2.0
 41
4.999999999999992
 46
45.0
 71
     5
 72
     5
  1
{\fMS PGothic|b0|i0|c128|p50;B}
 73
     1
 44
1.0
  0
MTEXT
  5
2B2
330
276
100
AcDbEntity
  8
0
100
AcDbMText
 10
284.5
 20
82.49999999999991
 30
0.0
 40
2.0
 41
4.999999999999992
 46
45.0
 71
     5
 72
     5
  1
{\fMS PGothic|b0|i0|c128|p50;C}
 73
     1
 44
1.0
  0
MTEXT
  5
2B3
330
276
100
AcDbEntity
  8
0
100
AcDbMText
 10
284.5
 20
37.49999999999992
 30
0.0
 40
2.0
 41
4.999999999999992
 46
45.0
 71
     5
 72
     5
  1
{\fMS PGothic|b0|i0|c128|p50;D}
 73
     1
 44
1.0
  0
CIRCLE
  5
2B4
330
276
100
AcDbEntity
  8
0
100
AcDbCircle
 10
192.0812866212884
 20
45.00834951764214
 30
0.0
 40
2.799999999999999
  0
CIRCLE
  5
2B5
330
276
100
AcDbEntity
  8
0
100
AcDbCircle
 10
192.0812866212884
 20
45.00834951764214
 30
0.0
 40
1.6
  0
LINE
  5
2B6
330
276
100
AcDbEntity
  8
0
100
AcDbLine
 10
197.2812866212884
 20
46.60834951764214
 30
0.0
 11
204.0812866212884
 21
47.80834951764214
 31
0.0
  0
LINE
  5
2B7
330
276
100
AcDbEntity
  8
0
100
AcDbLine
 10
197.2812866212884
 20
46.60834951764214
 30
0.0
 11
197.2812866212884
 21
43.40834951764214
 31
0.0
  0
LINE
  5
2B8
330
276
100
AcDbEntity
  8
0
100
AcDbLine
 10
204.0812866212884
 20
47.80834951764214
 30
0.0
 11
204.0812866212884
 21
42.20834951764214
 31
0.0
  0
LINE
  5
2B9
330
276
100
AcDbEntity
  8
0
100
AcDbLine
 10
197.2812866212884
 20
43.40834951764214
 30
0.0
 11
204.0812866212884
 21
42.20834951764214
 31
0.0
  0
LINE
  5
2BA
330
276
100
AcDbEntity
  8
0
100
AcDbLine
 10
192.0812866212884
 20
48.60834951764214
 30
0.0
 11
192.0812866212884
 21
41.40834951764214
 31
0.0
  0
LINE
  5
2BB
330
276
100
AcDbEntity
  8
0
100
AcDbLine
 10
188.5066509681369
 20
45.00834951764214
 30
0.0
 11
195.6524624469594
 21
45.00834951764214
 31
0.0
  0
LINE
  5
2BC
330
276
100
AcDbEntity
  8
0
100
AcDbLine
 10
196.4812866212884
 20
45.00834951764214
 30
0.0
 11
204.8812866212884
 21
45.00834951764214
 31
0.0
  0
MTEXT
  5
2BD
330
276
100
AcDbEntity
  8
0
100
AcDbMText
 10
212.096194219452
 20
29.00000000000001
 30
0.0
 40
1.0
 41
8.780474292418944
 46
0.0
 71
     1
 72
     5
  1
{\fMS PGothic|b0|i0|c128|p50;　社　名}
 73
     1
 44
1.0
  0
MTEXT
  5
2BE
330
276
100
AcDbEntity
  8
0
100
AcDbMText
 10
212.096194219452
 20
39.0
 30
0.0
 40
1.0
 41
8.780474292418944
 46
0.0
 71
     1
 72
     5
  1
{\fMS PGothic|b0|i0|c128|p50;　品 名 2}
 73
     1
 44
1.0
  0
MTEXT
  5
2BF
330
276
100
AcDbEntity
  8
0
100
AcDbMText
 10
212.096194219452
 20
49.00000000000001
 30
0.0
 40
1.0
 41
8.780474292418944
 46
0.0
 71
     1
 72
     5
  1
{\fMS PGothic|b0|i0|c128|p50;　品 名 1}
 73
     1
 44
1.0
  0
MTEXT
  5
2C0
330
276
100
AcDbEntity
  8
0
100
AcDbMText
 10
181.9999999999999
 20
49.00000000000001
 30
0.0
 40
1.0
 41
8.780474292418944
 46
0.0
 71
     1
 72
     5
  1
{\fMS PGothic|b0|i0|c128|p50;　図　法}
 73
     1
 44
1.0
  0
MTEXT
  5
2C1
330
276
100
AcDbEntity
  8
0
100
AcDbMText
 10
181.9999999999999
 20
34.00000000000002
 30
0.0
 40
1.0
 41
8.780474292418944
 46
0.0
 71
     1
 72
     5
  1
{\fMS PGothic|b0|i0|c128|p50;　製　図}
 73
     1
 44
1.0
  0
MTEXT
  5
2C2
330
276
100
AcDbEntity
  8
0
100
AcDbMText
 10
197.0480971097259
 20
37.50000000000002
 30
0.0
 40
2.0
 41
30.09619421945209
 46
5.000000000000011
 71
     5
 72
     5
  1
{\fMS PGothic|b0|i0|c128|p50;1 ： 2}
 73
     1
 44
1.0
  0
MTEXT
  5
2C3
330
276
100
AcDbEntity
  8
0
100
AcDbMText
 10
181.9999999999999
 20
39.00000000000002
 30
0.0
 40
1.0
 41
8.780474292418944
 46
0.0
 71
     1
 72
     5
  1
{\fMS PGothic|b0|i0|c128|p50;　尺　度}
 73
     1
 44
1.0
  0
MTEXT
  5
2C4
330
276
100
AcDbEntity
  8
0
100
AcDbMText
 10
224.6818550727283
 20
19.50000000000001
 30
0.0
 40
2.0
 41
57.3181449272716
 46
5.000000000000004
 71
     1
 72
     5
  1
{\fMS Gothic|b0|i0|c128|p49;株式会社 ＫＤＡ\H0.5x; (ケーディーエー)}
 73
     1
 44
1.0
  0
ENDBLK
  5
2C8
330
276
100
AcDbEntity
  8
0
100
AcDbBlockEnd
  0
BLOCK
  5
36D
330
31E
100
AcDbEntity
  8
0
100
AcDbBlockBegin
  2
A$C539F4AFD
 70
     0
 10
0.0
 20
0.0
 30
0.0
  3
A$C539F4AFD
  1

  0
LINE
  5
31F
330
31E
100
AcDbEntity
  8
0
100
AcDbLine
 10
15.0
 20
15.0
 30
0.0
 11
15.00000000000001
 21
195.0
 31
0.0
  0
LINE
  5
320
330
31E
100
AcDbEntity
  8
0
100
AcDbLine
 10
0.0000000000000001
 20
0.0000000000000018
 30
0.0
 11
0.0000000000000008
 21
15.0
 31
0.0
  0
LINE
  5
321
330
31E
100
AcDbEntity
  8
0
100
AcDbLine
 10
0.0000000000000091
 20
195.0
 30
0.0
 11
0.0000000000000098
 21
210.0
 31
0.0
  0
LINE
  5
322
330
31E
100
AcDbEntity
  8
0
100
AcDbLine
 10
15.00000000000001
 20
195.0
 30
0.0
 11
282.0
 21
195.0
 31
0.0
  0
LINE
  5
323
330
31E
100
AcDbEntity
  8
0
100
AcDbLine
 10
0.0000000000000098
 20
210.0
 30
0.0
 11
15.00000000000001
 21
210.0
 31
0.0
  0
LINE
  5
324
330
31E
100
AcDbEntity
  8
0
100
AcDbLine
 10
282.0
 20
210.0
 30
0.0
 11
297.0
 21
210.0
 31
0.0
  0
LINE
  5
325
330
31E
100
AcDbEntity
  8
0
100
AcDbLine
 10
282.0
 20
195.0
 30
0.0
 11
281.9999999999999
 21
15.0
 31
0.0
  0
LINE
  5
326
330
31E
100
AcDbEntity
  8
0
100
AcDbLine
 10
297.0
 20
210.0
 30
0.0
 11
297.0
 21
195.0
 31
0.0
  0
LINE
  5
327
330
31E
100
AcDbEntity
  8
0
100
AcDbLine
 10
296.9999999999999
 20
15.0
 30
0.0
 11
296.9999999999999
 21
0.0
 31
0.0
  0
LINE
  5
328
330
31E
100
AcDbEntity
  8
0
100
AcDbLine
 10
281.9999999999999
 20
15.0
 30
0.0
 11
15.0
 21
15.0
 31
0.0
  0
LINE
  5
329
330
31E
100
AcDbEntity
  8
0
100
AcDbLine
 10
296.9999999999999
 20
0.0
 30
0.0
 11
281.9999999999999
 21
0.0000000000000001
 31
0.0
  0
LINE
  5
32A
330
31E
100
AcDbEntity
  8
0
100
AcDbLine
 10
15.0
 20
0.0000000000000017
 30
0.0
 11
0.0
 21
0.0000000000000018
 31
0.0
  0
LINE
  5
32B
330
31E
100
AcDbEntity
  8
0
100
AcDbLine
 10
281.9999999999999
 20
30.00000000000001
 30
0.0
 11
212.096194219452
 21
30.00000000000002
 31
0.0
  0
LINE
  5
32C
330
31E
100
AcDbEntity
  8
0
100
AcDbLine
 10
181.9999999999999
 20
50.0
 30
0.0
 11
181.9999999999999
 21
15.0
 31
0.0
  0
LINE
  5
32D
330
31E
100
AcDbEntity
  8
0
100
AcDbLine
 10
181.9999999999999
 20
40.0
 30
0.0
 11
281.9999999999999
 21
40.0
 31
0.0
  0
LINE
  5
32E
330
31E
100
AcDbEntity
  8
0
100
AcDbLine
 10
181.9999999999999
 20
35.00000000000002
 30
0.0
 11
212.096194219452
 21
35.0
 31
0.0
  0
LINE
  5
32F
330
31E
100
AcDbEntity
  8
0
100
AcDbLine
 10
181.9999999999999
 20
30.00000000000002
 30
0.0
 11
212.096194219452
 21
30.0
 31
0.0
  0
LINE
  5
330
330
31E
100
AcDbEntity
  8
0
100
AcDbLine
 10
181.9999999999999
 20
25.00000000000002
 30
0.0
 11
212.096194219452
 21
25.00000000000001
 31
0.0
  0
LINE
  5
331
330
31E
100
AcDbEntity
  8
0
100
AcDbLine
 10
181.9999999999999
 20
20.00000000000001
 30
0.0
 11
212.096194219452
 21
20.00000000000001
 31
0.0
  0
LINE
  5
332
330
31E
100
AcDbEntity
  8
0
100
AcDbLine
 10
181.9999999999999
 20
50.0
 30
0.0
 11
281.9999999999999
 21
50.0
 31
0.0
  0
LINE
  5
333
330
31E
100
AcDbEntity
  8
0
100
AcDbLine
 10
212.096194219452
 20
50.0
 30
0.0
 11
212.096194219452
 21
15.00000000000001
 31
0.0
  0
MTEXT
  5
334
330
31E
100
AcDbEntity
  8
0
100
AcDbMText
 10
247.048097109726
 20
23.00000000000001
 30
0.0
 40
20.0
 41
69.90380578054788
 46
14.0
 71
     5
 72
     5
  1
{\fArial Black|b0|i0|c0|p34;\H0.25x;KDA\H0.6x; Corporation}
 73
     1
 44
1.0
  0
MTEXT
  5
335
330
31E
100
AcDbEntity
  8
0
100
AcDbMText
 10
217.0961942194521
 20
44.99999999999999
 30
0.0
 40
3.5
 41
64.90380578054793
 46
10.00000000000002
 71
     4
 72
     5
  1
{\fMS Gothic|b0|i0|c128|p49; \H0.7143x;ARM05-10 アルミナ六角ボルトM5x10L}
 73
     1
 44
1.0
  0
MTEXT
  5
336
330
31E
100
AcDbEntity
  8
0
100
AcDbMText
 10
217.0961942194521
 20
35.0
 30
0.0
 40
3.5
 41
64.90380578054793
 46
10.00000000000001
 71
     4
 72
     5
  1
{\fMS Gothic|b0|i0|c128|p49; \H0.7143x;ZRM05-10 ジルコニア六角ボルトM5x10L}
 73
     1
 44
1.0
  0
MTEXT
  5
337
330
31E
100
AcDbEntity
  8
0
100
AcDbMText
 10
197.0480971097259
 20
32.50000000000002
 30
0.0
 40
2.0
 41
30.09619421945209
 46
5.000000000000011
 71
     5
 72
     5
  1
{\fMS PGothic|b0|i0|c128|p50;W.O 20100422}
 73
     1
 44
1.0
  0
LINE
  5
338
330
31E
100
AcDbEntity
  8
0
100
AcDbLine
 10
148.4999999999999
 20
15.0
 30
0.0
 11
148.4999999999999
 21
10.0
 31
0.0
  0
LINE
  5
339
330
31E
100
AcDbEntity
  8
0
100
AcDbLine
 10
192.9999999999999
 20
15.0
 30
0.0
 11
192.9999999999999
 21
10.0
 31
0.0
  0
LINE
  5
33A
330
31E
100
AcDbEntity
  8
0
100
AcDbLine
 10
237.5
 20
15.0
 30
0.0
 11
237.5
 21
10.0
 31
0.0
  0
LINE
  5
33B
330
31E
100
AcDbEntity
  8
0
100
AcDbLine
 10
104.0
 20
15.0
 30
0.0
 11
104.0
 21
10.0
 31
0.0
  0
LINE
  5
33C
330
31E
100
AcDbEntity
  8
0
100
AcDbLine
 10
59.49999999999997
 20
15.0
 30
0.0
 11
59.49999999999997
 21
10.0
 31
0.0
  0
LINE
  5
33D
330
31E
100
AcDbEntity
  8
0
100
AcDbLine
 10
15.0
 20
105.0
 30
0.0
 11
10.0
 21
105.0
 31
0.0
  0
LINE
  5
33E
330
31E
100
AcDbEntity
  8
0
100
AcDbLine
 10
15.0
 20
150.0
 30
0.0
 11
10.0
 21
150.0
 31
0.0
  0
LINE
  5
33F
330
31E
100
AcDbEntity
  8
0
100
AcDbLine
 10
15.0
 20
60.0
 30
0.0
 11
10.0
 21
60.0
 31
0.0
  0
LINE
  5
340
330
31E
100
AcDbEntity
  8
0
100
AcDbLine
 10
148.4999999999999
 20
195.0
 30
0.0
 11
148.4999999999999
 21
200.0
 31
0.0
  0
LINE
  5
341
330
31E
100
AcDbEntity
  8
0
100
AcDbLine
 10
192.9999999999999
 20
195.0
 30
0.0
 11
192.9999999999999
 21
200.0
 31
0.0
  0
LINE
  5
342
330
31E
100
AcDbEntity
  8
0
100
AcDbLine
 10
237.5
 20
195.0
 30
0.0
 11
237.5
 21
200.0
 31
0.0
  0
LINE
  5
343
330
31E
100
AcDbEntity
  8
0
100
AcDbLine
 10
104.0
 20
195.0
 30
0.0
 11
104.0
 21
200.0
 31
0.0
  0
LINE
  5
344
330
31E
100
AcDbEntity
  8
0
100
AcDbLine
 10
59.49999999999997
 20
195.0
 30
0.0
 11
59.49999999999997
 21
200.0
 31
0.0
  0
LINE
  5
345
330
31E
100
AcDbEntity
  8
0
100
AcDbLine
 10
281.9999999999999
 20
105.0
 30
0.0
 11
287.0
 21
105.0
 31
0.0
  0
LINE
  5
346
330
31E
100
AcDbEntity
  8
0
100
AcDbLine
 10
281.9999999999999
 20
150.0
 30
0.0
 11
287.0
 21
150.0
 31
0.0
  0
LINE
  5
347
330
31E
100
AcDbEntity
  8
0
100
AcDbLine
 10
281.9999999999999
 20
60.0
 30
0.0
 11
287.0
 21
60.0
 31
0.0
  0
MTEXT
  5
348
330
31E
100
AcDbEntity
  8
0
100
AcDbMText
 10
37.25
 20
197.5
 30
0.0
 40
2.0
 41
44.49999999999996
 46
5.0
 71
     5
 72
     5
  1
{\fMS PGothic|b0|i0|c128|p50;1}
 73
     1
 44
1.0
  0
MTEXT
  5
349
330
31E
100
AcDbEntity
  8
0
100
AcDbMText
 10
81.74999999999995
 20
197.5
 30
0.0
 40
2.0
 41
44.49999999999996
 46
5.0
 71
     5
 72
     5
  1
{\fMS PGothic|b0|i0|c128|p50;2}
 73
     1
 44
1.0
  0
MTEXT
  5
34A
330
31E
100
AcDbEntity
  8
0
100
AcDbMText
 10
126.2499999999999
 20
197.5
 30
0.0
 40
2.0
 41
44.49999999999996
 46
5.0
 71
     5
 72
     5
  1
{\fMS PGothic|b0|i0|c128|p50;3}
 73
     1
 44
1.0
  0
MTEXT
  5
34B
330
31E
100
AcDbEntity
  8
0
100
AcDbMText
 10
170.7499999999999
 20
197.5
 30
0.0
 40
2.0
 41
44.49999999999996
 46
5.0
 71
     5
 72
     5
  1
{\fMS PGothic|b0|i0|c128|p50;4}
 73
     1
 44
1.0
  0
MTEXT
  5
34C
330
31E
100
AcDbEntity
  8
0
100
AcDbMText
 10
215.2499999999999
 20
197.5
 30
0.0
 40
2.0
 41
44.49999999999996
 46
5.0
 71
     5
 72
     5
  1
{\fMS PGothic|b0|i0|c128|p50;5}
 73
     1
 44
1.0
  0
MTEXT
  5
34D
330
31E
100
AcDbEntity
  8
0
100
AcDbMText
 10
259.75
 20
197.5
 30
0.0
 40
2.0
 41
44.49999999999996
 46
5.0
 71
     5
 72
     5
  1
{\fMS PGothic|b0|i0|c128|p50;6}
 73
     1
 44
1.0
  0
MTEXT
  5
34E
330
31E
100
AcDbEntity
  8
0
100
AcDbMText
 10
37.25
 20
12.5
 30
0.0
 40
2.0
 41
44.49999999999996
 46
5.0
 71
     5
 72
     5
  1
{\fMS PGothic|b0|i0|c128|p50;1}
 73
     1
 44
1.0
  0
MTEXT
  5
34F
330
31E
100
AcDbEntity
  8
0
100
AcDbMText
 10
81.74999999999995
 20
12.5
 30
0.0
 40
2.0
 41
44.49999999999996
 46
5.0
 71
     5
 72
     5
  1
{\fMS PGothic|b0|i0|c128|p50;2}
 73
     1
 44
1.0
  0
MTEXT
  5
350
330
31E
100
AcDbEntity
  8
0
100
AcDbMText
 10
126.2499999999999
 20
12.5
 30
0.0
 40
2.0
 41
44.49999999999996
 46
5.0
 71
     5
 72
     5
  1
{\fMS PGothic|b0|i0|c128|p50;3}
 73
     1
 44
1.0
  0
MTEXT
  5
351
330
31E
100
AcDbEntity
  8
0
100
AcDbMText
 10
170.7499999999999
 20
12.5
 30
0.0
 40
2.0
 41
44.49999999999996
 46
5.0
 71
     5
 72
     5
  1
{\fMS PGothic|b0|i0|c128|p50;4}
 73
     1
 44
1.0
  0
MTEXT
  5
352
330
31E
100
AcDbEntity
  8
0
100
AcDbMText
 10
215.2499999999999
 20
12.5
 30
0.0
 40
2.0
 41
44.49999999999996
 46
5.0
 71
     5
 72
     5
  1
{\fMS PGothic|b0|i0|c128|p50;5}
 73
     1
 44
1.0
  0
MTEXT
  5
353
330
31E
100
AcDbEntity
  8
0
100
AcDbMText
 10
259.75
 20
12.5
 30
0.0
 40
2.0
 41
44.49999999999996
 46
5.0
 71
     5
 72
     5
  1
{\fMS PGothic|b0|i0|c128|p50;6}
 73
     1
 44
1.0
  0
MTEXT
  5
354
330
31E
100
AcDbEntity
  8
0
100
AcDbMText
 10
12.5
 20
172.5
 30
0.0
 40
2.0
 41
4.999999999999992
 46
45.0
 71
     5
 72
     5
  1
{\fMS PGothic|b0|i0|c128|p50;A}
 73
     1
 44
1.0
  0
MTEXT
  5
355
330
31E
100
AcDbEntity
  8
0
100
AcDbMText
 10
12.5
 20
127.5
 30
0.0
 40
2.0
 41
4.999999999999992
 46
45.0
 71
     5
 72
     5
  1
{\fMS PGothic|b0|i0|c128|p50;B}
 73
     1
 44
1.0
  0
MTEXT
  5
356
330
31E
100
AcDbEntity
  8
0
100
AcDbMText
 10
12.5
 20
82.5
 30
0.0
 40
2.0
 41
4.999999999999992
 46
45.0
 71
     5
 72
     5
  1
{\fMS PGothic|b0|i0|c128|p50;C}
 73
     1
 44
1.0
  0
MTEXT
  5
357
330
31E
100
AcDbEntity
  8
0
100
AcDbMText
 10
12.5
 20
37.5
 30
0.0
 40
2.0
 41
4.999999999999992
 46
45.0
 71
     5
 72
     5
  1
{\fMS PGothic|b0|i0|c128|p50;D}
 73
     1
 44
1.0
  0
MTEXT
  5
358
330
31E
100
AcDbEntity
  8
0
100
AcDbMText
 10
284.5
 20
172.4999999999999
 30
0.0
 40
2.0
 41
4.999999999999992
 46
45.0
 71
     5
 72
     5
  1
{\fMS PGothic|b0|i0|c128|p50;A}
 73
     1
 44
1.0
  0
MTEXT
  5
359
330
31E
100
AcDbEntity
  8
0
100
AcDbMText
 10
284.5
 20
127.4999999999999
 30
0.0
 40
2.0
 41
4.999999999999992
 46
45.0
 71
     5
 72
     5
  1
{\fMS PGothic|b0|i0|c128|p50;B}
 73
     1
 44
1.0
  0
MTEXT
  5
35A
330
31E
100
AcDbEntity
  8
0
100
AcDbMText
 10
284.5
 20
82.49999999999991
 30
0.0
 40
2.0
 41
4.999999999999992
 46
45.0
 71
     5
 72
     5
  1
{\fMS PGothic|b0|i0|c128|p50;C}
 73
     1
 44
1.0
  0
MTEXT
  5
35B
330
31E
100
AcDbEntity
  8
0
100
AcDbMText
 10
284.5
 20
37.49999999999992
 30
0.0
 40
2.0
 41
4.999999999999992
 46
45.0
 71
     5
 72
     5
  1
{\fMS PGothic|b0|i0|c128|p50;D}
 73
     1
 44
1.0
  0
CIRCLE
  5
35C
330
31E
100
AcDbEntity
  8
0
100
AcDbCircle
 10
192.0812866212884
 20
45.00834951764214
 30
0.0
 40
2.799999999999999
  0
CIRCLE
  5
35D
330
31E
100
AcDbEntity
  8
0
100
AcDbCircle
 10
192.0812866212884
 20
45.00834951764214
 30
0.0
 40
1.6
  0
LINE
  5
35E
330
31E
100
AcDbEntity
  8
0
100
AcDbLine
 10
197.2812866212884
 20
46.60834951764214
 30
0.0
 11
204.0812866212884
 21
47.80834951764214
 31
0.0
  0
LINE
  5
35F
330
31E
100
AcDbEntity
  8
0
100
AcDbLine
 10
197.2812866212884
 20
46.60834951764214
 30
0.0
 11
197.2812866212884
 21
43.40834951764214
 31
0.0
  0
LINE
  5
360
330
31E
100
AcDbEntity
  8
0
100
AcDbLine
 10
204.0812866212884
 20
47.80834951764214
 30
0.0
 11
204.0812866212884
 21
42.20834951764214
 31
0.0
  0
LINE
  5
361
330
31E
100
AcDbEntity
  8
0
100
AcDbLine
 10
197.2812866212884
 20
43.40834951764214
 30
0.0
 11
204.0812866212884
 21
42.20834951764214
 31
0.0
  0
LINE
  5
362
330
31E
100
AcDbEntity
  8
0
100
AcDbLine
 10
192.0812866212884
 20
48.60834951764214
 30
0.0
 11
192.0812866212884
 21
41.40834951764214
 31
0.0
  0
LINE
  5
363
330
31E
100
AcDbEntity
  8
0
100
AcDbLine
 10
188.5066509681369
 20
45.00834951764214
 30
0.0
 11
195.6524624469594
 21
45.00834951764214
 31
0.0
  0
LINE
  5
364
330
31E
100
AcDbEntity
  8
0
100
AcDbLine
 10
196.4812866212884
 20
45.00834951764214
 30
0.0
 11
204.8812866212884
 21
45.00834951764214
 31
0.0
  0
MTEXT
  5
365
330
31E
100
AcDbEntity
  8
0
100
AcDbMText
 10
212.096194219452
 20
29.00000000000001
 30
0.0
 40
1.0
 41
8.780474292418944
 46
0.0
 71
     1
 72
     5
  1
{\fMS PGothic|b0|i0|c128|p50;　社　名}
 73
     1
 44
1.0
  0
MTEXT
  5
366
330
31E
100
AcDbEntity
  8
0
100
AcDbMText
 10
212.096194219452
 20
39.0
 30
0.0
 40
1.0
 41
8.780474292418944
 46
0.0
 71
     1
 72
     5
  1
{\fMS PGothic|b0|i0|c128|p50;　品 名 2}
 73
     1
 44
1.0
  0
MTEXT
  5
367
330
31E
100
AcDbEntity
  8
0
100
AcDbMText
 10
212.096194219452
 20
49.00000000000001
 30
0.0
 40
1.0
 41
8.780474292418944
 46
0.0
 71
     1
 72
     5
  1
{\fMS PGothic|b0|i0|c128|p50;　品 名 1}
 73
     1
 44
1.0
  0
MTEXT
  5
368
330
31E
100
AcDbEntity
  8
0
100
AcDbMText
 10
181.9999999999999
 20
49.00000000000001
 30
0.0
 40
1.0
 41
8.780474292418944
 46
0.0
 71
     1
 72
     5
  1
{\fMS PGothic|b0|i0|c128|p50;　図　法}
 73
     1
 44
1.0
  0
MTEXT
  5
369
330
31E
100
AcDbEntity
  8
0
100
AcDbMText
 10
181.9999999999999
 20
34.00000000000002
 30
0.0
 40
1.0
 41
8.780474292418944
 46
0.0
 71
     1
 72
     5
  1
{\fMS PGothic|b0|i0|c128|p50;　製　図}
 73
     1
 44
1.0
  0
MTEXT
  5
36A
330
31E
100
AcDbEntity
  8
0
100
AcDbMText
 10
197.0480971097259
 20
37.50000000000002
 30
0.0
 40
2.0
 41
30.09619421945209
 46
5.000000000000011
 71
     5
 72
     5
  1
{\fMS PGothic|b0|i0|c128|p50;1 ： 2}
 73
     1
 44
1.0
  0
MTEXT
  5
36B
330
31E
100
AcDbEntity
  8
0
100
AcDbMText
 10
181.9999999999999
 20
39.00000000000002
 30
0.0
 40
1.0
 41
8.780474292418944
 46
0.0
 71
     1
 72
     5
  1
{\fMS PGothic|b0|i0|c128|p50;　尺　度}
 73
     1
 44
1.0
  0
MTEXT
  5
36C
330
31E
100
AcDbEntity
  8
0
100
AcDbMText
 10
224.6818550727283
 20
19.50000000000001
 30
0.0
 40
2.0
 41
57.3181449272716
 46
5.000000000000004
 71
     1
 72
     5
  1
{\fMS Gothic|b0|i0|c128|p49;株式会社 ＫＤＡ\H0.5x; (ケーディーエー)}
 73
     1
 44
1.0
  0
ENDBLK
  5
36E
330
31E
100
AcDbEntity
  8
0
100
AcDbBlockEnd
  0
BLOCK
  5
47E
330
42F
100
AcDbEntity
  8
0
100
AcDbBlockBegin
  2
A$C1BB53514
 70
     0
 10
0.0
 20
0.0
 30
0.0
  3
A$C1BB53514
  1

  0
LINE
  5
4D9
330
42F
100
AcDbEntity
  8
0
100
AcDbLine
 10
15.0
 20
15.0
 30
0.0
 11
15.00000000000001
 21
195.0
 31
0.0
1001
AcDbBlockRepETag
1070
     1
1071
        0
1005
4D9
  0
LINE
  5
4DC
330
42F
100
AcDbEntity
  8
0
100
AcDbLine
 10
15.00000000000001
 20
195.0
 30
0.0
 11
282.0
 21
195.0
 31
0.0
1001
AcDbBlockRepETag
1070
     1
1071
        1
1005
4DC
  0
LINE
  5
4DF
330
42F
100
AcDbEntity
  8
0
100
AcDbLine
 10
282.0
 20
195.0
 30
0.0
 11
281.9999999999999
 21
15.0
 31
0.0
1001
AcDbBlockRepETag
1070
     1
1071
        2
1005
4DF
  0
LINE
  5
4E2
330
42F
100
AcDbEntity
  8
0
100
AcDbLine
 10
281.9999999999999
 20
15.0
 30
0.0
 11
15.0
 21
15.0
 31
0.0
1001
AcDbBlockRepETag
1070
     1
1071
        3
1005
4E2
  0
LINE
  5
4E5
330
42F
100
AcDbEntity
  8
0
100
AcDbLine
 10
281.9999999999999
 20
30.00000000000001
 30
0.0
 11
212.096194219452
 21
30.00000000000002
 31
0.0
1001
AcDbBlockRepETag
1070
     1
1071
        4
1005
4E5
  0
LINE
  5
4E6
330
42F
100
AcDbEntity
  8
0
100
AcDbLine
 10
181.9999999999999
 20
50.0
 30
0.0
 11
181.9999999999999
 21
15.0
 31
0.0
1001
AcDbBlockRepETag
1070
     1
1071
        5
1005
4E6
  0
LINE
  5
4E7
330
42F
100
AcDbEntity
  8
0
100
AcDbLine
 10
181.9999999999999
 20
40.0
 30
0.0
 11
281.9999999999999
 21
40.0
 31
0.0
1001
AcDbBlockRepETag
1070
     1
1071
        6
1005
4E7
  0
LINE
  5
4E8
330
42F
100
AcDbEntity
  8
0
100
AcDbLine
 10
181.9999999999999
 20
35.00000000000002
 30
0.0
 11
212.096194219452
 21
35.0
 31
0.0
1001
AcDbBlockRepETag
1070
     1
1071
        7
1005
4E8
  0
LINE
  5
4E9
330
42F
100
AcDbEntity
  8
0
100
AcDbLine
 10
181.9999999999999
 20
30.00000000000002
 30
0.0
 11
212.096194219452
 21
30.0
 31
0.0
1001
AcDbBlockRepETag
1070
     1
1071
        8
1005
4E9
  0
LINE
  5
4EA
330
42F
100
AcDbEntity
  8
0
100
AcDbLine
 10
181.9999999999999
 20
25.00000000000002
 30
0.0
 11
212.096194219452
 21
25.00000000000001
 31
0.0
1001
AcDbBlockRepETag
1070
     1
1071
        9
1005
4EA
  0
LINE
  5
4EB
330
42F
100
AcDbEntity
  8
0
100
AcDbLine
 10
181.9999999999999
 20
20.00000000000001
 30
0.0
 11
212.096194219452
 21
20.00000000000001
 31
0.0
1001
AcDbBlockRepETag
1070
     1
1071
       10
1005
4EB
  0
LINE
  5
4EC
330
42F
100
AcDbEntity
  8
0
100
AcDbLine
 10
181.9999999999999
 20
50.0
 30
0.0
 11
281.9999999999999
 21
50.0
 31
0.0
1001
AcDbBlockRepETag
1070
     1
1071
       11
1005
4EC
  0
LINE
  5
4ED
330
42F
100
AcDbEntity
  8
0
100
AcDbLine
 10
212.096194219452
 20
50.0
 30
0.0
 11
212.096194219452
 21
15.00000000000001
 31
0.0
1001
AcDbBlockRepETag
1070
     1
1071
       12
1005
4ED
  0
MTEXT
  5
4EE
330
42F
100
AcDbEntity
  8
0
100
AcDbMText
 10
247.048097109726
 20
23.00000000000001
 30
0.0
 40
20.0
 41
69.90380578054788
 46
14.0
 71
     5
 72
     5
  1
{\fArial Black|b0|i0|c0|p34;\H0.25x;KDA\H0.6x; Corporation}
 73
     1
 44
1.0
1001
AcDbBlockRepETag
1070
     1
1071
       13
1005
4EE
  0
MTEXT
  5
4EF
330
42F
100
AcDbEntity
  8
0
100
AcDbMText
 10
217.0961942194521
 20
44.99999999999999
 30
0.0
 40
3.5
 41
64.90380578054793
 46
10.00000000000002
 71
     4
 72
     5
  1
{\fMS Gothic|b0|i0|c128|p49; \H0.7143x;ARM05-10 アルミナ六角ボルトM5x10L}
 73
     1
 44
1.0
1001
AcDbBlockRepETag
1070
     1
1071
       14
1005
4EF
  0
MTEXT
  5
4F0
330
42F
100
AcDbEntity
  8
0
100
AcDbMText
 10
217.0961942194521
 20
35.0
 30
0.0
 40
3.5
 41
64.90380578054793
 46
10.00000000000001
 71
     4
 72
     5
  1
{\fMS Gothic|b0|i0|c128|p49; \H0.7143x;ZRM05-10 ジルコニア六角ボルトM5x10L}
 73
     1
 44
1.0
1001
AcDbBlockRepETag
1070
     1
1071
       15
1005
4F0
  0
MTEXT
  5
4F1
330
42F
100
AcDbEntity
  8
0
100
AcDbMText
 10
197.0480971097259
 20
32.50000000000002
 30
0.0
 40
2.0
 41
30.09619421945209
 46
5.000000000000011
 71
     5
 72
     5
  1
{\fMS PGothic|b0|i0|c128|p50;W.O 20100422}
 73
     1
 44
1.0
1001
AcDbBlockRepETag
1070
     1
1071
       16
1005
4F1
  0
LINE
  5
4F2
330
42F
100
AcDbEntity
  8
0
100
AcDbLine
 10
148.4999999999999
 20
15.0
 30
0.0
 11
148.4999999999999
 21
10.0
 31
0.0
1001
AcDbBlockRepETag
1070
     1
1071
       17
1005
4F2
  0
LINE
  5
4F3
330
42F
100
AcDbEntity
  8
0
100
AcDbLine
 10
192.9999999999999
 20
15.0
 30
0.0
 11
192.9999999999999
 21
10.0
 31
0.0
1001
AcDbBlockRepETag
1070
     1
1071
       18
1005
4F3
  0
LINE
  5
4F4
330
42F
100
AcDbEntity
  8
0
100
AcDbLine
 10
237.5
 20
15.0
 30
0.0
 11
237.5
 21
10.0
 31
0.0
1001
AcDbBlockRepETag
1070
     1
1071
       19
1005
4F4
  0
LINE
  5
4F5
330
42F
100
AcDbEntity
  8
0
100
AcDbLine
 10
104.0
 20
15.0
 30
0.0
 11
104.0
 21
10.0
 31
0.0
1001
AcDbBlockRepETag
1070
     1
1071
       20
1005
4F5
  0
LINE
  5
4F6
330
42F
100
AcDbEntity
  8
0
100
AcDbLine
 10
59.49999999999997
 20
15.0
 30
0.0
 11
59.49999999999997
 21
10.0
 31
0.0
1001
AcDbBlockRepETag
1070
     1
1071
       21
1005
4F6
  0
LINE
  5
4F7
330
42F
100
AcDbEntity
  8
0
100
AcDbLine
 10
15.0
 20
105.0
 30
0.0
 11
10.0
 21
105.0
 31
0.0
1001
AcDbBlockRepETag
1070
     1
1071
       22
1005
4F7
  0
LINE
  5
4F8
330
42F
100
AcDbEntity
  8
0
100
AcDbLine
 10
15.0
 20
150.0
 30
0.0
 11
10.0
 21
150.0
 31
0.0
1001
AcDbBlockRepETag
1070
     1
1071
       23
1005
4F8
  0
LINE
  5
4F9
330
42F
100
AcDbEntity
  8
0
100
AcDbLine
 10
15.0
 20
60.0
 30
0.0
 11
10.0
 21
60.0
 31
0.0
1001
AcDbBlockRepETag
1070
     1
1071
       24
1005
4F9
  0
LINE
  5
4FA
330
42F
100
AcDbEntity
  8
0
100
AcDbLine
 10
148.4999999999999
 20
195.0
 30
0.0
 11
148.4999999999999
 21
200.0
 31
0.0
1001
AcDbBlockRepETag
1070
     1
1071
       25
1005
4FA
  0
LINE
  5
4FB
330
42F
100
AcDbEntity
  8
0
100
AcDbLine
 10
192.9999999999999
 20
195.0
 30
0.0
 11
192.9999999999999
 21
200.0
 31
0.0
1001
AcDbBlockRepETag
1070
     1
1071
       26
1005
4FB
  0
LINE
  5
4FC
330
42F
100
AcDbEntity
  8
0
100
AcDbLine
 10
237.5
 20
195.0
 30
0.0
 11
237.5
 21
200.0
 31
0.0
1001
AcDbBlockRepETag
1070
     1
1071
       27
1005
4FC
  0
LINE
  5
4FD
330
42F
100
AcDbEntity
  8
0
100
AcDbLine
 10
104.0
 20
195.0
 30
0.0
 11
104.0
 21
200.0
 31
0.0
1001
AcDbBlockRepETag
1070
     1
1071
       28
1005
4FD
  0
LINE
  5
4FE
330
42F
100
AcDbEntity
  8
0
100
AcDbLine
 10
59.49999999999997
 20
195.0
 30
0.0
 11
59.49999999999997
 21
200.0
 31
0.0
1001
AcDbBlockRepETag
1070
     1
1071
       29
1005
4FE
  0
LINE
  5
4FF
330
42F
100
AcDbEntity
  8
0
100
AcDbLine
 10
281.9999999999999
 20
105.0
 30
0.0
 11
287.0
 21
105.0
 31
0.0
1001
AcDbBlockRepETag
1070
     1
1071
       30
1005
4FF
  0
LINE
  5
500
330
42F
100
AcDbEntity
  8
0
100
AcDbLine
 10
281.9999999999999
 20
150.0
 30
0.0
 11
287.0
 21
150.0
 31
0.0
1001
AcDbBlockRepETag
1070
     1
1071
       31
1005
500
  0
LINE
  5
501
330
42F
100
AcDbEntity
  8
0
100
AcDbLine
 10
281.9999999999999
 20
60.0
 30
0.0
 11
287.0
 21
60.0
 31
0.0
1001
AcDbBlockRepETag
1070
     1
1071
       32
1005
501
  0
MTEXT
  5
502
330
42F
100
AcDbEntity
  8
0
100
AcDbMText
 10
37.25
 20
197.5
 30
0.0
 40
2.0
 41
44.49999999999996
 46
5.0
 71
     5
 72
     5
  1
{\fMS PGothic|b0|i0|c128|p50;1}
 73
     1
 44
1.0
1001
AcDbBlockRepETag
1070
     1
1071
       33
1005
502
  0
MTEXT
  5
503
330
42F
100
AcDbEntity
  8
0
100
AcDbMText
 10
81.74999999999995
 20
197.5
 30
0.0
 40
2.0
 41
44.49999999999996
 46
5.0
 71
     5
 72
     5
  1
{\fMS PGothic|b0|i0|c128|p50;2}
 73
     1
 44
1.0
1001
AcDbBlockRepETag
1070
     1
1071
       34
1005
503
  0
MTEXT
  5
504
330
42F
100
AcDbEntity
  8
0
100
AcDbMText
 10
126.2499999999999
 20
197.5
 30
0.0
 40
2.0
 41
44.49999999999996
 46
5.0
 71
     5
 72
     5
  1
{\fMS PGothic|b0|i0|c128|p50;3}
 73
     1
 44
1.0
1001
AcDbBlockRepETag
1070
     1
1071
       35
1005
504
  0
MTEXT
  5
505
330
42F
100
AcDbEntity
  8
0
100
AcDbMText
 10
170.7499999999999
 20
197.5
 30
0.0
 40
2.0
 41
44.49999999999996
 46
5.0
 71
     5
 72
     5
  1
{\fMS PGothic|b0|i0|c128|p50;4}
 73
     1
 44
1.0
1001
AcDbBlockRepETag
1070
     1
1071
       36
1005
505
  0
MTEXT
  5
506
330
42F
100
AcDbEntity
  8
0
100
AcDbMText
 10
215.2499999999999
 20
197.5
 30
0.0
 40
2.0
 41
44.49999999999996
 46
5.0
 71
     5
 72
     5
  1
{\fMS PGothic|b0|i0|c128|p50;5}
 73
     1
 44
1.0
1001
AcDbBlockRepETag
1070
     1
1071
       37
1005
506
  0
MTEXT
  5
507
330
42F
100
AcDbEntity
  8
0
100
AcDbMText
 10
259.75
 20
197.5
 30
0.0
 40
2.0
 41
44.49999999999996
 46
5.0
 71
     5
 72
     5
  1
{\fMS PGothic|b0|i0|c128|p50;6}
 73
     1
 44
1.0
1001
AcDbBlockRepETag
1070
     1
1071
       38
1005
507
  0
MTEXT
  5
508
330
42F
100
AcDbEntity
  8
0
100
AcDbMText
 10
37.25
 20
12.5
 30
0.0
 40
2.0
 41
44.49999999999996
 46
5.0
 71
     5
 72
     5
  1
{\fMS PGothic|b0|i0|c128|p50;1}
 73
     1
 44
1.0
1001
AcDbBlockRepETag
1070
     1
1071
       39
1005
508
  0
MTEXT
  5
509
330
42F
100
AcDbEntity
  8
0
100
AcDbMText
 10
81.74999999999995
 20
12.5
 30
0.0
 40
2.0
 41
44.49999999999996
 46
5.0
 71
     5
 72
     5
  1
{\fMS PGothic|b0|i0|c128|p50;2}
 73
     1
 44
1.0
1001
AcDbBlockRepETag
1070
     1
1071
       40
1005
509
  0
MTEXT
  5
50A
330
42F
100
AcDbEntity
  8
0
100
AcDbMText
 10
126.2499999999999
 20
12.5
 30
0.0
 40
2.0
 41
44.49999999999996
 46
5.0
 71
     5
 72
     5
  1
{\fMS PGothic|b0|i0|c128|p50;3}
 73
     1
 44
1.0
1001
AcDbBlockRepETag
1070
     1
1071
       41
1005
50A
  0
MTEXT
  5
50B
330
42F
100
AcDbEntity
  8
0
100
AcDbMText
 10
170.7499999999999
 20
12.5
 30
0.0
 40
2.0
 41
44.49999999999996
 46
5.0
 71
     5
 72
     5
  1
{\fMS PGothic|b0|i0|c128|p50;4}
 73
     1
 44
1.0
1001
AcDbBlockRepETag
1070
     1
1071
       42
1005
50B
  0
MTEXT
  5
50C
330
42F
100
AcDbEntity
  8
0
100
AcDbMText
 10
215.2499999999999
 20
12.5
 30
0.0
 40
2.0
 41
44.49999999999996
 46
5.0
 71
     5
 72
     5
  1
{\fMS PGothic|b0|i0|c128|p50;5}
 73
     1
 44
1.0
1001
AcDbBlockRepETag
1070
     1
1071
       43
1005
50C
  0
MTEXT
  5
50D
330
42F
100
AcDbEntity
  8
0
100
AcDbMText
 10
259.75
 20
12.5
 30
0.0
 40
2.0
 41
44.49999999999996
 46
5.0
 71
     5
 72
     5
  1
{\fMS PGothic|b0|i0|c128|p50;6}
 73
     1
 44
1.0
1001
AcDbBlockRepETag
1070
     1
1071
       44
1005
50D
  0
MTEXT
  5
50E
330
42F
100
AcDbEntity
  8
0
100
AcDbMText
 10
12.5
 20
172.5
 30
0.0
 40
2.0
 41
4.999999999999992
 46
45.0
 71
     5
 72
     5
  1
{\fMS PGothic|b0|i0|c128|p50;A}
 73
     1
 44
1.0
1001
AcDbBlockRepETag
1070
     1
1071
       45
1005
50E
  0
MTEXT
  5
50F
330
42F
100
AcDbEntity
  8
0
100
AcDbMText
 10
12.5
 20
127.5
 30
0.0
 40
2.0
 41
4.999999999999992
 46
45.0
 71
     5
 72
     5
  1
{\fMS PGothic|b0|i0|c128|p50;B}
 73
     1
 44
1.0
1001
AcDbBlockRepETag
1070
     1
1071
       46
1005
50F
  0
MTEXT
  5
510
330
42F
100
AcDbEntity
  8
0
100
AcDbMText
 10
12.5
 20
82.5
 30
0.0
 40
2.0
 41
4.999999999999992
 46
45.0
 71
     5
 72
     5
  1
{\fMS PGothic|b0|i0|c128|p50;C}
 73
     1
 44
1.0
1001
AcDbBlockRepETag
1070
     1
1071
       47
1005
510
  0
MTEXT
  5
511
330
42F
100
AcDbEntity
  8
0
100
AcDbMText
 10
12.5
 20
37.5
 30
0.0
 40
2.0
 41
4.999999999999992
 46
45.0
 71
     5
 72
     5
  1
{\fMS PGothic|b0|i0|c128|p50;D}
 73
     1
 44
1.0
1001
AcDbBlockRepETag
1070
     1
1071
       48
1005
511
  0
MTEXT
  5
512
330
42F
100
AcDbEntity
  8
0
100
AcDbMText
 10
284.5
 20
172.4999999999999
 30
0.0
 40
2.0
 41
4.999999999999992
 46
45.0
 71
     5
 72
     5
  1
{\fMS PGothic|b0|i0|c128|p50;A}
 73
     1
 44
1.0
1001
AcDbBlockRepETag
1070
     1
1071
       49
1005
512
  0
MTEXT
  5
513
330
42F
100
AcDbEntity
  8
0
100
AcDbMText
 10
284.5
 20
127.4999999999999
 30
0.0
 40
2.0
 41
4.999999999999992
 46
45.0
 71
     5
 72
     5
  1
{\fMS PGothic|b0|i0|c128|p50;B}
 73
     1
 44
1.0
1001
AcDbBlockRepETag
1070
     1
1071
       50
1005
513
  0
MTEXT
  5
514
330
42F
100
AcDbEntity
  8
0
100
AcDbMText
 10
284.5
 20
82.49999999999991
 30
0.0
 40
2.0
 41
4.999999999999992
 46
45.0
 71
     5
 72
     5
  1
{\fMS PGothic|b0|i0|c128|p50;C}
 73
     1
 44
1.0
1001
AcDbBlockRepETag
1070
     1
1071
       51
1005
514
  0
MTEXT
  5
515
330
42F
100
AcDbEntity
  8
0
100
AcDbMText
 10
284.5
 20
37.49999999999992
 30
0.0
 40
2.0
 41
4.999999999999992
 46
45.0
 71
     5
 72
     5
  1
{\fMS PGothic|b0|i0|c128|p50;D}
 73
     1
 44
1.0
1001
AcDbBlockRepETag
1070
     1
1071
       52
1005
515
  0
CIRCLE
  5
516
330
42F
100
AcDbEntity
  8
0
100
AcDbCircle
 10
192.0812866212884
 20
45.00834951764214
 30
0.0
 40
2.799999999999999
1001
AcDbBlockRepETag
1070
     1
1071
       53
1005
516
  0
CIRCLE
  5
517
330
42F
100
AcDbEntity
  8
0
100
AcDbCircle
 10
192.0812866212884
 20
45.00834951764214
 30
0.0
 40
1.6
1001
AcDbBlockRepETag
1070
     1
1071
       54
1005
517
  0
LINE
  5
518
330
42F
100
AcDbEntity
  8
0
100
AcDbLine
 10
197.2812866212884
 20
46.60834951764214
 30
0.0
 11
204.0812866212884
 21
47.80834951764214
 31
0.0
1001
AcDbBlockRepETag
1070
     1
1071
       55
1005
518
  0
LINE
  5
519
330
42F
100
AcDbEntity
  8
0
100
AcDbLine
 10
197.2812866212884
 20
46.60834951764214
 30
0.0
 11
197.2812866212884
 21
43.40834951764214
 31
0.0
1001
AcDbBlockRepETag
1070
     1
1071
       56
1005
519
  0
LINE
  5
51A
330
42F
100
AcDbEntity
  8
0
100
AcDbLine
 10
204.0812866212884
 20
47.80834951764214
 30
0.0
 11
204.0812866212884
 21
42.20834951764214
 31
0.0
1001
AcDbBlockRepETag
1070
     1
1071
       57
1005
51A
  0
LINE
  5
51B
330
42F
100
AcDbEntity
  8
0
100
AcDbLine
 10
197.2812866212884
 20
43.40834951764214
 30
0.0
 11
204.0812866212884
 21
42.20834951764214
 31
0.0
1001
AcDbBlockRepETag
1070
     1
1071
       58
1005
51B
  0
LINE
  5
51C
330
42F
100
AcDbEntity
  8
0
100
AcDbLine
 10
192.0812866212884
 20
48.60834951764214
 30
0.0
 11
192.0812866212884
 21
41.40834951764214
 31
0.0
1001
AcDbBlockRepETag
1070
     1
1071
       59
1005
51C
  0
LINE
  5
51D
330
42F
100
AcDbEntity
  8
0
100
AcDbLine
 10
188.5066509681369
 20
45.00834951764214
 30
0.0
 11
195.6524624469594
 21
45.00834951764214
 31
0.0
1001
AcDbBlockRepETag
1070
     1
1071
       60
1005
51D
  0
LINE
  5
51E
330
42F
100
AcDbEntity
  8
0
100
AcDbLine
 10
196.4812866212884
 20
45.00834951764214
 30
0.0
 11
204.8812866212884
 21
45.00834951764214
 31
0.0
1001
AcDbBlockRepETag
1070
     1
1071
       61
1005
51E
  0
MTEXT
  5
51F
330
42F
100
AcDbEntity
  8
0
100
AcDbMText
 10
212.096194219452
 20
29.00000000000001
 30
0.0
 40
1.0
 41
8.780474292418944
 46
0.0
 71
     1
 72
     5
  1
{\fMS PGothic|b0|i0|c128|p50;　社　名}
 73
     1
 44
1.0
1001
AcDbBlockRepETag
1070
     1
1071
       62
1005
51F
  0
MTEXT
  5
520
330
42F
100
AcDbEntity
  8
0
100
AcDbMText
 10
212.096194219452
 20
39.0
 30
0.0
 40
1.0
 41
8.780474292418944
 46
0.0
 71
     1
 72
     5
  1
{\fMS PGothic|b0|i0|c128|p50;　品 名 2}
 73
     1
 44
1.0
1001
AcDbBlockRepETag
1070
     1
1071
       63
1005
520
  0
MTEXT
  5
521
330
42F
100
AcDbEntity
  8
0
100
AcDbMText
 10
212.096194219452
 20
49.00000000000001
 30
0.0
 40
1.0
 41
8.780474292418944
 46
0.0
 71
     1
 72
     5
  1
{\fMS PGothic|b0|i0|c128|p50;　品 名 1}
 73
     1
 44
1.0
1001
AcDbBlockRepETag
1070
     1
1071
       64
1005
521
  0
MTEXT
  5
522
330
42F
100
AcDbEntity
  8
0
100
AcDbMText
 10
181.9999999999999
 20
49.00000000000001
 30
0.0
 40
1.0
 41
8.780474292418944
 46
0.0
 71
     1
 72
     5
  1
{\fMS PGothic|b0|i0|c128|p50;　図　法}
 73
     1
 44
1.0
1001
AcDbBlockRepETag
1070
     1
1071
       65
1005
522
  0
MTEXT
  5
523
330
42F
100
AcDbEntity
  8
0
100
AcDbMText
 10
181.9999999999999
 20
34.00000000000002
 30
0.0
 40
1.0
 41
8.780474292418944
 46
0.0
 71
     1
 72
     5
  1
{\fMS PGothic|b0|i0|c128|p50;　製　図}
 73
     1
 44
1.0
1001
AcDbBlockRepETag
1070
     1
1071
       66
1005
523
  0
MTEXT
  5
524
330
42F
100
AcDbEntity
  8
0
100
AcDbMText
 10
197.0480971097259
 20
37.50000000000002
 30
0.0
 40
2.0
 41
30.09619421945209
 46
5.000000000000011
 71
     5
 72
     5
  1
{\fMS PGothic|b0|i0|c128|p50;1 ： 2}
 73
     1
 44
1.0
1001
AcDbBlockRepETag
1070
     1
1071
       67
1005
524
  0
MTEXT
  5
525
330
42F
100
AcDbEntity
  8
0
100
AcDbMText
 10
181.9999999999999
 20
39.00000000000002
 30
0.0
 40
1.0
 41
8.780474292418944
 46
0.0
 71
     1
 72
     5
  1
{\fMS PGothic|b0|i0|c128|p50;　尺　度}
 73
     1
 44
1.0
1001
AcDbBlockRepETag
1070
     1
1071
       68
1005
525
  0
MTEXT
  5
526
330
42F
100
AcDbEntity
  8
0
100
AcDbMText
 10
224.6818550727283
 20
19.50000000000001
 30
0.0
 40
2.0
 41
57.3181449272716
 46
5.000000000000004
 71
     1
 72
     5
  1
{\fMS Gothic|b0|i0|c128|p49;株式会社 ＫＤＡ\H0.5x; (ケーディーエー)}
 73
     1
 44
1.0
1001
AcDbBlockRepETag
1070
     1
1071
       69
1005
526
  0
ENDBLK
  5
47F
330
42F
100
AcDbEntity
  8
0
100
AcDbBlockEnd
  0
BLOCK
  5
57F
330
534
100
AcDbEntity
  8
0
100
AcDbBlockBegin
  2
A$C783F31C3
 70
     0
 10
0.0
 20
0.0
 30
0.0
  3
A$C783F31C3
  1

  0
LINE
  5
585
330
534
100
AcDbEntity
  8
0
100
AcDbLine
 10
15.0
 20
15.0
 30
0.0
 11
15.00000000000001
 21
195.0
 31
0.0
1001
AcDbBlockRepETag
1070
     1
1071
        0
1005
585
  0
LINE
  5
588
330
534
100
AcDbEntity
  8
0
100
AcDbLine
 10
15.00000000000001
 20
195.0
 30
0.0
 11
282.0
 21
195.0
 31
0.0
1001
AcDbBlockRepETag
1070
     1
1071
        1
1005
588
  0
LINE
  5
58B
330
534
100
AcDbEntity
  8
0
100
AcDbLine
 10
282.0
 20
195.0
 30
0.0
 11
281.9999999999999
 21
15.0
 31
0.0
1001
AcDbBlockRepETag
1070
     1
1071
        2
1005
58B
  0
LINE
  5
58E
330
534
100
AcDbEntity
  8
0
100
AcDbLine
 10
281.9999999999999
 20
15.0
 30
0.0
 11
15.0
 21
15.0
 31
0.0
1001
AcDbBlockRepETag
1070
     1
1071
        3
1005
58E
  0
LINE
  5
591
330
534
100
AcDbEntity
  8
0
100
AcDbLine
 10
281.9999999999999
 20
30.00000000000001
 30
0.0
 11
212.096194219452
 21
30.00000000000002
 31
0.0
1001
AcDbBlockRepETag
1070
     1
1071
        4
1005
591
  0
LINE
  5
592
330
534
100
AcDbEntity
  8
0
100
AcDbLine
 10
181.9999999999999
 20
50.0
 30
0.0
 11
181.9999999999999
 21
15.0
 31
0.0
1001
AcDbBlockRepETag
1070
     1
1071
        5
1005
592
  0
LINE
  5
593
330
534
100
AcDbEntity
  8
0
100
AcDbLine
 10
181.9999999999999
 20
40.0
 30
0.0
 11
281.9999999999999
 21
40.0
 31
0.0
1001
AcDbBlockRepETag
1070
     1
1071
        6
1005
593
  0
LINE
  5
594
330
534
100
AcDbEntity
  8
0
100
AcDbLine
 10
181.9999999999999
 20
35.00000000000002
 30
0.0
 11
212.096194219452
 21
35.0
 31
0.0
1001
AcDbBlockRepETag
1070
     1
1071
        7
1005
594
  0
LINE
  5
595
330
534
100
AcDbEntity
  8
0
100
AcDbLine
 10
181.9999999999999
 20
30.00000000000002
 30
0.0
 11
212.096194219452
 21
30.0
 31
0.0
1001
AcDbBlockRepETag
1070
     1
1071
        8
1005
595
  0
LINE
  5
596
330
534
100
AcDbEntity
  8
0
100
AcDbLine
 10
181.9999999999999
 20
25.00000000000002
 30
0.0
 11
212.096194219452
 21
25.00000000000001
 31
0.0
1001
AcDbBlockRepETag
1070
     1
1071
        9
1005
596
  0
LINE
  5
597
330
534
100
AcDbEntity
  8
0
100
AcDbLine
 10
181.9999999999999
 20
20.00000000000001
 30
0.0
 11
212.096194219452
 21
20.00000000000001
 31
0.0
1001
AcDbBlockRepETag
1070
     1
1071
       10
1005
597
  0
LINE
  5
598
330
534
100
AcDbEntity
  8
0
100
AcDbLine
 10
181.9999999999999
 20
50.0
 30
0.0
 11
281.9999999999999
 21
50.0
 31
0.0
1001
AcDbBlockRepETag
1070
     1
1071
       11
1005
598
  0
LINE
  5
599
330
534
100
AcDbEntity
  8
0
100
AcDbLine
 10
212.096194219452
 20
50.0
 30
0.0
 11
212.096194219452
 21
15.00000000000001
 31
0.0
1001
AcDbBlockRepETag
1070
     1
1071
       12
1005
599
  0
MTEXT
  5
59A
330
534
100
AcDbEntity
  8
0
100
AcDbMText
 10
247.048097109726
 20
23.00000000000001
 30
0.0
 40
20.0
 41
69.90380578054788
 46
14.0
 71
     5
 72
     5
  1
{\fArial Black|b0|i0|c0|p34;\H0.25x;KDA\H0.6x; Corporation}
 73
     1
 44
1.0
1001
AcDbBlockRepETag
1070
     1
1071
       13
1005
59A
  0
LINE
  5
59B
330
534
100
AcDbEntity
  8
0
100
AcDbLine
 10
148.4999999999999
 20
15.0
 30
0.0
 11
148.4999999999999
 21
10.0
 31
0.0
1001
AcDbBlockRepETag
1070
     1
1071
       14
1005
59B
  0
LINE
  5
59C
330
534
100
AcDbEntity
  8
0
100
AcDbLine
 10
192.9999999999999
 20
15.0
 30
0.0
 11
192.9999999999999
 21
10.0
 31
0.0
1001
AcDbBlockRepETag
1070
     1
1071
       15
1005
59C
  0
LINE
  5
59D
330
534
100
AcDbEntity
  8
0
100
AcDbLine
 10
237.5
 20
15.0
 30
0.0
 11
237.5
 21
10.0
 31
0.0
1001
AcDbBlockRepETag
1070
     1
1071
       16
1005
59D
  0
LINE
  5
59E
330
534
100
AcDbEntity
  8
0
100
AcDbLine
 10
104.0
 20
15.0
 30
0.0
 11
104.0
 21
10.0
 31
0.0
1001
AcDbBlockRepETag
1070
     1
1071
       17
1005
59E
  0
LINE
  5
59F
330
534
100
AcDbEntity
  8
0
100
AcDbLine
 10
59.49999999999997
 20
15.0
 30
0.0
 11
59.49999999999997
 21
10.0
 31
0.0
1001
AcDbBlockRepETag
1070
     1
1071
       18
1005
59F
  0
LINE
  5
5A0
330
534
100
AcDbEntity
  8
0
100
AcDbLine
 10
15.0
 20
105.0
 30
0.0
 11
10.0
 21
105.0
 31
0.0
1001
AcDbBlockRepETag
1070
     1
1071
       19
1005
5A0
  0
LINE
  5
5A1
330
534
100
AcDbEntity
  8
0
100
AcDbLine
 10
15.0
 20
150.0
 30
0.0
 11
10.0
 21
150.0
 31
0.0
1001
AcDbBlockRepETag
1070
     1
1071
       20
1005
5A1
  0
LINE
  5
5A2
330
534
100
AcDbEntity
  8
0
100
AcDbLine
 10
15.0
 20
60.0
 30
0.0
 11
10.0
 21
60.0
 31
0.0
1001
AcDbBlockRepETag
1070
     1
1071
       21
1005
5A2
  0
LINE
  5
5A3
330
534
100
AcDbEntity
  8
0
100
AcDbLine
 10
148.4999999999999
 20
195.0
 30
0.0
 11
148.4999999999999
 21
200.0
 31
0.0
1001
AcDbBlockRepETag
1070
     1
1071
       22
1005
5A3
  0
LINE
  5
5A4
330
534
100
AcDbEntity
  8
0
100
AcDbLine
 10
192.9999999999999
 20
195.0
 30
0.0
 11
192.9999999999999
 21
200.0
 31
0.0
1001
AcDbBlockRepETag
1070
     1
1071
       23
1005
5A4
  0
LINE
  5
5A5
330
534
100
AcDbEntity
  8
0
100
AcDbLine
 10
237.5
 20
195.0
 30
0.0
 11
237.5
 21
200.0
 31
0.0
1001
AcDbBlockRepETag
1070
     1
1071
       24
1005
5A5
  0
LINE
  5
5A6
330
534
100
AcDbEntity
  8
0
100
AcDbLine
 10
104.0
 20
195.0
 30
0.0
 11
104.0
 21
200.0
 31
0.0
1001
AcDbBlockRepETag
1070
     1
1071
       25
1005
5A6
  0
LINE
  5
5A7
330
534
100
AcDbEntity
  8
0
100
AcDbLine
 10
59.49999999999997
 20
195.0
 30
0.0
 11
59.49999999999997
 21
200.0
 31
0.0
1001
AcDbBlockRepETag
1070
     1
1071
       26
1005
5A7
  0
LINE
  5
5A8
330
534
100
AcDbEntity
  8
0
100
AcDbLine
 10
281.9999999999999
 20
105.0
 30
0.0
 11
287.0
 21
105.0
 31
0.0
1001
AcDbBlockRepETag
1070
     1
1071
       27
1005
5A8
  0
LINE
  5
5A9
330
534
100
AcDbEntity
  8
0
100
AcDbLine
 10
281.9999999999999
 20
150.0
 30
0.0
 11
287.0
 21
150.0
 31
0.0
1001
AcDbBlockRepETag
1070
     1
1071
       28
1005
5A9
  0
LINE
  5
5AA
330
534
100
AcDbEntity
  8
0
100
AcDbLine
 10
281.9999999999999
 20
60.0
 30
0.0
 11
287.0
 21
60.0
 31
0.0
1001
AcDbBlockRepETag
1070
     1
1071
       29
1005
5AA
  0
MTEXT
  5
5AB
330
534
100
AcDbEntity
  8
0
100
AcDbMText
 10
37.25
 20
197.5
 30
0.0
 40
2.0
 41
44.49999999999996
 46
5.0
 71
     5
 72
     5
  1
{\fMS PGothic|b0|i0|c128|p50;1}
 73
     1
 44
1.0
1001
AcDbBlockRepETag
1070
     1
1071
       30
1005
5AB
  0
MTEXT
  5
5AC
330
534
100
AcDbEntity
  8
0
100
AcDbMText
 10
81.74999999999995
 20
197.5
 30
0.0
 40
2.0
 41
44.49999999999996
 46
5.0
 71
     5
 72
     5
  1
{\fMS PGothic|b0|i0|c128|p50;2}
 73
     1
 44
1.0
1001
AcDbBlockRepETag
1070
     1
1071
       31
1005
5AC
  0
MTEXT
  5
5AD
330
534
100
AcDbEntity
  8
0
100
AcDbMText
 10
126.2499999999999
 20
197.5
 30
0.0
 40
2.0
 41
44.49999999999996
 46
5.0
 71
     5
 72
     5
  1
{\fMS PGothic|b0|i0|c128|p50;3}
 73
     1
 44
1.0
1001
AcDbBlockRepETag
1070
     1
1071
       32
1005
5AD
  0
MTEXT
  5
5AE
330
534
100
AcDbEntity
  8
0
100
AcDbMText
 10
170.7499999999999
 20
197.5
 30
0.0
 40
2.0
 41
44.49999999999996
 46
5.0
 71
     5
 72
     5
  1
{\fMS PGothic|b0|i0|c128|p50;4}
 73
     1
 44
1.0
1001
AcDbBlockRepETag
1070
     1
1071
       33
1005
5AE
  0
MTEXT
  5
5AF
330
534
100
AcDbEntity
  8
0
100
AcDbMText
 10
215.2499999999999
 20
197.5
 30
0.0
 40
2.0
 41
44.49999999999996
 46
5.0
 71
     5
 72
     5
  1
{\fMS PGothic|b0|i0|c128|p50;5}
 73
     1
 44
1.0
1001
AcDbBlockRepETag
1070
     1
1071
       34
1005
5AF
  0
MTEXT
  5
5B0
330
534
100
AcDbEntity
  8
0
100
AcDbMText
 10
259.75
 20
197.5
 30
0.0
 40
2.0
 41
44.49999999999996
 46
5.0
 71
     5
 72
     5
  1
{\fMS PGothic|b0|i0|c128|p50;6}
 73
     1
 44
1.0
1001
AcDbBlockRepETag
1070
     1
1071
       35
1005
5B0
  0
MTEXT
  5
5B1
330
534
100
AcDbEntity
  8
0
100
AcDbMText
 10
37.25
 20
12.5
 30
0.0
 40
2.0
 41
44.49999999999996
 46
5.0
 71
     5
 72
     5
  1
{\fMS PGothic|b0|i0|c128|p50;1}
 73
     1
 44
1.0
1001
AcDbBlockRepETag
1070
     1
1071
       36
1005
5B1
  0
MTEXT
  5
5B2
330
534
100
AcDbEntity
  8
0
100
AcDbMText
 10
81.74999999999995
 20
12.5
 30
0.0
 40
2.0
 41
44.49999999999996
 46
5.0
 71
     5
 72
     5
  1
{\fMS PGothic|b0|i0|c128|p50;2}
 73
     1
 44
1.0
1001
AcDbBlockRepETag
1070
     1
1071
       37
1005
5B2
  0
MTEXT
  5
5B3
330
534
100
AcDbEntity
  8
0
100
AcDbMText
 10
126.2499999999999
 20
12.5
 30
0.0
 40
2.0
 41
44.49999999999996
 46
5.0
 71
     5
 72
     5
  1
{\fMS PGothic|b0|i0|c128|p50;3}
 73
     1
 44
1.0
1001
AcDbBlockRepETag
1070
     1
1071
       38
1005
5B3
  0
MTEXT
  5
5B4
330
534
100
AcDbEntity
  8
0
100
AcDbMText
 10
170.7499999999999
 20
12.5
 30
0.0
 40
2.0
 41
44.49999999999996
 46
5.0
 71
     5
 72
     5
  1
{\fMS PGothic|b0|i0|c128|p50;4}
 73
     1
 44
1.0
1001
AcDbBlockRepETag
1070
     1
1071
       39
1005
5B4
  0
MTEXT
  5
5B5
330
534
100
AcDbEntity
  8
0
100
AcDbMText
 10
215.2499999999999
 20
12.5
 30
0.0
 40
2.0
 41
44.49999999999996
 46
5.0
 71
     5
 72
     5
  1
{\fMS PGothic|b0|i0|c128|p50;5}
 73
     1
 44
1.0
1001
AcDbBlockRepETag
1070
     1
1071
       40
1005
5B5
  0
MTEXT
  5
5B6
330
534
100
AcDbEntity
  8
0
100
AcDbMText
 10
259.75
 20
12.5
 30
0.0
 40
2.0
 41
44.49999999999996
 46
5.0
 71
     5
 72
     5
  1
{\fMS PGothic|b0|i0|c128|p50;6}
 73
     1
 44
1.0
1001
AcDbBlockRepETag
1070
     1
1071
       41
1005
5B6
  0
MTEXT
  5
5B7
330
534
100
AcDbEntity
  8
0
100
AcDbMText
 10
12.5
 20
172.5
 30
0.0
 40
2.0
 41
4.999999999999992
 46
45.0
 71
     5
 72
     5
  1
{\fMS PGothic|b0|i0|c128|p50;A}
 73
     1
 44
1.0
1001
AcDbBlockRepETag
1070
     1
1071
       42
1005
5B7
  0
MTEXT
  5
5B8
330
534
100
AcDbEntity
  8
0
100
AcDbMText
 10
12.5
 20
127.5
 30
0.0
 40
2.0
 41
4.999999999999992
 46
45.0
 71
     5
 72
     5
  1
{\fMS PGothic|b0|i0|c128|p50;B}
 73
     1
 44
1.0
1001
AcDbBlockRepETag
1070
     1
1071
       43
1005
5B8
  0
MTEXT
  5
5B9
330
534
100
AcDbEntity
  8
0
100
AcDbMText
 10
12.5
 20
82.5
 30
0.0
 40
2.0
 41
4.999999999999992
 46
45.0
 71
     5
 72
     5
  1
{\fMS PGothic|b0|i0|c128|p50;C}
 73
     1
 44
1.0
1001
AcDbBlockRepETag
1070
     1
1071
       44
1005
5B9
  0
MTEXT
  5
5BA
330
534
100
AcDbEntity
  8
0
100
AcDbMText
 10
12.5
 20
37.5
 30
0.0
 40
2.0
 41
4.999999999999992
 46
45.0
 71
     5
 72
     5
  1
{\fMS PGothic|b0|i0|c128|p50;D}
 73
     1
 44
1.0
1001
AcDbBlockRepETag
1070
     1
1071
       45
1005
5BA
  0
MTEXT
  5
5BB
330
534
100
AcDbEntity
  8
0
100
AcDbMText
 10
284.5
 20
172.4999999999999
 30
0.0
 40
2.0
 41
4.999999999999992
 46
45.0
 71
     5
 72
     5
  1
{\fMS PGothic|b0|i0|c128|p50;A}
 73
     1
 44
1.0
1001
AcDbBlockRepETag
1070
     1
1071
       46
1005
5BB
  0
MTEXT
  5
5BC
330
534
100
AcDbEntity
  8
0
100
AcDbMText
 10
284.5
 20
127.4999999999999
 30
0.0
 40
2.0
 41
4.999999999999992
 46
45.0
 71
     5
 72
     5
  1
{\fMS PGothic|b0|i0|c128|p50;B}
 73
     1
 44
1.0
1001
AcDbBlockRepETag
1070
     1
1071
       47
1005
5BC
  0
MTEXT
  5
5BD
330
534
100
AcDbEntity
  8
0
100
AcDbMText
 10
284.5
 20
82.49999999999991
 30
0.0
 40
2.0
 41
4.999999999999992
 46
45.0
 71
     5
 72
     5
  1
{\fMS PGothic|b0|i0|c128|p50;C}
 73
     1
 44
1.0
1001
AcDbBlockRepETag
1070
     1
1071
       48
1005
5BD
  0
MTEXT
  5
5BE
330
534
100
AcDbEntity
  8
0
100
AcDbMText
 10
284.5
 20
37.49999999999992
 30
0.0
 40
2.0
 41
4.999999999999992
 46
45.0
 71
     5
 72
     5
  1
{\fMS PGothic|b0|i0|c128|p50;D}
 73
     1
 44
1.0
1001
AcDbBlockRepETag
1070
     1
1071
       49
1005
5BE
  0
CIRCLE
  5
5BF
330
534
100
AcDbEntity
  8
0
100
AcDbCircle
 10
192.0812866212884
 20
45.00834951764214
 30
0.0
 40
2.799999999999999
1001
AcDbBlockRepETag
1070
     1
1071
       50
1005
5BF
  0
CIRCLE
  5
5C0
330
534
100
AcDbEntity
  8
0
100
AcDbCircle
 10
192.0812866212884
 20
45.00834951764214
 30
0.0
 40
1.6
1001
AcDbBlockRepETag
1070
     1
1071
       51
1005
5C0
  0
LINE
  5
5C1
330
534
100
AcDbEntity
  8
0
100
AcDbLine
 10
197.2812866212884
 20
46.60834951764214
 30
0.0
 11
204.0812866212884
 21
47.80834951764214
 31
0.0
1001
AcDbBlockRepETag
1070
     1
1071
       52
1005
5C1
  0
LINE
  5
5C2
330
534
100
AcDbEntity
  8
0
100
AcDbLine
 10
197.2812866212884
 20
46.60834951764214
 30
0.0
 11
197.2812866212884
 21
43.40834951764214
 31
0.0
1001
AcDbBlockRepETag
1070
     1
1071
       53
1005
5C2
  0
LINE
  5
5C3
330
534
100
AcDbEntity
  8
0
100
AcDbLine
 10
204.0812866212884
 20
47.80834951764214
 30
0.0
 11
204.0812866212884
 21
42.20834951764214
 31
0.0
1001
AcDbBlockRepETag
1070
     1
1071
       54
1005
5C3
  0
LINE
  5
5C4
330
534
100
AcDbEntity
  8
0
100
AcDbLine
 10
197.2812866212884
 20
43.40834951764214
 30
0.0
 11
204.0812866212884
 21
42.20834951764214
 31
0.0
1001
AcDbBlockRepETag
1070
     1
1071
       55
1005
5C4
  0
LINE
  5
5C5
330
534
100
AcDbEntity
  8
0
100
AcDbLine
 10
192.0812866212884
 20
48.60834951764214
 30
0.0
 11
192.0812866212884
 21
41.40834951764214
 31
0.0
1001
AcDbBlockRepETag
1070
     1
1071
       56
1005
5C5
  0
LINE
  5
5C6
330
534
100
AcDbEntity
  8
0
100
AcDbLine
 10
188.5066509681369
 20
45.00834951764214
 30
0.0
 11
195.6524624469594
 21
45.00834951764214
 31
0.0
1001
AcDbBlockRepETag
1070
     1
1071
       57
1005
5C6
  0
LINE
  5
5C7
330
534
100
AcDbEntity
  8
0
100
AcDbLine
 10
196.4812866212884
 20
45.00834951764214
 30
0.0
 11
204.8812866212884
 21
45.00834951764214
 31
0.0
1001
AcDbBlockRepETag
1070
     1
1071
       58
1005
5C7
  0
MTEXT
  5
5C8
330
534
100
AcDbEntity
  8
0
100
AcDbMText
 10
212.096194219452
 20
29.00000000000001
 30
0.0
 40
1.0
 41
8.780474292418944
 46
0.0
 71
     1
 72
     5
  1
{\fMS PGothic|b0|i0|c128|p50;　社　名}
 73
     1
 44
1.0
1001
AcDbBlockRepETag
1070
     1
1071
       59
1005
5C8
  0
MTEXT
  5
5C9
330
534
100
AcDbEntity
  8
0
100
AcDbMText
 10
212.096194219452
 20
39.0
 30
0.0
 40
1.0
 41
8.780474292418944
 46
0.0
 71
     1
 72
     5
  1
{\fMS PGothic|b0|i0|c128|p50;　品 名 2}
 73
     1
 44
1.0
1001
AcDbBlockRepETag
1070
     1
1071
       60
1005
5C9
  0
MTEXT
  5
5CA
330
534
100
AcDbEntity
  8
0
100
AcDbMText
 10
212.096194219452
 20
49.00000000000001
 30
0.0
 40
1.0
 41
8.780474292418944
 46
0.0
 71
     1
 72
     5
  1
{\fMS PGothic|b0|i0|c128|p50;　品 名 1}
 73
     1
 44
1.0
1001
AcDbBlockRepETag
1070
     1
1071
       61
1005
5CA
  0
MTEXT
  5
5CB
330
534
100
AcDbEntity
  8
0
100
AcDbMText
 10
181.9999999999999
 20
49.00000000000001
 30
0.0
 40
1.0
 41
8.780474292418944
 46
0.0
 71
     1
 72
     5
  1
{\fMS PGothic|b0|i0|c128|p50;　図　法}
 73
     1
 44
1.0
1001
AcDbBlockRepETag
1070
     1
1071
       62
1005
5CB
  0
MTEXT
  5
5CC
330
534
100
AcDbEntity
  8
0
100
AcDbMText
 10
181.9999999999999
 20
34.00000000000002
 30
0.0
 40
1.0
 41
8.780474292418944
 46
0.0
 71
     1
 72
     5
  1
{\fMS PGothic|b0|i0|c128|p50;　製　図}
 73
     1
 44
1.0
1001
AcDbBlockRepETag
1070
     1
1071
       63
1005
5CC
  0
MTEXT
  5
5CD
330
534
100
AcDbEntity
  8
0
100
AcDbMText
 10
181.9999999999999
 20
39.00000000000002
 30
0.0
 40
1.0
 41
8.780474292418944
 46
0.0
 71
     1
 72
     5
  1
{\fMS PGothic|b0|i0|c128|p50;　尺　度}
 73
     1
 44
1.0
1001
AcDbBlockRepETag
1070
     1
1071
       64
1005
5CD
  0
MTEXT
  5
5CE
330
534
100
AcDbEntity
  8
0
100
AcDbMText
 10
224.6818550727283
 20
19.50000000000001
 30
0.0
 40
2.0
 41
57.3181449272716
 46
5.000000000000004
 71
     1
 72
     5
  1
{\fMS Gothic|b0|i0|c128|p49;株式会社 ＫＤＡ\H0.5x; (ケーディーエー)}
 73
     1
 44
1.0
1001
AcDbBlockRepETag
1070
     1
1071
       65
1005
5CE
  0
ENDBLK
  5
580
330
534
100
AcDbEntity
  8
0
100
AcDbBlockEnd
  0
BLOCK
  5
7F8
330
7A7
100
AcDbEntity
  8
0
100
AcDbBlockBegin
  2
A$C66450189
 70
     0
 10
0.0
 20
0.0
 30
0.0
  3
A$C66450189
  1

  0
LINE
  5
7A8
330
7A7
100
AcDbEntity
  8
0
100
AcDbLine
 10
15.00000035711195
 20
15.00000015151909
 30
0.0
 11
15.00000035711196
 21
195.0000001515191
 31
0.0
  0
LINE
  5
7A9
330
7A7
100
AcDbEntity
  8
0
100
AcDbLine
 10
0.0000003571119579
 20
0.0000001515190906
 30
0.0
 11
0.0000003571119586
 21
15.00000015151909
 31
0.0
  0
LINE
  5
7AA
330
7A7
100
AcDbEntity
  8
0
100
AcDbLine
 10
0.0000003571119669
 20
195.0000001515191
 30
0.0
 11
0.0000003571119676
 21
210.0000001515191
 31
0.0
  0
LINE
  5
7AB
330
7A7
100
AcDbEntity
  8
0
100
AcDbLine
 10
15.00000035711196
 20
195.0000001515191
 30
0.0
 11
282.000000357112
 21
195.0000001515191
 31
0.0
  0
LINE
  5
7AC
330
7A7
100
AcDbEntity
  8
0
100
AcDbLine
 10
0.0000003571119676
 20
210.0000001515191
 30
0.0
 11
15.00000035711197
 21
210.0000001515191
 31
0.0
  0
LINE
  5
7AD
330
7A7
100
AcDbEntity
  8
0
100
AcDbLine
 10
282.000000357112
 20
210.0000001515191
 30
0.0
 11
297.000000357112
 21
210.0000001515191
 31
0.0
  0
LINE
  5
7AE
330
7A7
100
AcDbEntity
  8
0
100
AcDbLine
 10
282.000000357112
 20
195.0000001515191
 30
0.0
 11
282.0000003571119
 21
15.00000015151909
 31
0.0
  0
LINE
  5
7AF
330
7A7
100
AcDbEntity
  8
0
100
AcDbLine
 10
297.000000357112
 20
210.0000001515191
 30
0.0
 11
297.000000357112
 21
195.0000001515191
 31
0.0
  0
LINE
  5
7B0
330
7A7
100
AcDbEntity
  8
0
100
AcDbLine
 10
297.0000003571119
 20
15.00000015151909
 30
0.0
 11
297.0000003571119
 21
0.0000001515190888
 31
0.0
  0
LINE
  5
7B1
330
7A7
100
AcDbEntity
  8
0
100
AcDbLine
 10
282.0000003571119
 20
15.00000015151909
 30
0.0
 11
15.00000035711195
 21
15.00000015151909
 31
0.0
  0
LINE
  5
7B2
330
7A7
100
AcDbEntity
  8
0
100
AcDbLine
 10
297.0000003571119
 20
0.0000001515190888
 30
0.0
 11
282.0000003571119
 21
0.0000001515190889
 31
0.0
  0
LINE
  5
7B3
330
7A7
100
AcDbEntity
  8
0
100
AcDbLine
 10
15.00000035711195
 20
0.0000001515190905
 30
0.0
 11
0.0000003571119578
 21
0.0000001515190906
 31
0.0
  0
LINE
  5
7B4
330
7A7
100
AcDbEntity
  8
0
100
AcDbLine
 10
282.0000003571119
 20
30.0000001515191
 30
0.0
 11
212.096194576564
 21
30.00000015151911
 31
0.0
  0
LINE
  5
7B5
330
7A7
100
AcDbEntity
  8
0
100
AcDbLine
 10
182.0000003571119
 20
50.00000015151909
 30
0.0
 11
182.0000003571119
 21
15.00000015151909
 31
0.0
  0
LINE
  5
7B6
330
7A7
100
AcDbEntity
  8
0
100
AcDbLine
 10
182.0000003571119
 20
40.0000001515191
 30
0.0
 11
282.0000003571119
 21
40.00000015151907
 31
0.0
  0
LINE
  5
7B7
330
7A7
100
AcDbEntity
  8
0
100
AcDbLine
 10
182.0000003571119
 20
35.0000001515191
 30
0.0
 11
212.096194576564
 21
35.00000015151909
 31
0.0
  0
LINE
  5
7B8
330
7A7
100
AcDbEntity
  8
0
100
AcDbLine
 10
182.0000003571119
 20
30.0000001515191
 30
0.0
 11
212.096194576564
 21
30.00000015151909
 31
0.0
  0
LINE
  5
7B9
330
7A7
100
AcDbEntity
  8
0
100
AcDbLine
 10
182.0000003571119
 20
25.0000001515191
 30
0.0
 11
212.096194576564
 21
25.0000001515191
 31
0.0
  0
LINE
  5
7BA
330
7A7
100
AcDbEntity
  8
0
100
AcDbLine
 10
182.0000003571119
 20
20.0000001515191
 30
0.0
 11
212.096194576564
 21
20.00000015151909
 31
0.0
  0
LINE
  5
7BB
330
7A7
100
AcDbEntity
  8
0
100
AcDbLine
 10
182.0000003571119
 20
50.00000015151909
 30
0.0
 11
282.0000003571119
 21
50.00000015151909
 31
0.0
  0
LINE
  5
7BC
330
7A7
100
AcDbEntity
  8
0
100
AcDbLine
 10
212.096194576564
 20
50.00000015151909
 30
0.0
 11
212.096194576564
 21
15.0000001515191
 31
0.0
  0
MTEXT
  5
7BD
330
7A7
100
AcDbEntity
  8
0
100
AcDbMText
 10
247.048097466838
 20
23.0000001515191
 30
0.0
 40
20.0
 41
69.90380578054788
 46
14.0
 71
     5
 72
     5
  1
{\fArial Black|b0|i0|c0|p34;\H0.25x;KDA\H0.6x; Corporation}
 73
     1
 44
1.0
  0
MTEXT
  5
7BE
330
7A7
100
AcDbEntity
  8
0
100
AcDbMText
 10
217.096194576564
 20
45.00000015151908
 30
0.0
 40
3.5
 41
64.90380578054793
 46
10.00000000000002
 71
     4
 72
     5
  1
{\fMS Gothic|b0|i0|c128|p49; \H0.7143x;ARM05-10 アルミナ六角ボルトM5x10L}
 73
     1
 44
1.0
  0
MTEXT
  5
7BF
330
7A7
100
AcDbEntity
  8
0
100
AcDbMText
 10
217.096194576564
 20
35.00000015151908
 30
0.0
 40
3.5
 41
64.90380578054793
 46
10.00000000000001
 71
     4
 72
     5
  1
{\fMS Gothic|b0|i0|c128|p49; \H0.7143x;ZRM05-10 ジルコニア六角ボルトM5x10L}
 73
     1
 44
1.0
  0
MTEXT
  5
7C0
330
7A7
100
AcDbEntity
  8
0
100
AcDbMText
 10
197.0480974668379
 20
32.5000001515191
 30
0.0
 40
2.0
 41
30.09619421945209
 46
5.000000000000011
 71
     5
 72
     5
  1
{\fMS PGothic|b0|i0|c128|p50;W.O 20100422}
 73
     1
 44
1.0
  0
LINE
  5
7C1
330
7A7
100
AcDbEntity
  8
0
100
AcDbLine
 10
148.5000003571119
 20
15.00000015151909
 30
0.0
 11
148.5000003571119
 21
10.00000015151909
 31
0.0
  0
LINE
  5
7C2
330
7A7
100
AcDbEntity
  8
0
100
AcDbLine
 10
193.0000003571119
 20
15.00000015151909
 30
0.0
 11
193.0000003571119
 21
10.00000015151909
 31
0.0
  0
LINE
  5
7C3
330
7A7
100
AcDbEntity
  8
0
100
AcDbLine
 10
237.5000003571119
 20
15.00000015151909
 30
0.0
 11
237.5000003571119
 21
10.00000015151909
 31
0.0
  0
LINE
  5
7C4
330
7A7
100
AcDbEntity
  8
0
100
AcDbLine
 10
104.0000003571119
 20
15.00000015151909
 30
0.0
 11
104.0000003571119
 21
10.00000015151909
 31
0.0
  0
LINE
  5
7C5
330
7A7
100
AcDbEntity
  8
0
100
AcDbLine
 10
59.50000035711193
 20
15.00000015151909
 30
0.0
 11
59.50000035711193
 21
10.00000015151909
 31
0.0
  0
LINE
  5
7C6
330
7A7
100
AcDbEntity
  8
0
100
AcDbLine
 10
15.00000035711196
 20
105.0000001515191
 30
0.0
 11
10.00000035711196
 21
105.0000001515191
 31
0.0
  0
LINE
  5
7C7
330
7A7
100
AcDbEntity
  8
0
100
AcDbLine
 10
15.00000035711196
 20
150.0000001515191
 30
0.0
 11
10.00000035711196
 21
150.0000001515191
 31
0.0
  0
LINE
  5
7C8
330
7A7
100
AcDbEntity
  8
0
100
AcDbLine
 10
15.00000035711196
 20
60.00000015151909
 30
0.0
 11
10.00000035711196
 21
60.00000015151909
 31
0.0
  0
LINE
  5
7C9
330
7A7
100
AcDbEntity
  8
0
100
AcDbLine
 10
148.5000003571119
 20
195.0000001515191
 30
0.0
 11
148.5000003571119
 21
200.0000001515191
 31
0.0
  0
LINE
  5
7CA
330
7A7
100
AcDbEntity
  8
0
100
AcDbLine
 10
193.0000003571119
 20
195.0000001515191
 30
0.0
 11
193.0000003571119
 21
200.0000001515191
 31
0.0
  0
LINE
  5
7CB
330
7A7
100
AcDbEntity
  8
0
100
AcDbLine
 10
237.5000003571119
 20
195.0000001515191
 30
0.0
 11
237.5000003571119
 21
200.0000001515191
 31
0.0
  0
LINE
  5
7CC
330
7A7
100
AcDbEntity
  8
0
100
AcDbLine
 10
104.0000003571119
 20
195.0000001515191
 30
0.0
 11
104.0000003571119
 21
200.0000001515191
 31
0.0
  0
LINE
  5
7CD
330
7A7
100
AcDbEntity
  8
0
100
AcDbLine
 10
59.50000035711193
 20
195.0000001515191
 30
0.0
 11
59.50000035711193
 21
200.0000001515191
 31
0.0
  0
LINE
  5
7CE
330
7A7
100
AcDbEntity
  8
0
100
AcDbLine
 10
282.0000003571119
 20
105.0000001515191
 30
0.0
 11
287.0000003571119
 21
105.0000001515191
 31
0.0
  0
LINE
  5
7CF
330
7A7
100
AcDbEntity
  8
0
100
AcDbLine
 10
282.0000003571119
 20
150.0000001515191
 30
0.0
 11
287.0000003571119
 21
150.0000001515191
 31
0.0
  0
LINE
  5
7D0
330
7A7
100
AcDbEntity
  8
0
100
AcDbLine
 10
282.0000003571119
 20
60.00000015151909
 30
0.0
 11
287.0000003571119
 21
60.00000015151909
 31
0.0
  0
MTEXT
  5
7D1
330
7A7
100
AcDbEntity
  8
0
100
AcDbMText
 10
37.25000035711196
 20
197.5000001515191
 30
0.0
 40
2.0
 41
44.49999999999996
 46
5.0
 71
     5
 72
     5
  1
{\fMS PGothic|b0|i0|c128|p50;1}
 73
     1
 44
1.0
  0
MTEXT
  5
7D2
330
7A7
100
AcDbEntity
  8
0
100
AcDbMText
 10
81.75000035711191
 20
197.5000001515191
 30
0.0
 40
2.0
 41
44.49999999999996
 46
5.0
 71
     5
 72
     5
  1
{\fMS PGothic|b0|i0|c128|p50;2}
 73
     1
 44
1.0
  0
MTEXT
  5
7D3
330
7A7
100
AcDbEntity
  8
0
100
AcDbMText
 10
126.2500003571119
 20
197.5000001515191
 30
0.0
 40
2.0
 41
44.49999999999996
 46
5.0
 71
     5
 72
     5
  1
{\fMS PGothic|b0|i0|c128|p50;3}
 73
     1
 44
1.0
  0
MTEXT
  5
7D4
330
7A7
100
AcDbEntity
  8
0
100
AcDbMText
 10
170.7500003571119
 20
197.5000001515191
 30
0.0
 40
2.0
 41
44.49999999999996
 46
5.0
 71
     5
 72
     5
  1
{\fMS PGothic|b0|i0|c128|p50;4}
 73
     1
 44
1.0
  0
MTEXT
  5
7D5
330
7A7
100
AcDbEntity
  8
0
100
AcDbMText
 10
215.2500003571119
 20
197.5000001515191
 30
0.0
 40
2.0
 41
44.49999999999996
 46
5.0
 71
     5
 72
     5
  1
{\fMS PGothic|b0|i0|c128|p50;5}
 73
     1
 44
1.0
  0
MTEXT
  5
7D6
330
7A7
100
AcDbEntity
  8
0
100
AcDbMText
 10
259.7500003571119
 20
197.5000001515191
 30
0.0
 40
2.0
 41
44.49999999999996
 46
5.0
 71
     5
 72
     5
  1
{\fMS PGothic|b0|i0|c128|p50;6}
 73
     1
 44
1.0
  0
MTEXT
  5
7D7
330
7A7
100
AcDbEntity
  8
0
100
AcDbMText
 10
37.25000035711194
 20
12.50000015151909
 30
0.0
 40
2.0
 41
44.49999999999996
 46
5.0
 71
     5
 72
     5
  1
{\fMS PGothic|b0|i0|c128|p50;1}
 73
     1
 44
1.0
  0
MTEXT
  5
7D8
330
7A7
100
AcDbEntity
  8
0
100
AcDbMText
 10
81.75000035711191
 20
12.50000015151909
 30
0.0
 40
2.0
 41
44.49999999999996
 46
5.0
 71
     5
 72
     5
  1
{\fMS PGothic|b0|i0|c128|p50;2}
 73
     1
 44
1.0
  0
MTEXT
  5
7D9
330
7A7
100
AcDbEntity
  8
0
100
AcDbMText
 10
126.2500003571119
 20
12.50000015151909
 30
0.0
 40
2.0
 41
44.49999999999996
 46
5.0
 71
     5
 72
     5
  1
{\fMS PGothic|b0|i0|c128|p50;3}
 73
     1
 44
1.0
  0
MTEXT
  5
7DA
330
7A7
100
AcDbEntity
  8
0
100
AcDbMText
 10
170.7500003571119
 20
12.50000015151909
 30
0.0
 40
2.0
 41
44.49999999999996
 46
5.0
 71
     5
 72
     5
  1
{\fMS PGothic|b0|i0|c128|p50;4}
 73
     1
 44
1.0
  0
MTEXT
  5
7DB
330
7A7
100
AcDbEntity
  8
0
100
AcDbMText
 10
215.2500003571119
 20
12.50000015151909
 30
0.0
 40
2.0
 41
44.49999999999996
 46
5.0
 71
     5
 72
     5
  1
{\fMS PGothic|b0|i0|c128|p50;5}
 73
     1
 44
1.0
  0
MTEXT
  5
7DC
330
7A7
100
AcDbEntity
  8
0
100
AcDbMText
 10
259.7500003571119
 20
12.50000015151909
 30
0.0
 40
2.0
 41
44.49999999999996
 46
5.0
 71
     5
 72
     5
  1
{\fMS PGothic|b0|i0|c128|p50;6}
 73
     1
 44
1.0
  0
MTEXT
  5
7DD
330
7A7
100
AcDbEntity
  8
0
100
AcDbMText
 10
12.50000035711196
 20
172.5000001515191
 30
0.0
 40
2.0
 41
4.999999999999992
 46
45.0
 71
     5
 72
     5
  1
{\fMS PGothic|b0|i0|c128|p50;A}
 73
     1
 44
1.0
  0
MTEXT
  5
7DE
330
7A7
100
AcDbEntity
  8
0
100
AcDbMText
 10
12.50000035711196
 20
127.5000001515191
 30
0.0
 40
2.0
 41
4.999999999999992
 46
45.0
 71
     5
 72
     5
  1
{\fMS PGothic|b0|i0|c128|p50;B}
 73
     1
 44
1.0
  0
MTEXT
  5
7DF
330
7A7
100
AcDbEntity
  8
0
100
AcDbMText
 10
12.50000035711196
 20
82.50000015151909
 30
0.0
 40
2.0
 41
4.999999999999992
 46
45.0
 71
     5
 72
     5
  1
{\fMS PGothic|b0|i0|c128|p50;C}
 73
     1
 44
1.0
  0
MTEXT
  5
7E0
330
7A7
100
AcDbEntity
  8
0
100
AcDbMText
 10
12.50000035711196
 20
37.5000001515191
 30
0.0
 40
2.0
 41
4.999999999999992
 46
45.0
 71
     5
 72
     5
  1
{\fMS PGothic|b0|i0|c128|p50;D}
 73
     1
 44
1.0
  0
MTEXT
  5
7E1
330
7A7
100
AcDbEntity
  8
0
100
AcDbMText
 10
284.500000357112
 20
172.500000151519
 30
0.0
 40
2.0
 41
4.999999999999992
 46
45.0
 71
     5
 72
     5
  1
{\fMS PGothic|b0|i0|c128|p50;A}
 73
     1
 44
1.0
  0
MTEXT
  5
7E2
330
7A7
100
AcDbEntity
  8
0
100
AcDbMText
 10
284.500000357112
 20
127.500000151519
 30
0.0
 40
2.0
 41
4.999999999999992
 46
45.0
 71
     5
 72
     5
  1
{\fMS PGothic|b0|i0|c128|p50;B}
 73
     1
 44
1.0
  0
MTEXT
  5
7E3
330
7A7
100
AcDbEntity
  8
0
100
AcDbMText
 10
284.500000357112
 20
82.50000015151902
 30
0.0
 40
2.0
 41
4.999999999999992
 46
45.0
 71
     5
 72
     5
  1
{\fMS PGothic|b0|i0|c128|p50;C}
 73
     1
 44
1.0
  0
MTEXT
  5
7E4
330
7A7
100
AcDbEntity
  8
0
100
AcDbMText
 10
284.500000357112
 20
37.50000015151901
 30
0.0
 40
2.0
 41
4.999999999999992
 46
45.0
 71
     5
 72
     5
  1
{\fMS PGothic|b0|i0|c128|p50;D}
 73
     1
 44
1.0
  0
CIRCLE
  5
7E5
330
7A7
100
AcDbEntity
  8
0
100
AcDbCircle
 10
192.0812869784004
 20
45.00834966916122
 30
0.0
 40
2.799999999999999
  0
CIRCLE
  5
7E6
330
7A7
100
AcDbEntity
  8
0
100
AcDbCircle
 10
192.0812869784004
 20
45.00834966916122
 30
0.0
 40
1.6
  0
LINE
  5
7E7
330
7A7
100
AcDbEntity
  8
0
100
AcDbLine
 10
197.2812869784003
 20
46.60834966916122
 30
0.0
 11
204.0812869784004
 21
47.80834966916122
 31
0.0
  0
LINE
  5
7E8
330
7A7
100
AcDbEntity
  8
0
100
AcDbLine
 10
197.2812869784003
 20
46.60834966916122
 30
0.0
 11
197.2812869784003
 21
43.40834966916125
 31
0.0
  0
LINE
  5
7E9
330
7A7
100
AcDbEntity
  8
0
100
AcDbLine
 10
204.0812869784004
 20
47.80834966916122
 30
0.0
 11
204.0812869784004
 21
42.20834966916124
 31
0.0
  0
LINE
  5
7EA
330
7A7
100
AcDbEntity
  8
0
100
AcDbLine
 10
197.2812869784003
 20
43.40834966916125
 30
0.0
 11
204.0812869784004
 21
42.20834966916124
 31
0.0
  0
LINE
  5
7EB
330
7A7
100
AcDbEntity
  8
0
100
AcDbLine
 10
192.0812869784004
 20
48.60834966916122
 30
0.0
 11
192.0812869784004
 21
41.40834966916123
 31
0.0
  0
LINE
  5
7EC
330
7A7
100
AcDbEntity
  8
0
100
AcDbLine
 10
188.5066513252489
 20
45.00834966916122
 30
0.0
 11
195.6524628040714
 21
45.00834966916122
 31
0.0
  0
LINE
  5
7ED
330
7A7
100
AcDbEntity
  8
0
100
AcDbLine
 10
196.4812869784004
 20
45.00834966916122
 30
0.0
 11
204.8812869784004
 21
45.00834966916122
 31
0.0
  0
MTEXT
  5
7EE
330
7A7
100
AcDbEntity
  8
0
100
AcDbMText
 10
212.096194576564
 20
29.0000001515191
 30
0.0
 40
1.0
 41
8.780474292418944
 46
0.0
 71
     1
 72
     5
  1
{\fMS PGothic|b0|i0|c128|p50;　社　名}
 73
     1
 44
1.0
  0
MTEXT
  5
7EF
330
7A7
100
AcDbEntity
  8
0
100
AcDbMText
 10
212.096194576564
 20
39.0000001515191
 30
0.0
 40
1.0
 41
8.780474292418944
 46
0.0
 71
     1
 72
     5
  1
{\fMS PGothic|b0|i0|c128|p50;　品 名 2}
 73
     1
 44
1.0
  0
MTEXT
  5
7F0
330
7A7
100
AcDbEntity
  8
0
100
AcDbMText
 10
212.096194576564
 20
49.0000001515191
 30
0.0
 40
1.0
 41
8.780474292418944
 46
0.0
 71
     1
 72
     5
  1
{\fMS PGothic|b0|i0|c128|p50;　品 名 1}
 73
     1
 44
1.0
  0
MTEXT
  5
7F1
330
7A7
100
AcDbEntity
  8
0
100
AcDbMText
 10
182.0000003571119
 20
49.0000001515191
 30
0.0
 40
1.0
 41
8.780474292418944
 46
0.0
 71
     1
 72
     5
  1
{\fMS PGothic|b0|i0|c128|p50;　図　法}
 73
     1
 44
1.0
  0
MTEXT
  5
7F2
330
7A7
100
AcDbEntity
  8
0
100
AcDbMText
 10
182.0000003571119
 20
34.0000001515191
 30
0.0
 40
1.0
 41
8.780474292418944
 46
0.0
 71
     1
 72
     5
  1
{\fMS PGothic|b0|i0|c128|p50;　製　図}
 73
     1
 44
1.0
  0
MTEXT
  5
7F3
330
7A7
100
AcDbEntity
  8
0
100
AcDbMText
 10
197.0480974668379
 20
37.5000001515191
 30
0.0
 40
2.0
 41
30.09619421945209
 46
5.000000000000011
 71
     5
 72
     5
  1
{\fMS PGothic|b0|i0|c128|p50;1 ： 2}
 73
     1
 44
1.0
  0
MTEXT
  5
7F4
330
7A7
100
AcDbEntity
  8
0
100
AcDbMText
 10
182.0000003571119
 20
39.0000001515191
 30
0.0
 40
1.0
 41
8.780474292418944
 46
0.0
 71
     1
 72
     5
  1
{\fMS PGothic|b0|i0|c128|p50;　尺　度}
 73
     1
 44
1.0
  0
MTEXT
  5
7F5
330
7A7
100
AcDbEntity
  8
0
100
AcDbMText
 10
224.6818554298403
 20
19.50000015151909
 30
0.0
 40
2.0
 41
57.3181449272716
 46
5.000000000000004
 71
     1
 72
     5
  1
{\fMS Gothic|b0|i0|c128|p49;株式会社 ＫＤＡ\H0.5x; (ケーディーエー)}
 73
     1
 44
1.0
  0
ENDBLK
  5
7F9
330
7A7
100
AcDbEntity
  8
0
100
AcDbBlockEnd
  0
BLOCK
  5
84B
330
7FA
100
AcDbEntity
  8
0
100
AcDbBlockBegin
  2
A$C77245723
 70
     0
 10
0.0
 20
0.0
 30
0.0
  3
A$C77245723
  1

  0
LINE
  5
873
330
7FA
100
AcDbEntity
  8
0
100
AcDbLine
 10
15.00000035711195
 20
15.00000015151909
 30
0.0
 11
15.00000035711196
 21
195.0000001515191
 31
0.0
1001
AcDbBlockRepETag
1070
     1
1071
        0
1005
873
  0
LINE
  5
876
330
7FA
100
AcDbEntity
  8
0
100
AcDbLine
 10
15.00000035711196
 20
195.0000001515191
 30
0.0
 11
282.000000357112
 21
195.0000001515191
 31
0.0
1001
AcDbBlockRepETag
1070
     1
1071
        1
1005
876
  0
LINE
  5
879
330
7FA
100
AcDbEntity
  8
0
100
AcDbLine
 10
282.000000357112
 20
195.0000001515191
 30
0.0
 11
282.0000003571119
 21
15.00000015151909
 31
0.0
1001
AcDbBlockRepETag
1070
     1
1071
        2
1005
879
  0
LINE
  5
87C
330
7FA
100
AcDbEntity
  8
0
100
AcDbLine
 10
282.0000003571119
 20
15.00000015151909
 30
0.0
 11
15.00000035711195
 21
15.00000015151909
 31
0.0
1001
AcDbBlockRepETag
1070
     1
1071
        3
1005
87C
  0
LINE
  5
87F
330
7FA
100
AcDbEntity
  8
0
100
AcDbLine
 10
282.0000003571119
 20
30.0000001515191
 30
0.0
 11
212.096194576564
 21
30.00000015151911
 31
0.0
1001
AcDbBlockRepETag
1070
     1
1071
        4
1005
87F
  0
LINE
  5
880
330
7FA
100
AcDbEntity
  8
0
100
AcDbLine
 10
182.0000003571119
 20
50.00000015151909
 30
0.0
 11
182.0000003571119
 21
15.00000015151909
 31
0.0
1001
AcDbBlockRepETag
1070
     1
1071
        5
1005
880
  0
LINE
  5
881
330
7FA
100
AcDbEntity
  8
0
100
AcDbLine
 10
182.0000003571119
 20
40.0000001515191
 30
0.0
 11
282.0000003571119
 21
40.00000015151907
 31
0.0
1001
AcDbBlockRepETag
1070
     1
1071
        6
1005
881
  0
LINE
  5
882
330
7FA
100
AcDbEntity
  8
0
100
AcDbLine
 10
182.0000003571119
 20
35.0000001515191
 30
0.0
 11
212.096194576564
 21
35.00000015151909
 31
0.0
1001
AcDbBlockRepETag
1070
     1
1071
        7
1005
882
  0
LINE
  5
883
330
7FA
100
AcDbEntity
  8
0
100
AcDbLine
 10
182.0000003571119
 20
30.0000001515191
 30
0.0
 11
212.096194576564
 21
30.00000015151909
 31
0.0
1001
AcDbBlockRepETag
1070
     1
1071
        8
1005
883
  0
LINE
  5
884
330
7FA
100
AcDbEntity
  8
0
100
AcDbLine
 10
182.0000003571119
 20
25.0000001515191
 30
0.0
 11
212.096194576564
 21
25.0000001515191
 31
0.0
1001
AcDbBlockRepETag
1070
     1
1071
        9
1005
884
  0
LINE
  5
885
330
7FA
100
AcDbEntity
  8
0
100
AcDbLine
 10
182.0000003571119
 20
20.0000001515191
 30
0.0
 11
212.096194576564
 21
20.00000015151909
 31
0.0
1001
AcDbBlockRepETag
1070
     1
1071
       10
1005
885
  0
LINE
  5
886
330
7FA
100
AcDbEntity
  8
0
100
AcDbLine
 10
182.0000003571119
 20
50.00000015151909
 30
0.0
 11
282.0000003571119
 21
50.00000015151909
 31
0.0
1001
AcDbBlockRepETag
1070
     1
1071
       11
1005
886
  0
LINE
  5
887
330
7FA
100
AcDbEntity
  8
0
100
AcDbLine
 10
212.096194576564
 20
50.00000015151909
 30
0.0
 11
212.096194576564
 21
15.0000001515191
 31
0.0
1001
AcDbBlockRepETag
1070
     1
1071
       12
1005
887
  0
MTEXT
  5
888
330
7FA
100
AcDbEntity
  8
0
100
AcDbMText
 10
247.048097466838
 20
23.0000001515191
 30
0.0
 40
20.0
 41
69.90380578054788
 46
14.0
 71
     5
 72
     5
  1
{\fArial Black|b0|i0|c0|p34;\H0.25x;KDA\H0.6x; Corporation}
 73
     1
 44
1.0
1001
AcDbBlockRepETag
1070
     1
1071
       13
1005
888
  0
LINE
  5
88C
330
7FA
100
AcDbEntity
  8
0
100
AcDbLine
 10
148.5000003571119
 20
15.00000015151909
 30
0.0
 11
148.5000003571119
 21
10.00000015151909
 31
0.0
1001
AcDbBlockRepETag
1070
     1
1071
       14
1005
88C
  0
LINE
  5
88D
330
7FA
100
AcDbEntity
  8
0
100
AcDbLine
 10
193.0000003571119
 20
15.00000015151909
 30
0.0
 11
193.0000003571119
 21
10.00000015151909
 31
0.0
1001
AcDbBlockRepETag
1070
     1
1071
       15
1005
88D
  0
LINE
  5
88E
330
7FA
100
AcDbEntity
  8
0
100
AcDbLine
 10
237.5000003571119
 20
15.00000015151909
 30
0.0
 11
237.5000003571119
 21
10.00000015151909
 31
0.0
1001
AcDbBlockRepETag
1070
     1
1071
       16
1005
88E
  0
LINE
  5
88F
330
7FA
100
AcDbEntity
  8
0
100
AcDbLine
 10
104.0000003571119
 20
15.00000015151909
 30
0.0
 11
104.0000003571119
 21
10.00000015151909
 31
0.0
1001
AcDbBlockRepETag
1070
     1
1071
       17
1005
88F
  0
LINE
  5
890
330
7FA
100
AcDbEntity
  8
0
100
AcDbLine
 10
59.50000035711193
 20
15.00000015151909
 30
0.0
 11
59.50000035711193
 21
10.00000015151909
 31
0.0
1001
AcDbBlockRepETag
1070
     1
1071
       18
1005
890
  0
LINE
  5
891
330
7FA
100
AcDbEntity
  8
0
100
AcDbLine
 10
15.00000035711196
 20
105.0000001515191
 30
0.0
 11
10.00000035711196
 21
105.0000001515191
 31
0.0
1001
AcDbBlockRepETag
1070
     1
1071
       19
1005
891
  0
LINE
  5
892
330
7FA
100
AcDbEntity
  8
0
100
AcDbLine
 10
15.00000035711196
 20
150.0000001515191
 30
0.0
 11
10.00000035711196
 21
150.0000001515191
 31
0.0
1001
AcDbBlockRepETag
1070
     1
1071
       20
1005
892
  0
LINE
  5
893
330
7FA
100
AcDbEntity
  8
0
100
AcDbLine
 10
15.00000035711196
 20
60.00000015151909
 30
0.0
 11
10.00000035711196
 21
60.00000015151909
 31
0.0
1001
AcDbBlockRepETag
1070
     1
1071
       21
1005
893
  0
LINE
  5
894
330
7FA
100
AcDbEntity
  8
0
100
AcDbLine
 10
148.5000003571119
 20
195.0000001515191
 30
0.0
 11
148.5000003571119
 21
200.0000001515191
 31
0.0
1001
AcDbBlockRepETag
1070
     1
1071
       22
1005
894
  0
LINE
  5
895
330
7FA
100
AcDbEntity
  8
0
100
AcDbLine
 10
193.0000003571119
 20
195.0000001515191
 30
0.0
 11
193.0000003571119
 21
200.0000001515191
 31
0.0
1001
AcDbBlockRepETag
1070
     1
1071
       23
1005
895
  0
LINE
  5
896
330
7FA
100
AcDbEntity
  8
0
100
AcDbLine
 10
237.5000003571119
 20
195.0000001515191
 30
0.0
 11
237.5000003571119
 21
200.0000001515191
 31
0.0
1001
AcDbBlockRepETag
1070
     1
1071
       24
1005
896
  0
LINE
  5
897
330
7FA
100
AcDbEntity
  8
0
100
AcDbLine
 10
104.0000003571119
 20
195.0000001515191
 30
0.0
 11
104.0000003571119
 21
200.0000001515191
 31
0.0
1001
AcDbBlockRepETag
1070
     1
1071
       25
1005
897
  0
LINE
  5
898
330
7FA
100
AcDbEntity
  8
0
100
AcDbLine
 10
59.50000035711193
 20
195.0000001515191
 30
0.0
 11
59.50000035711193
 21
200.0000001515191
 31
0.0
1001
AcDbBlockRepETag
1070
     1
1071
       26
1005
898
  0
LINE
  5
899
330
7FA
100
AcDbEntity
  8
0
100
AcDbLine
 10
282.0000003571119
 20
105.0000001515191
 30
0.0
 11
287.0000003571119
 21
105.0000001515191
 31
0.0
1001
AcDbBlockRepETag
1070
     1
1071
       27
1005
899
  0
LINE
  5
89A
330
7FA
100
AcDbEntity
  8
0
100
AcDbLine
 10
282.0000003571119
 20
150.0000001515191
 30
0.0
 11
287.0000003571119
 21
150.0000001515191
 31
0.0
1001
AcDbBlockRepETag
1070
     1
1071
       28
1005
89A
  0
LINE
  5
89B
330
7FA
100
AcDbEntity
  8
0
100
AcDbLine
 10
282.0000003571119
 20
60.00000015151909
 30
0.0
 11
287.0000003571119
 21
60.00000015151909
 31
0.0
1001
AcDbBlockRepETag
1070
     1
1071
       29
1005
89B
  0
MTEXT
  5
89C
330
7FA
100
AcDbEntity
  8
0
100
AcDbMText
 10
37.25000035711196
 20
197.5000001515191
 30
0.0
 40
2.0
 41
44.49999999999996
 46
5.0
 71
     5
 72
     5
  1
{\fMS PGothic|b0|i0|c128|p50;1}
 73
     1
 44
1.0
1001
AcDbBlockRepETag
1070
     1
1071
       30
1005
89C
  0
MTEXT
  5
89D
330
7FA
100
AcDbEntity
  8
0
100
AcDbMText
 10
81.75000035711191
 20
197.5000001515191
 30
0.0
 40
2.0
 41
44.49999999999996
 46
5.0
 71
     5
 72
     5
  1
{\fMS PGothic|b0|i0|c128|p50;2}
 73
     1
 44
1.0
1001
AcDbBlockRepETag
1070
     1
1071
       31
1005
89D
  0
MTEXT
  5
89E
330
7FA
100
AcDbEntity
  8
0
100
AcDbMText
 10
126.2500003571119
 20
197.5000001515191
 30
0.0
 40
2.0
 41
44.49999999999996
 46
5.0
 71
     5
 72
     5
  1
{\fMS PGothic|b0|i0|c128|p50;3}
 73
     1
 44
1.0
1001
AcDbBlockRepETag
1070
     1
1071
       32
1005
89E
  0
MTEXT
  5
89F
330
7FA
100
AcDbEntity
  8
0
100
AcDbMText
 10
170.7500003571119
 20
197.5000001515191
 30
0.0
 40
2.0
 41
44.49999999999996
 46
5.0
 71
     5
 72
     5
  1
{\fMS PGothic|b0|i0|c128|p50;4}
 73
     1
 44
1.0
1001
AcDbBlockRepETag
1070
     1
1071
       33
1005
89F
  0
MTEXT
  5
8A0
330
7FA
100
AcDbEntity
  8
0
100
AcDbMText
 10
215.2500003571119
 20
197.5000001515191
 30
0.0
 40
2.0
 41
44.49999999999996
 46
5.0
 71
     5
 72
     5
  1
{\fMS PGothic|b0|i0|c128|p50;5}
 73
     1
 44
1.0
1001
AcDbBlockRepETag
1070
     1
1071
       34
1005
8A0
  0
MTEXT
  5
8A1
330
7FA
100
AcDbEntity
  8
0
100
AcDbMText
 10
259.7500003571119
 20
197.5000001515191
 30
0.0
 40
2.0
 41
44.49999999999996
 46
5.0
 71
     5
 72
     5
  1
{\fMS PGothic|b0|i0|c128|p50;6}
 73
     1
 44
1.0
1001
AcDbBlockRepETag
1070
     1
1071
       35
1005
8A1
  0
MTEXT
  5
8A2
330
7FA
100
AcDbEntity
  8
0
100
AcDbMText
 10
37.25000035711194
 20
12.50000015151909
 30
0.0
 40
2.0
 41
44.49999999999996
 46
5.0
 71
     5
 72
     5
  1
{\fMS PGothic|b0|i0|c128|p50;1}
 73
     1
 44
1.0
1001
AcDbBlockRepETag
1070
     1
1071
       36
1005
8A2
  0
MTEXT
  5
8A3
330
7FA
100
AcDbEntity
  8
0
100
AcDbMText
 10
81.75000035711191
 20
12.50000015151909
 30
0.0
 40
2.0
 41
44.49999999999996
 46
5.0
 71
     5
 72
     5
  1
{\fMS PGothic|b0|i0|c128|p50;2}
 73
     1
 44
1.0
1001
AcDbBlockRepETag
1070
     1
1071
       37
1005
8A3
  0
MTEXT
  5
8A4
330
7FA
100
AcDbEntity
  8
0
100
AcDbMText
 10
126.2500003571119
 20
12.50000015151909
 30
0.0
 40
2.0
 41
44.49999999999996
 46
5.0
 71
     5
 72
     5
  1
{\fMS PGothic|b0|i0|c128|p50;3}
 73
     1
 44
1.0
1001
AcDbBlockRepETag
1070
     1
1071
       38
1005
8A4
  0
MTEXT
  5
8A5
330
7FA
100
AcDbEntity
  8
0
100
AcDbMText
 10
170.7500003571119
 20
12.50000015151909
 30
0.0
 40
2.0
 41
44.49999999999996
 46
5.0
 71
     5
 72
     5
  1
{\fMS PGothic|b0|i0|c128|p50;4}
 73
     1
 44
1.0
1001
AcDbBlockRepETag
1070
     1
1071
       39
1005
8A5
  0
MTEXT
  5
8A6
330
7FA
100
AcDbEntity
  8
0
100
AcDbMText
 10
215.2500003571119
 20
12.50000015151909
 30
0.0
 40
2.0
 41
44.49999999999996
 46
5.0
 71
     5
 72
     5
  1
{\fMS PGothic|b0|i0|c128|p50;5}
 73
     1
 44
1.0
1001
AcDbBlockRepETag
1070
     1
1071
       40
1005
8A6
  0
MTEXT
  5
8A7
330
7FA
100
AcDbEntity
  8
0
100
AcDbMText
 10
259.7500003571119
 20
12.50000015151909
 30
0.0
 40
2.0
 41
44.49999999999996
 46
5.0
 71
     5
 72
     5
  1
{\fMS PGothic|b0|i0|c128|p50;6}
 73
     1
 44
1.0
1001
AcDbBlockRepETag
1070
     1
1071
       41
1005
8A7
  0
MTEXT
  5
8A8
330
7FA
100
AcDbEntity
  8
0
100
AcDbMText
 10
12.50000035711196
 20
172.5000001515191
 30
0.0
 40
2.0
 41
4.999999999999992
 46
45.0
 71
     5
 72
     5
  1
{\fMS PGothic|b0|i0|c128|p50;A}
 73
     1
 44
1.0
1001
AcDbBlockRepETag
1070
     1
1071
       42
1005
8A8
  0
MTEXT
  5
8A9
330
7FA
100
AcDbEntity
  8
0
100
AcDbMText
 10
12.50000035711196
 20
127.5000001515191
 30
0.0
 40
2.0
 41
4.999999999999992
 46
45.0
 71
     5
 72
     5
  1
{\fMS PGothic|b0|i0|c128|p50;B}
 73
     1
 44
1.0
1001
AcDbBlockRepETag
1070
     1
1071
       43
1005
8A9
  0
MTEXT
  5
8AA
330
7FA
100
AcDbEntity
  8
0
100
AcDbMText
 10
12.50000035711196
 20
82.50000015151909
 30
0.0
 40
2.0
 41
4.999999999999992
 46
45.0
 71
     5
 72
     5
  1
{\fMS PGothic|b0|i0|c128|p50;C}
 73
     1
 44
1.0
1001
AcDbBlockRepETag
1070
     1
1071
       44
1005
8AA
  0
MTEXT
  5
8AB
330
7FA
100
AcDbEntity
  8
0
100
AcDbMText
 10
12.50000035711196
 20
37.5000001515191
 30
0.0
 40
2.0
 41
4.999999999999992
 46
45.0
 71
     5
 72
     5
  1
{\fMS PGothic|b0|i0|c128|p50;D}
 73
     1
 44
1.0
1001
AcDbBlockRepETag
1070
     1
1071
       45
1005
8AB
  0
MTEXT
  5
8AC
330
7FA
100
AcDbEntity
  8
0
100
AcDbMText
 10
284.500000357112
 20
172.500000151519
 30
0.0
 40
2.0
 41
4.999999999999992
 46
45.0
 71
     5
 72
     5
  1
{\fMS PGothic|b0|i0|c128|p50;A}
 73
     1
 44
1.0
1001
AcDbBlockRepETag
1070
     1
1071
       46
1005
8AC
  0
MTEXT
  5
8AD
330
7FA
100
AcDbEntity
  8
0
100
AcDbMText
 10
284.500000357112
 20
127.500000151519
 30
0.0
 40
2.0
 41
4.999999999999992
 46
45.0
 71
     5
 72
     5
  1
{\fMS PGothic|b0|i0|c128|p50;B}
 73
     1
 44
1.0
1001
AcDbBlockRepETag
1070
     1
1071
       47
1005
8AD
  0
MTEXT
  5
8AE
330
7FA
100
AcDbEntity
  8
0
100
AcDbMText
 10
284.500000357112
 20
82.50000015151902
 30
0.0
 40
2.0
 41
4.999999999999992
 46
45.0
 71
     5
 72
     5
  1
{\fMS PGothic|b0|i0|c128|p50;C}
 73
     1
 44
1.0
1001
AcDbBlockRepETag
1070
     1
1071
       48
1005
8AE
  0
MTEXT
  5
8AF
330
7FA
100
AcDbEntity
  8
0
100
AcDbMText
 10
284.500000357112
 20
37.50000015151901
 30
0.0
 40
2.0
 41
4.999999999999992
 46
45.0
 71
     5
 72
     5
  1
{\fMS PGothic|b0|i0|c128|p50;D}
 73
     1
 44
1.0
1001
AcDbBlockRepETag
1070
     1
1071
       49
1005
8AF
  0
CIRCLE
  5
8B0
330
7FA
100
AcDbEntity
  8
0
100
AcDbCircle
 10
192.0812869784004
 20
45.00834966916122
 30
0.0
 40
2.799999999999999
1001
AcDbBlockRepETag
1070
     1
1071
       50
1005
8B0
  0
CIRCLE
  5
8B1
330
7FA
100
AcDbEntity
  8
0
100
AcDbCircle
 10
192.0812869784004
 20
45.00834966916122
 30
0.0
 40
1.6
1001
AcDbBlockRepETag
1070
     1
1071
       51
1005
8B1
  0
LINE
  5
8B2
330
7FA
100
AcDbEntity
  8
0
100
AcDbLine
 10
197.2812869784003
 20
46.60834966916122
 30
0.0
 11
204.0812869784004
 21
47.80834966916122
 31
0.0
1001
AcDbBlockRepETag
1070
     1
1071
       52
1005
8B2
  0
LINE
  5
8B3
330
7FA
100
AcDbEntity
  8
0
100
AcDbLine
 10
197.2812869784003
 20
46.60834966916122
 30
0.0
 11
197.2812869784003
 21
43.40834966916125
 31
0.0
1001
AcDbBlockRepETag
1070
     1
1071
       53
1005
8B3
  0
LINE
  5
8B4
330
7FA
100
AcDbEntity
  8
0
100
AcDbLine
 10
204.0812869784004
 20
47.80834966916122
 30
0.0
 11
204.0812869784004
 21
42.20834966916124
 31
0.0
1001
AcDbBlockRepETag
1070
     1
1071
       54
1005
8B4
  0
LINE
  5
8B5
330
7FA
100
AcDbEntity
  8
0
100
AcDbLine
 10
197.2812869784003
 20
43.40834966916125
 30
0.0
 11
204.0812869784004
 21
42.20834966916124
 31
0.0
1001
AcDbBlockRepETag
1070
     1
1071
       55
1005
8B5
  0
LINE
  5
8B6
330
7FA
100
AcDbEntity
  8
0
100
AcDbLine
 10
192.0812869784004
 20
48.60834966916122
 30
0.0
 11
192.0812869784004
 21
41.40834966916123
 31
0.0
1001
AcDbBlockRepETag
1070
     1
1071
       56
1005
8B6
  0
LINE
  5
8B7
330
7FA
100
AcDbEntity
  8
0
100
AcDbLine
 10
188.5066513252489
 20
45.00834966916122
 30
0.0
 11
195.6524628040714
 21
45.00834966916122
 31
0.0
1001
AcDbBlockRepETag
1070
     1
1071
       57
1005
8B7
  0
LINE
  5
8B8
330
7FA
100
AcDbEntity
  8
0
100
AcDbLine
 10
196.4812869784004
 20
45.00834966916122
 30
0.0
 11
204.8812869784004
 21
45.00834966916122
 31
0.0
1001
AcDbBlockRepETag
1070
     1
1071
       58
1005
8B8
  0
MTEXT
  5
8B9
330
7FA
100
AcDbEntity
  8
0
100
AcDbMText
 10
212.096194576564
 20
29.0000001515191
 30
0.0
 40
1.0
 41
8.780474292418944
 46
0.0
 71
     1
 72
     5
  1
{\fMS PGothic|b0|i0|c128|p50;　社　名}
 73
     1
 44
1.0
1001
AcDbBlockRepETag
1070
     1
1071
       59
1005
8B9
  0
MTEXT
  5
8BA
330
7FA
100
AcDbEntity
  8
0
100
AcDbMText
 10
212.096194576564
 20
39.0000001515191
 30
0.0
 40
1.0
 41
8.780474292418944
 46
0.0
 71
     1
 72
     5
  1
{\fMS PGothic|b0|i0|c128|p50;　品 名 2}
 73
     1
 44
1.0
1001
AcDbBlockRepETag
1070
     1
1071
       60
1005
8BA
  0
MTEXT
  5
8BB
330
7FA
100
AcDbEntity
  8
0
100
AcDbMText
 10
212.096194576564
 20
49.0000001515191
 30
0.0
 40
1.0
 41
8.780474292418944
 46
0.0
 71
     1
 72
     5
  1
{\fMS PGothic|b0|i0|c128|p50;　品 名 1}
 73
     1
 44
1.0
1001
AcDbBlockRepETag
1070
     1
1071
       61
1005
8BB
  0
MTEXT
  5
8BC
330
7FA
100
AcDbEntity
  8
0
100
AcDbMText
 10
182.0000003571119
 20
49.0000001515191
 30
0.0
 40
1.0
 41
8.780474292418944
 46
0.0
 71
     1
 72
     5
  1
{\fMS PGothic|b0|i0|c128|p50;　図　法}
 73
     1
 44
1.0
1001
AcDbBlockRepETag
1070
     1
1071
       62
1005
8BC
  0
MTEXT
  5
8BD
330
7FA
100
AcDbEntity
  8
0
100
AcDbMText
 10
182.0000003571119
 20
34.0000001515191
 30
0.0
 40
1.0
 41
8.780474292418944
 46
0.0
 71
     1
 72
     5
  1
{\fMS PGothic|b0|i0|c128|p50;　製　図}
 73
     1
 44
1.0
1001
AcDbBlockRepETag
1070
     1
1071
       63
1005
8BD
  0
MTEXT
  5
8BF
330
7FA
100
AcDbEntity
  8
0
100
AcDbMText
 10
182.0000003571119
 20
39.0000001515191
 30
0.0
 40
1.0
 41
8.780474292418944
 46
0.0
 71
     1
 72
     5
  1
{\fMS PGothic|b0|i0|c128|p50;　尺　度}
 73
     1
 44
1.0
1001
AcDbBlockRepETag
1070
     1
1071
       64
1005
8BF
  0
MTEXT
  5
8C0
330
7FA
100
AcDbEntity
  8
0
100
AcDbMText
 10
224.6818554298403
 20
19.50000015151909
 30
0.0
 40
2.0
 41
57.3181449272716
 46
5.000000000000004
 71
     1
 72
     5
  1
{\fMS Gothic|b0|i0|c128|p49;株式会社 ＫＤＡ\H0.5x; (ケーディーエー)}
 73
     1
 44
1.0
1001
AcDbBlockRepETag
1070
     1
1071
       65
1005
8C0
  0
ENDBLK
  5
84C
330
7FA
100
AcDbEntity
  8
0
100
AcDbBlockEnd
  0
BLOCK
  5
8E1
330
8E0
100
AcDbEntity
  8
0
100
AcDbBlockBegin
  2
*D8
 70
     1
 10
0.0
 20
0.0
 30
0.0
  3
*D8
  1

  0
LINE
  5
8E2
330
8E0
100
AcDbEntity
  8
0
 62
     0
370
    -2
100
AcDbLine
 10
0.0000000338011148
 20
3.976563314054942
 30
0.0
 11
0.000000033801115
 21
6.530699178666593
 31
0.0
  0
LINE
  5
8E3
330
8E0
100
AcDbEntity
  8
0
 62
     0
370
    -2
100
AcDbLine
 10
3.90000003380112
 20
3.976563314054942
 30
0.0
 11
3.90000003380112
 21
6.530699178666593
 31
0.0
  0
LINE
  5
8E4
330
8E0
100
AcDbEntity
  8
0
 62
     0
370
    -2
100
AcDbLine
 10
0.5000000338011149
 20
6.030699178666593
 30
0.0
 11
3.40000003380112
 21
6.030699178666593
 31
0.0
  0
INSERT
  5
8E5
330
8E0
100
AcDbEntity
  8
0
 62
     0
370
    -2
100
AcDbBlockReference
  2
_Open30
 10
0.000000033801115
 20
6.030699178666593
 30
0.0
 41
0.5
 42
0.5
 43
0.5
 50
180.0
  0
INSERT
  5
8E6
330
8E0
100
AcDbEntity
  8
0
 62
     0
370
    -2
100
AcDbBlockReference
  2
_Open30
 10
3.90000003380112
 20
6.030699178666593
 30
0.0
 41
0.5
 42
0.5
 43
0.5
  0
MTEXT
  5
8E7
330
8E0
100
AcDbEntity
  8
0
 62
     0
100
AcDbMText
 10
1.950000033801116
 20
6.630699178666594
 30
0.0
 40
0.6
 41
0.0
 46
0.0
 71
     5
 72
     1
  1
\A1;3.9
 73
     1
 44
1.0
  0
POINT
  5
8E8
330
8E0
100
AcDbEntity
  8
Defpoints
 62
     0
100
AcDbPoint
 10
0.0000000338011148
 20
3.476563314054942
 30
0.0
  0
POINT
  5
8E9
330
8E0
100
AcDbEntity
  8
Defpoints
 62
     0
100
AcDbPoint
 10
3.90000003380112
 20
3.476563314054942
 30
0.0
  0
POINT
  5
8EA
330
8E0
100
AcDbEntity
  8
Defpoints
 62
     0
100
AcDbPoint
 10
3.90000003380112
 20
6.030699178666593
 30
0.0
  0
ENDBLK
  5
8EB
330
8E0
100
AcDbEntity
  8
0
100
AcDbBlockEnd
  0
BLOCK
  5
8ED
330
8EC
100
AcDbEntity
  8
0
100
AcDbBlockBegin
  2
*D9
 70
     1
 10
0.0
 20
0.0
 30
0.0
  3
*D9
  1

  0
LINE
  5
8EE
330
8EC
100
AcDbEntity
  8
0
 62
     0
370
    -2
100
AcDbLine
 10
10.04985976963347
 20
4.743377347958926
 30
0.0
 11
10.04985976963347
 21
6.530999770629732
 31
0.0
  0
LINE
  5
8EF
330
8EC
100
AcDbEntity
  8
0
 62
     0
370
    -2
100
AcDbLine
 10
11.44985976963347
 20
5.102396338974926
 30
0.0
 11
11.44985976963347
 21
6.530999770629732
 31
0.0
  0
LINE
  5
8F0
330
8EC
100
AcDbEntity
  8
0
 62
     0
370
    -2
100
AcDbLine
 10
11.94985976963347
 20
6.030999770629732
 30
0.0
 11
12.44985976963348
 21
6.030999770629732
 31
0.0
  0
LINE
  5
8F1
330
8EC
100
AcDbEntity
  8
0
 62
     0
370
    -2
100
AcDbLine
 10
9.549859769633473
 20
6.030999770629732
 30
0.0
 11
7.116526436300138
 21
6.030999770629732
 31
0.0
  0
LINE
  5
8F2
330
8EC
100
AcDbEntity
  8
0
 62
     0
370
    -2
100
AcDbLine
 10
11.44985976963347
 20
6.030999770629732
 30
0.0
 11
10.04985976963347
 21
6.030999770629732
 31
0.0
  0
INSERT
  5
8F3
330
8EC
100
AcDbEntity
  8
0
 62
     0
370
    -2
100
AcDbBlockReference
  2
_Open30
 10
11.44985976963347
 20
6.030999770629732
 30
0.0
 41
0.5
 42
0.5
 43
0.5
 50
180.0
  0
INSERT
  5
8F4
330
8EC
100
AcDbEntity
  8
0
 62
     0
370
    -2
100
AcDbBlockReference
  2
_Open30
 10
10.04985976963347
 20
6.030999770629732
 30
0.0
 41
0.5
 42
0.5
 43
0.5
  0
MTEXT
  5
8F5
330
8EC
100
AcDbEntity
  8
0
 62
     0
100
AcDbMText
 10
7.916526436300138
 20
6.630999770629732
 30
0.0
 40
0.6
 41
0.0
 46
0.0
 71
     5
 72
     1
  1
\A1;1.4
 73
     1
 44
1.0
  0
POINT
  5
8F6
330
8EC
100
AcDbEntity
  8
Defpoints
 62
     0
100
AcDbPoint
 10
10.04985976963347
 20
4.243377347958926
 30
0.0
  0
POINT
  5
8F7
330
8EC
100
AcDbEntity
  8
Defpoints
 62
     0
100
AcDbPoint
 10
11.44985976963347
 20
4.602396338974926
 30
0.0
  0
POINT
  5
8F8
330
8EC
100
AcDbEntity
  8
Defpoints
 62
     0
100
AcDbPoint
 10
11.44985976963347
 20
6.030999770629732
 30
0.0
  0
ENDBLK
  5
8F9
330
8EC
100
AcDbEntity
  8
0
100
AcDbBlockEnd
  0
BLOCK
  5
8FB
330
8FA
100
AcDbEntity
  8
0
100
AcDbBlockBegin
  2
*D10
 70
     1
 10
0.0
 20
0.0
 30
0.0
  3
*D10
  1

  0
LINE
  5
8FC
330
8FA
100
AcDbEntity
  8
0
 62
     0
370
    -2
100
AcDbLine
 10
14.44985976963347
 20
3.633730289135314
 30
0.0
 11
14.44985976963347
 21
6.530699178666593
 31
0.0
  0
LINE
  5
8FD
330
8FA
100
AcDbEntity
  8
0
 62
     0
370
    -2
100
AcDbLine
 10
11.44985976963347
 20
5.102396338974926
 30
0.0
 11
11.44985976963347
 21
6.530699178666593
 31
0.0
  0
LINE
  5
8FE
330
8FA
100
AcDbEntity
  8
0
 62
     0
370
    -2
100
AcDbLine
 10
13.94985976963347
 20
6.030699178666593
 30
0.0
 11
11.94985976963347
 21
6.030699178666593
 31
0.0
  0
INSERT
  5
8FF
330
8FA
100
AcDbEntity
  8
0
 62
     0
370
    -2
100
AcDbBlockReference
  2
_Open30
 10
14.44985976963347
 20
6.030699178666593
 30
0.0
 41
0.5
 42
0.5
 43
0.5
  0
INSERT
  5
900
330
8FA
100
AcDbEntity
  8
0
 62
     0
370
    -2
100
AcDbBlockReference
  2
_Open30
 10
11.44985976963347
 20
6.030699178666593
 30
0.0
 41
0.5
 42
0.5
 43
0.5
 50
180.0
  0
MTEXT
  5
901
330
8FA
100
AcDbEntity
  8
0
 62
     0
100
AcDbMText
 10
12.94985976963348
 20
6.630699178666594
 30
0.0
 40
0.6
 41
0.0
 46
0.0
 71
     5
 72
     1
  1
\A1;3.0
 73
     1
 44
1.0
  0
POINT
  5
902
330
8FA
100
AcDbEntity
  8
Defpoints
 62
     0
100
AcDbPoint
 10
14.44985976963347
 20
3.133730289135314
 30
0.0
  0
POINT
  5
903
330
8FA
100
AcDbEntity
  8
Defpoints
 62
     0
100
AcDbPoint
 10
11.44985976963347
 20
4.602396338974926
 30
0.0
  0
POINT
  5
904
330
8FA
100
AcDbEntity
  8
Defpoints
 62
     0
100
AcDbPoint
 10
11.44985976963347
 20
6.030699178666593
 30
0.0
  0
ENDBLK
  5
905
330
8FA
100
AcDbEntity
  8
0
100
AcDbBlockEnd
  0
BLOCK
  5
907
330
906
100
AcDbEntity
  8
0
100
AcDbBlockBegin
  2
*D11
 70
     1
 10
0.0
 20
0.0
 30
0.0
  3
*D11
  1

  0
LINE
  5
908
330
906
100
AcDbEntity
  8
0
 62
     0
370
    -2
100
AcDbLine
 10
12.44985976963348
 20
3.850730289135412
 30
0.0
 11
12.44985976963348
 21
5.115840884312433
 31
0.0
  0
LINE
  5
909
330
906
100
AcDbEntity
  8
0
 62
     0
370
    -2
100
AcDbLine
 10
14.44985976963347
 20
3.633730289135314
 30
0.0
 11
14.44985976963347
 21
5.115840884312433
 31
0.0
  0
LINE
  5
90A
330
906
100
AcDbEntity
  8
0
 62
     0
370
    -2
100
AcDbLine
 10
12.94985976963348
 20
4.615840884312433
 30
0.0
 11
13.94985976963347
 21
4.615840884312433
 31
0.0
  0
INSERT
  5
90B
330
906
100
AcDbEntity
  8
0
 62
     0
370
    -2
100
AcDbBlockReference
  2
_Open30
 10
12.44985976963348
 20
4.615840884312433
 30
0.0
 41
0.5
 42
0.5
 43
0.5
 50
180.0
  0
INSERT
  5
90C
330
906
100
AcDbEntity
  8
0
 62
     0
370
    -2
100
AcDbBlockReference
  2
_Open30
 10
14.44985976963347
 20
4.615840884312433
 30
0.0
 41
0.5
 42
0.5
 43
0.5
  0
MTEXT
  5
90D
330
906
100
AcDbEntity
  8
0
 62
     0
100
AcDbMText
 10
13.44985976963348
 20
5.215840884312433
 30
0.0
 40
0.6
 41
0.0
 46
0.0
 71
     5
 72
     1
  1
\A1;2.0
 73
     1
 44
1.0
  0
POINT
  5
90E
330
906
100
AcDbEntity
  8
Defpoints
 62
     0
100
AcDbPoint
 10
12.44985976963348
 20
3.350730289135412
 30
0.0
  0
POINT
  5
90F
330
906
100
AcDbEntity
  8
Defpoints
 62
     0
100
AcDbPoint
 10
14.44985976963347
 20
3.133730289135314
 30
0.0
  0
POINT
  5
910
330
906
100
AcDbEntity
  8
Defpoints
 62
     0
100
AcDbPoint
 10
14.44985976963347
 20
4.615840884312433
 30
0.0
  0
ENDBLK
  5
911
330
906
100
AcDbEntity
  8
0
100
AcDbBlockEnd
  0
BLOCK
  5
970
330
966
100
AcDbEntity
  8
0
100
AcDbBlockBegin
  2
*D12
 70
     1
 10
0.0
 20
0.0
 30
0.0
  3
*D12
  1

  0
LINE
  5
998
330
966
100
AcDbEntity
  8
0
 62
     0
370
    -2
100
AcDbLine
 10
0.0000000241879832
 20
3.976563316931418
 30
0.0
 11
0.0000000241879834
 21
6.530699181543069
 31
0.0
  0
LINE
  5
999
330
966
100
AcDbEntity
  8
0
 62
     0
370
    -2
100
AcDbLine
 10
3.900000024187987
 20
3.976563316931418
 30
0.0
 11
3.900000024187987
 21
6.530699181543069
 31
0.0
  0
LINE
  5
99A
330
966
100
AcDbEntity
  8
0
 62
     0
370
    -2
100
AcDbLine
 10
0.5000000241879833
 20
6.030699181543069
 30
0.0
 11
3.400000024187987
 21
6.030699181543069
 31
0.0
  0
INSERT
  5
99B
330
966
100
AcDbEntity
  8
0
 62
     0
370
    -2
100
AcDbBlockReference
  2
_Open30
 10
0.0000000241879833
 20
6.030699181543069
 30
0.0
 41
0.5
 42
0.5
 43
0.5
 50
180.0
  0
INSERT
  5
99C
330
966
100
AcDbEntity
  8
0
 62
     0
370
    -2
100
AcDbBlockReference
  2
_Open30
 10
3.900000024187987
 20
6.030699181543069
 30
0.0
 41
0.5
 42
0.5
 43
0.5
  0
MTEXT
  5
99D
330
966
100
AcDbEntity
  8
0
 62
     0
100
AcDbMText
 10
1.950000024187985
 20
6.63069918154307
 30
0.0
 40
0.6
 41
0.0
 46
0.0
 71
     5
 72
     1
  1
\A1;3.9
 73
     1
 44
1.0
  0
POINT
  5
99E
330
966
100
AcDbEntity
  8
Defpoints
 62
     0
100
AcDbPoint
 10
0.0000000241879832
 20
3.476563316931418
 30
0.0
  0
POINT
  5
99F
330
966
100
AcDbEntity
  8
Defpoints
 62
     0
100
AcDbPoint
 10
3.900000024187987
 20
3.476563316931418
 30
0.0
  0
POINT
  5
9A0
330
966
100
AcDbEntity
  8
Defpoints
 62
     0
100
AcDbPoint
 10
3.900000024187987
 20
6.030699181543069
 30
0.0
  0
ENDBLK
  5
971
330
966
100
AcDbEntity
  8
0
100
AcDbBlockEnd
  0
BLOCK
  5
97E
330
972
100
AcDbEntity
  8
0
100
AcDbBlockBegin
  2
*D13
 70
     1
 10
0.0
 20
0.0
 30
0.0
  3
*D13
  1

  0
LINE
  5
9A1
330
972
100
AcDbEntity
  8
0
 62
     0
370
    -2
100
AcDbLine
 10
10.04985976002034
 20
4.743377350835402
 30
0.0
 11
10.04985976002034
 21
6.530999773506207
 31
0.0
  0
LINE
  5
9A2
330
972
100
AcDbEntity
  8
0
 62
     0
370
    -2
100
AcDbLine
 10
11.44985976002034
 20
5.102396341851402
 30
0.0
 11
11.44985976002034
 21
6.530999773506207
 31
0.0
  0
LINE
  5
9A3
330
972
100
AcDbEntity
  8
0
 62
     0
370
    -2
100
AcDbLine
 10
11.94985976002034
 20
6.030999773506207
 30
0.0
 11
12.44985976002034
 21
6.030999773506207
 31
0.0
  0
LINE
  5
9A4
330
972
100
AcDbEntity
  8
0
 62
     0
370
    -2
100
AcDbLine
 10
9.549859760020339
 20
6.030999773506207
 30
0.0
 11
7.116526426687007
 21
6.030999773506207
 31
0.0
  0
LINE
  5
9A5
330
972
100
AcDbEntity
  8
0
 62
     0
370
    -2
100
AcDbLine
 10
11.44985976002034
 20
6.030999773506207
 30
0.0
 11
10.04985976002034
 21
6.030999773506207
 31
0.0
  0
INSERT
  5
9A6
330
972
100
AcDbEntity
  8
0
 62
     0
370
    -2
100
AcDbBlockReference
  2
_Open30
 10
11.44985976002034
 20
6.030999773506207
 30
0.0
 41
0.5
 42
0.5
 43
0.5
 50
180.0
  0
INSERT
  5
9A7
330
972
100
AcDbEntity
  8
0
 62
     0
370
    -2
100
AcDbBlockReference
  2
_Open30
 10
10.04985976002034
 20
6.030999773506207
 30
0.0
 41
0.5
 42
0.5
 43
0.5
  0
MTEXT
  5
9A8
330
972
100
AcDbEntity
  8
0
 62
     0
100
AcDbMText
 10
7.916526426687005
 20
6.630999773506207
 30
0.0
 40
0.6
 41
0.0
 46
0.0
 71
     5
 72
     1
  1
\A1;1.4
 73
     1
 44
1.0
  0
POINT
  5
9A9
330
972
100
AcDbEntity
  8
Defpoints
 62
     0
100
AcDbPoint
 10
10.04985976002034
 20
4.243377350835402
 30
0.0
  0
POINT
  5
9AA
330
972
100
AcDbEntity
  8
Defpoints
 62
     0
100
AcDbPoint
 10
11.44985976002034
 20
4.602396341851402
 30
0.0
  0
POINT
  5
9AB
330
972
100
AcDbEntity
  8
Defpoints
 62
     0
100
AcDbPoint
 10
11.44985976002034
 20
6.030999773506207
 30
0.0
  0
ENDBLK
  5
97F
330
972
100
AcDbEntity
  8
0
100
AcDbBlockEnd
  0
BLOCK
  5
98A
330
980
100
AcDbEntity
  8
0
100
AcDbBlockBegin
  2
*D14
 70
     1
 10
0.0
 20
0.0
 30
0.0
  3
*D14
  1

  0
LINE
  5
B9E
330
980
100
AcDbEntity
  8
0
 62
     0
370
    -2
100
AcDbLine
 10
19.44985976002057
 20
3.633730292011563
 30
0.0
 11
19.44985976002057
 21
6.530699181543069
 31
0.0
  0
LINE
  5
B9F
330
980
100
AcDbEntity
  8
0
 62
     0
370
    -2
100
AcDbLine
 10
11.44985976002034
 20
5.102396341851402
 30
0.0
 11
11.44985976002034
 21
6.530699181543069
 31
0.0
  0
LINE
  5
BA0
330
980
100
AcDbEntity
  8
0
 62
     0
370
    -2
100
AcDbLine
 10
18.94985976002057
 20
6.030699181543069
 30
0.0
 11
11.94985976002034
 21
6.030699181543069
 31
0.0
  0
INSERT
  5
BA1
330
980
100
AcDbEntity
  8
0
 62
     0
370
    -2
100
AcDbBlockReference
  2
_Open30
 10
19.44985976002057
 20
6.030699181543069
 30
0.0
 41
0.5
 42
0.5
 43
0.5
  0
INSERT
  5
BA2
330
980
100
AcDbEntity
  8
0
 62
     0
370
    -2
100
AcDbBlockReference
  2
_Open30
 10
11.44985976002034
 20
6.030699181543069
 30
0.0
 41
0.5
 42
0.5
 43
0.5
 50
180.0
  0
MTEXT
  5
BA3
330
980
100
AcDbEntity
  8
0
 62
     0
100
AcDbMText
 10
15.44985976002046
 20
6.63069918154307
 30
0.0
 40
0.6
 41
0.0
 46
0.0
 71
     5
 72
     1
  1
\A1;8.0
 73
     1
 44
1.0
  0
POINT
  5
BA4
330
980
100
AcDbEntity
  8
Defpoints
 62
     0
100
AcDbPoint
 10
19.44985976002057
 20
3.133730292011563
 30
0.0
  0
POINT
  5
BA5
330
980
100
AcDbEntity
  8
Defpoints
 62
     0
100
AcDbPoint
 10
11.44985976002034
 20
4.602396341851402
 30
0.0
  0
POINT
  5
BA6
330
980
100
AcDbEntity
  8
Defpoints
 62
     0
100
AcDbPoint
 10
11.44985976002034
 20
6.030699181543069
 30
0.0
  0
ENDBLK
  5
98B
330
980
100
AcDbEntity
  8
0
100
AcDbBlockEnd
  0
BLOCK
  5
996
330
98C
100
AcDbEntity
  8
0
100
AcDbBlockBegin
  2
*D15
 70
     1
 10
0.0
 20
0.0
 30
0.0
  3
*D15
  1

  0
LINE
  5
B95
330
98C
100
AcDbEntity
  8
0
 62
     0
370
    -2
100
AcDbLine
 10
12.94985976002034
 20
3.850730292011888
 30
0.0
 11
12.94985976002034
 21
5.115840887188909
 31
0.0
  0
LINE
  5
B96
330
98C
100
AcDbEntity
  8
0
 62
     0
370
    -2
100
AcDbLine
 10
19.44985976002057
 20
3.633730292011563
 30
0.0
 11
19.44985976002057
 21
5.115840887188909
 31
0.0
  0
LINE
  5
B97
330
98C
100
AcDbEntity
  8
0
 62
     0
370
    -2
100
AcDbLine
 10
13.44985976002034
 20
4.615840887188909
 30
0.0
 11
18.94985976002057
 21
4.615840887188909
 31
0.0
  0
INSERT
  5
B98
330
98C
100
AcDbEntity
  8
0
 62
     0
370
    -2
100
AcDbBlockReference
  2
_Open30
 10
12.94985976002034
 20
4.615840887188909
 30
0.0
 41
0.5
 42
0.5
 43
0.5
 50
180.0
  0
INSERT
  5
B99
330
98C
100
AcDbEntity
  8
0
 62
     0
370
    -2
100
AcDbBlockReference
  2
_Open30
 10
19.44985976002057
 20
4.615840887188909
 30
0.0
 41
0.5
 42
0.5
 43
0.5
  0
MTEXT
  5
B9A
330
98C
100
AcDbEntity
  8
0
 62
     0
100
AcDbMText
 10
16.19985976002046
 20
5.215840887188909
 30
0.0
 40
0.6
 41
0.0
 46
0.0
 71
     5
 72
     1
  1
\A1;6.5
 73
     1
 44
1.0
  0
POINT
  5
B9B
330
98C
100
AcDbEntity
  8
Defpoints
 62
     0
100
AcDbPoint
 10
12.94985976002034
 20
3.350730292011888
 30
0.0
  0
POINT
  5
B9C
330
98C
100
AcDbEntity
  8
Defpoints
 62
     0
100
AcDbPoint
 10
19.44985976002057
 20
3.133730292011563
 30
0.0
  0
POINT
  5
B9D
330
98C
100
AcDbEntity
  8
Defpoints
 62
     0
100
AcDbPoint
 10
19.44985976002057
 20
4.615840887188909
 30
0.0
  0
ENDBLK
  5
997
330
98C
100
AcDbEntity
  8
0
100
AcDbBlockEnd
  0
BLOCK
  5
A0D
330
9E7
100
AcDbEntity
  8
0
100
AcDbBlockBegin
  2
A$C377A480F
 70
     0
 10
0.0
 20
0.0
 30
0.0
  3
A$C377A480F
  1

  0
LWPOLYLINE
  5
9E8
330
9E7
100
AcDbEntity
  8
0
100
AcDbPolyline
 90
        6
 70
     1
 43
0.0
 10
-0.0000000743486197
 20
14.37749871542951
 10
1.94999992565141
 20
13.25166569050975
 10
3.899999925651384
 20
14.37749871542951
 10
3.899999925651384
 20
16.62916476526902
 10
1.94999992565141
 20
17.75499779018901
 10
-0.0000000743486197
 20
16.62916476526902
  0
CIRCLE
  5
9E9
330
9E7
100
AcDbEntity
  8
0
100
AcDbCircle
 10
1.94999992565141
 20
15.50333174034949
 30
0.0
 40
1.892647058823557
  0
LINE
  5
9EA
330
9E7
100
AcDbEntity
  8
0
100
AcDbLine
 10
10.04985966148373
 20
17.39597879917301
 30
0.0
 11
10.04985966148373
 21
13.61068468152575
 31
0.0
  0
LINE
  5
9EB
330
9E7
100
AcDbEntity
  8
0
100
AcDbLine
 10
11.44985966148374
 20
17.75499779018901
 30
0.0
 11
11.44985966148374
 21
13.25166569050975
 31
0.0
  0
LINE
  5
9EC
330
9E7
100
AcDbEntity
  8
0
100
AcDbLine
 10
14.44985966148374
 20
16.2863317403494
 30
0.0
 11
14.44985966148374
 21
14.72033174034982
 31
0.0
  0
LINE
  5
9ED
330
9E7
100
AcDbEntity
  8
0
100
AcDbLine
 10
12.44985966148374
 20
16.50333174034949
 30
0.0
 11
12.44985966148374
 21
14.50333174034949
 31
0.0
  0
LINE
  5
9EE
330
9E7
100
AcDbEntity
  8
0
100
AcDbLine
 10
14.23285966148374
 20
16.50333174034949
 30
0.0
 11
14.23285966148374
 21
14.50333174034949
 31
0.0
  0
LINE
  5
9EF
330
9E7
100
AcDbEntity
  8
0
100
AcDbLine
 10
10.25713937259104
 20
13.25166569050975
 30
0.0
 11
11.44985966148374
 21
13.25166569050975
 31
0.0
  0
LINE
  5
9F0
330
9E7
100
AcDbEntity
  8
0
100
AcDbLine
 10
10.25713937259093
 20
17.75499779018855
 30
0.0
 11
11.44985966148374
 21
17.75499779018901
 31
0.0
  0
LINE
  5
9F1
330
9E7
100
AcDbEntity
  8
0
100
AcDbLine
 10
10.25713937259104
 20
14.37749871542951
 30
0.0
 11
11.44985966148374
 21
14.37749871542974
 31
0.0
  0
LINE
  5
9F2
330
9E7
100
AcDbEntity
  8
0
100
AcDbLine
 10
10.25713937259104
 20
16.62916476526902
 30
0.0
 11
11.44985966148374
 21
16.62916476526925
 31
0.0
  0
LINE
  5
9F3
330
9E7
100
AcDbEntity
  8
0
100
AcDbLine
 10
10.04985966148373
 20
17.39597879917301
 30
0.0
 11
10.25713937259093
 21
17.75499779018855
 31
0.0
  0
LINE
  5
9F4
330
9E7
100
AcDbEntity
  8
0
100
AcDbLine
 10
10.04985966148373
 20
13.61068468152575
 30
0.0
 11
10.25713937259104
 21
13.25166569050975
 31
0.0
  0
ARC
  5
9F5
330
9E7
100
AcDbEntity
  8
0
100
AcDbCircle
 10
11.07974326939576
 20
13.81458220296963
 30
0.0
 40
0.9967708718849747
100
AcDbArc
 50
145.6157525319459
 51
214.3842474680541
  0
ARC
  5
9F6
330
9E7
100
AcDbEntity
  8
0
100
AcDbCircle
 10
13.80880542243027
 20
15.50333174034949
 30
0.0
 40
3.72583302491949
100
AcDbArc
 50
162.412046226009
 51
197.5879537739909
  0
ARC
  5
9F7
330
9E7
100
AcDbEntity
  8
0
100
AcDbCircle
 10
11.07974326939604
 20
17.1920812777289
 30
0.0
 40
0.9967708718852183
100
AcDbArc
 50
145.6157525319617
 51
214.3842474680382
  0
LINE
  5
9F8
330
9E7
100
AcDbEntity
  8
0
100
AcDbLine
 10
11.44985966148374
 20
14.50333174034949
 30
0.0
 11
14.23285966148374
 21
14.50333174034949
 31
0.0
  0
LINE
  5
9F9
330
9E7
100
AcDbEntity
  8
0
100
AcDbLine
 10
12.44985966148358
 20
14.72033174034959
 30
0.0
 11
14.44985966148374
 21
14.72033174034982
 31
0.0
  0
LINE
  5
9FA
330
9E7
100
AcDbEntity
  8
0
100
AcDbLine
 10
11.44985966148374
 20
16.50333174034949
 30
0.0
 11
14.23285966148374
 21
16.50333174034949
 31
0.0
  0
LINE
  5
9FB
330
9E7
100
AcDbEntity
  8
0
100
AcDbLine
 10
12.44985966148374
 20
16.2863317403494
 30
0.0
 11
14.44985966148374
 21
16.2863317403494
 31
0.0
  0
LINE
  5
9FC
330
9E7
100
AcDbEntity
  8
0
100
AcDbLine
 10
14.44985966148374
 20
16.2863317403494
 30
0.0
 11
14.23285966148374
 21
16.50333174034949
 31
0.0
  0
LINE
  5
9FD
330
9E7
100
AcDbEntity
  8
0
100
AcDbLine
 10
14.44985966148374
 20
14.72033174034982
 30
0.0
 11
14.23285966148374
 21
14.50333174034949
 31
0.0
  0
LINE
  5
9FE
330
9E7
100
AcDbEntity
  8
0
100
AcDbLine
 10
12.44985966148374
 20
16.2863317403494
 30
0.0
 11
12.23285966148374
 21
16.50333174034949
 31
0.0
  0
LINE
  5
9FF
330
9E7
100
AcDbEntity
  8
0
100
AcDbLine
 10
12.44985966148374
 20
14.72033174034982
 30
0.0
 11
12.23285966148374
 21
14.50333174034949
 31
0.0
  0
LINE
  5
A00
330
9E7
100
AcDbEntity
  8
0
100
AcDbLine
 10
16.44985966148374
 20
1.78299964067014
 30
0.0
 11
16.44985966148374
 21
0.216999640670565
 31
0.0
  0
LINE
  5
A01
330
9E7
100
AcDbEntity
  8
0
100
AcDbLine
 10
12.44985966148374
 20
1.999999640670239
 30
0.0
 11
12.44985966148374
 21
-0.0000003593297606
 31
0.0
  0
LINE
  5
A02
330
9E7
100
AcDbEntity
  8
0
100
AcDbLine
 10
16.23285966148374
 20
1.999999640670239
 30
0.0
 11
16.23285966148374
 21
-0.0000003593297606
 31
0.0
  0
LINE
  5
A03
330
9E7
100
AcDbEntity
  8
0
100
AcDbLine
 10
11.44985966148374
 20
-0.0000003593297606
 30
0.0
 11
16.23285966148374
 21
-0.0000003593297606
 31
0.0
  0
LINE
  5
A04
330
9E7
100
AcDbEntity
  8
0
100
AcDbLine
 10
12.44985966148358
 20
0.2169996406703376
 30
0.0
 11
16.44985966148374
 21
0.2169996406707924
 31
0.0
  0
LINE
  5
A05
330
9E7
100
AcDbEntity
  8
0
100
AcDbLine
 10
11.44985966148374
 20
1.999999640670239
 30
0.0
 11
16.23285966148374
 21
1.999999640670239
 31
0.0
  0
LINE
  5
A06
330
9E7
100
AcDbEntity
  8
0
100
AcDbLine
 10
12.44985966148374
 20
1.78299964067014
 30
0.0
 11
16.44985966148374
 21
1.78299964067014
 31
0.0
  0
LINE
  5
A07
330
9E7
100
AcDbEntity
  8
0
100
AcDbLine
 10
16.44985966148374
 20
1.78299964067014
 30
0.0
 11
16.23285966148374
 21
1.999999640670239
 31
0.0
  0
LINE
  5
A08
330
9E7
100
AcDbEntity
  8
0
100
AcDbLine
 10
16.44985966148374
 20
0.216999640670565
 30
0.0
 11
16.23285966148374
 21
-0.0000003593297606
 31
0.0
  0
LINE
  5
A09
330
9E7
100
AcDbEntity
  8
0
100
AcDbLine
 10
12.44985966148374
 20
1.78299964067014
 30
0.0
 11
12.23285966148374
 21
1.999999640670239
 31
0.0
  0
LINE
  5
A0A
330
9E7
100
AcDbEntity
  8
0
100
AcDbLine
 10
12.44985966148374
 20
0.216999640670565
 30
0.0
 11
12.23285966148374
 21
-0.0000003593297606
 31
0.0
  0
ENDBLK
  5
A0E
330
9E7
100
AcDbEntity
  8
0
100
AcDbBlockEnd
  0
BLOCK
  5
BDE
330
BB4
100
AcDbEntity
  8
0
100
AcDbBlockBegin
  2
A$C61973EBA
 70
     0
 10
0.0
 20
0.0
 30
0.0
  3
A$C61973EBA
  1

  0
LINE
  5
BB5
330
BB4
100
AcDbEntity
  8
0
100
AcDbLine
 10
88.67080900351998
 20
30.36965952003197
 30
0.0
 11
88.67080900351998
 21
27.91165952003212
 31
0.0
  0
LINE
  5
BB6
330
BB4
100
AcDbEntity
  8
0
100
AcDbLine
 10
84.67080900351994
 20
30.64065952003193
 30
0.0
 11
84.67080900351994
 21
27.6406595200317
 31
0.0
  0
LINE
  5
BB7
330
BB4
100
AcDbEntity
  8
0
100
AcDbLine
 10
88.39980900351999
 20
30.64065952003193
 30
0.0
 11
88.39980900351999
 21
27.6406595200317
 31
0.0
  0
LINE
  5
BB8
330
BB4
100
AcDbEntity
  8
0
100
AcDbLine
 10
83.97080900351999
 20
27.64065952003193
 30
0.0
 11
88.39980900351999
 21
27.6406595200317
 31
0.0
  0
ARC
  5
BB9
330
BB4
100
AcDbEntity
  8
0
100
AcDbCircle
 10
83.97080900351992
 20
27.34065952003198
 30
0.0
 40
0.3
100
AcDbArc
 50
89.99999999999429
 51
180.0
  0
LINE
  5
BBA
330
BB4
100
AcDbEntity
  8
0
100
AcDbLine
 10
84.67080900351991
 20
27.91165952003212
 30
0.0
 11
88.67080900351998
 21
27.91165952003189
 31
0.0
  0
LINE
  5
BBB
330
BB4
100
AcDbEntity
  8
0
100
AcDbLine
 10
83.97080900351983
 20
30.64065952003216
 30
0.0
 11
88.39980900351999
 21
30.64065952003193
 31
0.0
  0
ARC
  5
BBC
330
BB4
100
AcDbEntity
  8
0
100
AcDbCircle
 10
83.97080900351985
 20
30.94065952003211
 30
0.0
 40
0.3
100
AcDbArc
 50
180.0
 51
269.9999999999976
  0
LINE
  5
BBD
330
BB4
100
AcDbEntity
  8
0
100
AcDbLine
 10
84.67080900351994
 20
30.3696595200322
 30
0.0
 11
88.67080900351998
 21
30.36965952003197
 31
0.0
  0
LINE
  5
BBE
330
BB4
100
AcDbEntity
  8
0
100
AcDbLine
 10
88.67080900351998
 20
30.36965952003197
 30
0.0
 11
88.39980900351999
 21
30.64065952003193
 31
0.0
  0
LINE
  5
BBF
330
BB4
100
AcDbEntity
  8
0
100
AcDbLine
 10
88.67080900351998
 20
27.91165952003189
 30
0.0
 11
88.39980900351999
 21
27.64065952003193
 31
0.0
  0
LINE
  5
BC0
330
BB4
100
AcDbEntity
  8
0
100
AcDbLine
 10
84.67080900351994
 20
30.3696595200322
 30
0.0
 11
84.39980900351995
 21
30.64065952003216
 31
0.0
  0
LINE
  5
BC1
330
BB4
100
AcDbEntity
  8
0
100
AcDbLine
 10
84.67080900351994
 20
27.91165952003212
 30
0.0
 11
84.39980900351995
 21
27.64065952003216
 31
0.0
  0
LWPOLYLINE
  5
BC2
330
BB4
100
AcDbEntity
  8
0
100
AcDbPolyline
 90
        6
 70
     1
 43
0.0
 10
67.75556902818542
 20
27.58181379322014
 10
70.45556902818545
 20
26.02296806640811
 10
73.15556902818542
 20
27.58181379322014
 10
73.15556902818542
 20
30.69950524684418
 10
70.45556902818545
 20
32.25835097365621
 10
67.75556902818542
 20
30.69950524684418
  0
CIRCLE
  5
BC3
330
BB4
100
AcDbEntity
  8
0
100
AcDbCircle
 10
70.45556902818545
 20
29.14065952003239
 30
0.0
 40
2.620588235294154
  0
LINE
  5
BC4
330
BB4
100
AcDbEntity
  8
0
100
AcDbLine
 10
81.67075943164562
 20
31.76124775532617
 30
0.0
 11
81.67075943164562
 21
26.52007128473793
 31
0.0
  0
LINE
  5
BC5
330
BB4
100
AcDbEntity
  8
0
100
AcDbLine
 10
83.67080900351981
 20
32.25835097365621
 30
0.0
 11
83.67080900351984
 21
30.94065952003211
 31
0.0
  0
LINE
  5
BC6
330
BB4
100
AcDbEntity
  8
0
100
AcDbLine
 10
81.95776210856342
 20
26.02296806640811
 30
0.0
 11
83.67080900351981
 21
26.02296806640811
 31
0.0
  0
LINE
  5
BC7
330
BB4
100
AcDbEntity
  8
0
100
AcDbLine
 10
81.95776210856328
 20
32.25835097365575
 30
0.0
 11
83.67080900351981
 21
32.25835097365621
 31
0.0
  0
LINE
  5
BC8
330
BB4
100
AcDbEntity
  8
0
100
AcDbLine
 10
81.95776210856342
 20
27.58181379322014
 30
0.0
 11
83.67080900351981
 21
27.58181379322014
 31
0.0
  0
LINE
  5
BC9
330
BB4
100
AcDbEntity
  8
0
100
AcDbLine
 10
81.95776210856342
 20
30.69950524684396
 30
0.0
 11
83.67080900351981
 21
30.69950524684396
 31
0.0
  0
LINE
  5
BCA
330
BB4
100
AcDbEntity
  8
0
100
AcDbLine
 10
81.67075943164562
 20
31.76124775532617
 30
0.0
 11
81.95776210856328
 21
32.25835097365575
 31
0.0
  0
LINE
  5
BCB
330
BB4
100
AcDbEntity
  8
0
100
AcDbLine
 10
81.67075943164562
 20
26.52007128473793
 30
0.0
 11
81.95776210856342
 21
26.02296806640811
 31
0.0
  0
ARC
  5
BCC
330
BB4
100
AcDbEntity
  8
0
100
AcDbCircle
 10
83.09675211952381
 20
26.80239092981401
 30
0.0
 40
1.380144284148425
100
AcDbArc
 50
145.6157525319459
 51
214.3842474680541
  0
ARC
  5
BCD
330
BB4
100
AcDbEntity
  8
0
100
AcDbCircle
 10
86.87545356218697
 20
29.14065952003239
 30
0.0
 40
5.158845726811597
100
AcDbArc
 50
162.412046226009
 51
197.5879537739909
  0
ARC
  5
BCE
330
BB4
100
AcDbEntity
  8
0
100
AcDbCircle
 10
83.09675211952422
 20
31.47892811025008
 30
0.0
 40
1.380144284148761
100
AcDbArc
 50
145.6157525319617
 51
214.3842474680382
  0
LINE
  5
BCF
330
BB4
100
AcDbEntity
  8
0
100
AcDbLine
 10
7.999999991875936
 20
1.782999260432005
 30
0.0
 11
7.999999991875936
 21
0.2169992604324307
 31
0.0
  0
LINE
  5
BD0
330
BB4
100
AcDbEntity
  8
0
100
AcDbLine
 10
1.499999991875938
 20
1.999999260432105
 30
0.0
 11
1.499999991875938
 21
-0.0000007395678949
 31
0.0
  0
LINE
  5
BD1
330
BB4
100
AcDbEntity
  8
0
100
AcDbLine
 10
7.782999991875938
 20
1.999999260432105
 30
0.0
 11
7.782999991875938
 21
-0.0000007395678949
 31
0.0
  0
LINE
  5
BD2
330
BB4
100
AcDbEntity
  8
0
100
AcDbLine
 10
-0.0000000081240614
 20
-0.0000007395678949
 30
0.0
 11
7.782999991875938
 21
-0.0000007395678949
 31
0.0
  0
LINE
  5
BD3
330
BB4
100
AcDbEntity
  8
0
100
AcDbLine
 10
1.499999991875782
 20
0.2169992604322033
 30
0.0
 11
7.999999991875952
 21
0.2169992604331128
 31
0.0
  0
LINE
  5
BD4
330
BB4
100
AcDbEntity
  8
0
100
AcDbLine
 10
-0.0000000081240614
 20
1.999999260432105
 30
0.0
 11
7.782999991875938
 21
1.999999260432105
 31
0.0
  0
LINE
  5
BD5
330
BB4
100
AcDbEntity
  8
0
100
AcDbLine
 10
1.499999991875938
 20
1.782999260432005
 30
0.0
 11
7.999999991875936
 21
1.782999260432005
 31
0.0
  0
LINE
  5
BD6
330
BB4
100
AcDbEntity
  8
0
100
AcDbLine
 10
7.999999991875936
 20
1.782999260432005
 30
0.0
 11
7.782999991875938
 21
1.999999260432105
 31
0.0
  0
LINE
  5
BD7
330
BB4
100
AcDbEntity
  8
0
100
AcDbLine
 10
7.999999991875936
 20
0.2169992604324307
 30
0.0
 11
7.782999991875938
 21
-0.0000007395678949
 31
0.0
  0
LINE
  5
BD8
330
BB4
100
AcDbEntity
  8
0
100
AcDbLine
 10
1.499999991875938
 20
1.782999260432005
 30
0.0
 11
1.282999991875938
 21
1.999999260432105
 31
0.0
  0
LINE
  5
BD9
330
BB4
100
AcDbEntity
  8
0
100
AcDbLine
 10
1.499999991875938
 20
0.2169992604324307
 30
0.0
 11
1.282999991875938
 21
-0.0000007395678949
 31
0.0
  0
LINE
  5
BDA
330
BB4
100
AcDbEntity
  8
0
100
AcDbLine
 10
83.67080900351981
 20
26.02296806640811
 30
0.0
 11
83.67080900351993
 21
27.34065952003198
 31
0.0
  0
LINE
  5
BDB
330
BB4
100
AcDbEntity
  8
0
100
AcDbLine
 10
83.67080900351984
 20
30.94065952003211
 30
0.0
 11
83.67080900351993
 21
27.34065952003198
 31
0.0
  0
ENDBLK
  5
BDF
330
BB4
100
AcDbEntity
  8
0
100
AcDbBlockEnd
  0
BLOCK
  5
C0A
330
BE0
100
AcDbEntity
  8
0
100
AcDbBlockBegin
  2
A$C283B13A9
 70
     0
 10
0.0
 20
0.0
 30
0.0
  3
A$C283B13A9
  1

  0
LINE
  5
BE1
330
BE0
100
AcDbEntity
  8
0
100
AcDbLine
 10
88.67080900351998
 20
30.36965952003197
 30
0.0
 11
88.67080900351998
 21
27.91165952003212
 31
0.0
  0
LINE
  5
BE2
330
BE0
100
AcDbEntity
  8
0
100
AcDbLine
 10
84.67080900351994
 20
30.64065952003193
 30
0.0
 11
84.67080900351994
 21
27.6406595200317
 31
0.0
  0
LINE
  5
BE3
330
BE0
100
AcDbEntity
  8
0
100
AcDbLine
 10
88.39980900351999
 20
30.64065952003193
 30
0.0
 11
88.39980900351999
 21
27.6406595200317
 31
0.0
  0
LINE
  5
BE4
330
BE0
100
AcDbEntity
  8
0
100
AcDbLine
 10
83.97080900351999
 20
27.64065952003193
 30
0.0
 11
88.39980900351999
 21
27.6406595200317
 31
0.0
  0
ARC
  5
BE5
330
BE0
100
AcDbEntity
  8
0
100
AcDbCircle
 10
83.97080900351992
 20
27.34065952003198
 30
0.0
 40
0.3
100
AcDbArc
 50
89.99999999999429
 51
180.0
  0
LINE
  5
BE6
330
BE0
100
AcDbEntity
  8
0
100
AcDbLine
 10
84.67080900351991
 20
27.91165952003212
 30
0.0
 11
88.67080900351998
 21
27.91165952003189
 31
0.0
  0
LINE
  5
BE7
330
BE0
100
AcDbEntity
  8
0
100
AcDbLine
 10
83.97080900351983
 20
30.64065952003216
 30
0.0
 11
88.39980900351999
 21
30.64065952003193
 31
0.0
  0
ARC
  5
BE8
330
BE0
100
AcDbEntity
  8
0
100
AcDbCircle
 10
83.97080900351985
 20
30.94065952003211
 30
0.0
 40
0.3
100
AcDbArc
 50
180.0
 51
269.9999999999976
  0
LINE
  5
BE9
330
BE0
100
AcDbEntity
  8
0
100
AcDbLine
 10
84.67080900351994
 20
30.3696595200322
 30
0.0
 11
88.67080900351998
 21
30.36965952003197
 31
0.0
  0
LINE
  5
BEA
330
BE0
100
AcDbEntity
  8
0
100
AcDbLine
 10
88.67080900351998
 20
30.36965952003197
 30
0.0
 11
88.39980900351999
 21
30.64065952003193
 31
0.0
  0
LINE
  5
BEB
330
BE0
100
AcDbEntity
  8
0
100
AcDbLine
 10
88.67080900351998
 20
27.91165952003189
 30
0.0
 11
88.39980900351999
 21
27.64065952003193
 31
0.0
  0
LINE
  5
BEC
330
BE0
100
AcDbEntity
  8
0
100
AcDbLine
 10
84.67080900351994
 20
30.3696595200322
 30
0.0
 11
84.39980900351995
 21
30.64065952003216
 31
0.0
  0
LINE
  5
BED
330
BE0
100
AcDbEntity
  8
0
100
AcDbLine
 10
84.67080900351994
 20
27.91165952003212
 30
0.0
 11
84.39980900351995
 21
27.64065952003216
 31
0.0
  0
LWPOLYLINE
  5
BEE
330
BE0
100
AcDbEntity
  8
0
100
AcDbPolyline
 90
        6
 70
     1
 43
0.0
 10
67.75556902818542
 20
27.58181379322014
 10
70.45556902818545
 20
26.02296806640811
 10
73.15556902818542
 20
27.58181379322014
 10
73.15556902818542
 20
30.69950524684418
 10
70.45556902818545
 20
32.25835097365621
 10
67.75556902818542
 20
30.69950524684418
  0
CIRCLE
  5
BEF
330
BE0
100
AcDbEntity
  8
0
100
AcDbCircle
 10
70.45556902818545
 20
29.14065952003239
 30
0.0
 40
2.620588235294154
  0
LINE
  5
BF0
330
BE0
100
AcDbEntity
  8
0
100
AcDbLine
 10
81.67075943164562
 20
31.76124775532617
 30
0.0
 11
81.67075943164562
 21
26.52007128473793
 31
0.0
  0
LINE
  5
BF1
330
BE0
100
AcDbEntity
  8
0
100
AcDbLine
 10
83.67080900351981
 20
32.25835097365621
 30
0.0
 11
83.67080900351984
 21
30.94065952003211
 31
0.0
  0
LINE
  5
BF2
330
BE0
100
AcDbEntity
  8
0
100
AcDbLine
 10
81.95776210856342
 20
26.02296806640811
 30
0.0
 11
83.67080900351981
 21
26.02296806640811
 31
0.0
  0
LINE
  5
BF3
330
BE0
100
AcDbEntity
  8
0
100
AcDbLine
 10
81.95776210856328
 20
32.25835097365575
 30
0.0
 11
83.67080900351981
 21
32.25835097365621
 31
0.0
  0
LINE
  5
BF4
330
BE0
100
AcDbEntity
  8
0
100
AcDbLine
 10
81.95776210856342
 20
27.58181379322014
 30
0.0
 11
83.67080900351981
 21
27.58181379322014
 31
0.0
  0
LINE
  5
BF5
330
BE0
100
AcDbEntity
  8
0
100
AcDbLine
 10
81.95776210856342
 20
30.69950524684396
 30
0.0
 11
83.67080900351981
 21
30.69950524684396
 31
0.0
  0
LINE
  5
BF6
330
BE0
100
AcDbEntity
  8
0
100
AcDbLine
 10
81.67075943164562
 20
31.76124775532617
 30
0.0
 11
81.95776210856328
 21
32.25835097365575
 31
0.0
  0
LINE
  5
BF7
330
BE0
100
AcDbEntity
  8
0
100
AcDbLine
 10
81.67075943164562
 20
26.52007128473793
 30
0.0
 11
81.95776210856342
 21
26.02296806640811
 31
0.0
  0
ARC
  5
BF8
330
BE0
100
AcDbEntity
  8
0
100
AcDbCircle
 10
83.09675211952381
 20
26.80239092981401
 30
0.0
 40
1.380144284148425
100
AcDbArc
 50
145.6157525319459
 51
214.3842474680541
  0
ARC
  5
BF9
330
BE0
100
AcDbEntity
  8
0
100
AcDbCircle
 10
86.87545356218697
 20
29.14065952003239
 30
0.0
 40
5.158845726811597
100
AcDbArc
 50
162.412046226009
 51
197.5879537739909
  0
ARC
  5
BFA
330
BE0
100
AcDbEntity
  8
0
100
AcDbCircle
 10
83.09675211952422
 20
31.47892811025008
 30
0.0
 40
1.380144284148761
100
AcDbArc
 50
145.6157525319617
 51
214.3842474680382
  0
LINE
  5
BFB
330
BE0
100
AcDbEntity
  8
0
100
AcDbLine
 10
7.999999991875936
 20
1.782999260432005
 30
0.0
 11
7.999999991875936
 21
0.2169992604324307
 31
0.0
  0
LINE
  5
BFC
330
BE0
100
AcDbEntity
  8
0
100
AcDbLine
 10
1.499999991875938
 20
1.999999260432105
 30
0.0
 11
1.499999991875938
 21
-0.0000007395678949
 31
0.0
  0
LINE
  5
BFD
330
BE0
100
AcDbEntity
  8
0
100
AcDbLine
 10
7.782999991875938
 20
1.999999260432105
 30
0.0
 11
7.782999991875938
 21
-0.0000007395678949
 31
0.0
  0
LINE
  5
BFE
330
BE0
100
AcDbEntity
  8
0
100
AcDbLine
 10
-0.0000000081240614
 20
-0.0000007395678949
 30
0.0
 11
7.782999991875938
 21
-0.0000007395678949
 31
0.0
  0
LINE
  5
BFF
330
BE0
100
AcDbEntity
  8
0
100
AcDbLine
 10
1.499999991875782
 20
0.2169992604322033
 30
0.0
 11
7.999999991875952
 21
0.2169992604331128
 31
0.0
  0
LINE
  5
C00
330
BE0
100
AcDbEntity
  8
0
100
AcDbLine
 10
-0.0000000081240614
 20
1.999999260432105
 30
0.0
 11
7.782999991875938
 21
1.999999260432105
 31
0.0
  0
LINE
  5
C01
330
BE0
100
AcDbEntity
  8
0
100
AcDbLine
 10
1.499999991875938
 20
1.782999260432005
 30
0.0
 11
7.999999991875936
 21
1.782999260432005
 31
0.0
  0
LINE
  5
C02
330
BE0
100
AcDbEntity
  8
0
100
AcDbLine
 10
7.999999991875936
 20
1.782999260432005
 30
0.0
 11
7.782999991875938
 21
1.999999260432105
 31
0.0
  0
LINE
  5
C03
330
BE0
100
AcDbEntity
  8
0
100
AcDbLine
 10
7.999999991875936
 20
0.2169992604324307
 30
0.0
 11
7.782999991875938
 21
-0.0000007395678949
 31
0.0
  0
LINE
  5
C04
330
BE0
100
AcDbEntity
  8
0
100
AcDbLine
 10
1.499999991875938
 20
1.782999260432005
 30
0.0
 11
1.282999991875938
 21
1.999999260432105
 31
0.0
  0
LINE
  5
C05
330
BE0
100
AcDbEntity
  8
0
100
AcDbLine
 10
1.499999991875938
 20
0.2169992604324307
 30
0.0
 11
1.282999991875938
 21
-0.0000007395678949
 31
0.0
  0
LINE
  5
C06
330
BE0
100
AcDbEntity
  8
0
100
AcDbLine
 10
83.67080900351981
 20
26.02296806640811
 30
0.0
 11
83.67080900351993
 21
27.34065952003198
 31
0.0
  0
LINE
  5
C07
330
BE0
100
AcDbEntity
  8
0
100
AcDbLine
 10
83.67080900351984
 20
30.94065952003211
 30
0.0
 11
83.67080900351993
 21
27.34065952003198
 31
0.0
  0
ENDBLK
  5
C0B
330
BE0
100
AcDbEntity
  8
0
100
AcDbBlockEnd
  0
BLOCK
  5
C0D
330
C0C
100
AcDbEntity
  8
0
100
AcDbBlockBegin
  2
*D19
 70
     1
 10
0.0
 20
0.0
 30
0.0
  3
*D19
  1

  0
LINE
  5
C0E
330
C0C
100
AcDbEntity
  8
0
 62
     0
370
    -2
100
AcDbLine
 10
145.1428666236477
 20
1557.354836949368
 30
0.0
 11
145.1428666236477
 21
1562.483279537573
 31
0.0
  0
LINE
  5
C0F
330
C0C
100
AcDbEntity
  8
0
 62
     0
370
    -2
100
AcDbLine
 10
150.5428666236477
 20
1557.354836949368
 30
0.0
 11
150.5428666236477
 21
1562.483279537573
 31
0.0
  0
LINE
  5
C10
330
C0C
100
AcDbEntity
  8
0
 62
     0
370
    -2
100
AcDbLine
 10
148.7428666236477
 20
1561.233279537573
 30
0.0
 11
146.9428666236477
 21
1561.233279537573
 31
0.0
  0
LINE
  5
C11
330
C0C
100
AcDbEntity
  8
0
 62
     0
370
    -2
100
AcDbLine
 10
145.1428666236477
 20
1561.233279537573
 30
0.0
 11
137.326199956981
 21
1561.233279537573
 31
0.0
  0
INSERT
  5
C12
330
C0C
100
AcDbEntity
  8
0
 62
     0
370
    -2
100
AcDbBlockReference
  2
_Open30
 10
150.5428666236477
 20
1561.233279537573
 30
0.0
 41
1.8
 42
1.8
 43
1.8
  0
INSERT
  5
C13
330
C0C
100
AcDbEntity
  8
0
 62
     0
370
    -2
100
AcDbBlockReference
  2
_Open30
 10
145.1428666236477
 20
1561.233279537573
 30
0.0
 41
1.8
 42
1.8
 43
1.8
 50
180.0
  0
MTEXT
  5
C14
330
C0C
100
AcDbEntity
  8
0
 62
     0
100
AcDbMText
 10
140.3345332903144
 20
1563.141612870906
 30
0.0
 40
2.2
 41
0.0
 46
0.0
 71
     5
 72
     1
  1
5,4
 73
     1
 44
1.0
  0
POINT
  5
C15
330
C0C
100
AcDbEntity
  8
Defpoints
 62
     0
100
AcDbPoint
 10
145.1428666236477
 20
1556.729836949368
 30
0.0
  0
POINT
  5
C16
330
C0C
100
AcDbEntity
  8
Defpoints
 62
     0
100
AcDbPoint
 10
150.5428666236477
 20
1556.729836949368
 30
0.0
  0
POINT
  5
C17
330
C0C
100
AcDbEntity
  8
Defpoints
 62
     0
100
AcDbPoint
 10
150.5428666236477
 20
1561.233279537573
 30
0.0
  0
ENDBLK
  5
C18
330
C0C
100
AcDbEntity
  8
0
100
AcDbBlockEnd
  0
BLOCK
  5
C1A
330
C19
100
AcDbEntity
  8
0
100
AcDbBlockBegin
  2
*D20
 70
     1
 10
0.0
 20
0.0
 30
0.0
  3
*D20
  1

  0
LINE
  5
C1B
330
C19
100
AcDbEntity
  8
0
 62
     0
370
    -2
100
AcDbLine
 10
161.058106598982
 20
1558.91368267618
 30
0.0
 11
161.058106598982
 21
1562.499649153538
 31
0.0
  0
LINE
  5
C1C
330
C19
100
AcDbEntity
  8
0
 62
     0
370
    -2
100
AcDbLine
 10
159.0580570271079
 20
1558.41657945785
 30
0.0
 11
159.0580570271079
 21
1562.499649153538
 31
0.0
  0
LINE
  5
C1D
330
C19
100
AcDbEntity
  8
0
 62
     0
370
    -2
100
AcDbLine
 10
162.8581065989821
 20
1561.249649153538
 30
0.0
 11
164.6581065989821
 21
1561.249649153538
 31
0.0
  0
LINE
  5
C1E
330
C19
100
AcDbEntity
  8
0
 62
     0
370
    -2
100
AcDbLine
 10
157.2580570271079
 20
1561.249649153538
 30
0.0
 11
152.7413903604412
 21
1561.249649153538
 31
0.0
  0
LINE
  5
C1F
330
C19
100
AcDbEntity
  8
0
 62
     0
370
    -2
100
AcDbLine
 10
161.058106598982
 20
1561.249649153538
 30
0.0
 11
159.0580570271079
 21
1561.249649153538
 31
0.0
  0
INSERT
  5
C20
330
C19
100
AcDbEntity
  8
0
 62
     0
370
    -2
100
AcDbBlockReference
  2
_Open30
 10
161.058106598982
 20
1561.249649153538
 30
0.0
 41
1.8
 42
1.8
 43
1.8
 50
180.0
  0
INSERT
  5
C21
330
C19
100
AcDbEntity
  8
0
 62
     0
370
    -2
100
AcDbBlockReference
  2
_Open30
 10
159.0580570271079
 20
1561.249649153538
 30
0.0
 41
1.8
 42
1.8
 43
1.8
  0
MTEXT
  5
C22
330
C19
100
AcDbEntity
  8
0
 62
     0
100
AcDbMText
 10
154.0997236937746
 20
1562.974649153538
 30
0.0
 40
2.2
 41
0.0
 46
0.0
 71
     5
 72
     1
  1
2
 73
     1
 44
1.0
  0
POINT
  5
C23
330
C19
100
AcDbEntity
  8
Defpoints
 62
     0
100
AcDbPoint
 10
161.058106598982
 20
1558.28868267618
 30
0.0
  0
POINT
  5
C24
330
C19
100
AcDbEntity
  8
Defpoints
 62
     0
100
AcDbPoint
 10
159.0580570271079
 20
1557.79157945785
 30
0.0
  0
POINT
  5
C25
330
C19
100
AcDbEntity
  8
Defpoints
 62
     0
100
AcDbPoint
 10
159.0580570271079
 20
1561.249649153538
 30
0.0
  0
ENDBLK
  5
C26
330
C19
100
AcDbEntity
  8
0
100
AcDbBlockEnd
  0
BLOCK
  5
C28
330
C27
100
AcDbEntity
  8
0
100
AcDbBlockBegin
  2
*D21
 70
     1
 10
0.0
 20
0.0
 30
0.0
  3
*D21
  1

  0
LINE
  5
C29
330
C27
100
AcDbEntity
  8
0
 62
     0
370
    -2
100
AcDbLine
 10
161.058106598982
 20
1551.428299768932
 30
0.0
 11
161.058106598982
 21
1548.602081694064
 31
0.0
  0
LINE
  5
C2A
330
C27
100
AcDbEntity
  8
0
 62
     0
370
    -2
100
AcDbLine
 10
166.0581065989823
 20
1553.316991222556
 30
0.0
 11
166.0581065989823
 21
1548.602081694064
 31
0.0
  0
LINE
  5
C2B
330
C27
100
AcDbEntity
  8
0
 62
     0
370
    -2
100
AcDbLine
 10
162.8581065989821
 20
1549.852081694064
 30
0.0
 11
164.2581065989823
 21
1549.852081694064
 31
0.0
  0
INSERT
  5
C2C
330
C27
100
AcDbEntity
  8
0
 62
     0
370
    -2
100
AcDbBlockReference
  2
_Open30
 10
161.058106598982
 20
1549.852081694064
 30
0.0
 41
1.8
 42
1.8
 43
1.8
 50
180.0
  0
INSERT
  5
C2D
330
C27
100
AcDbEntity
  8
0
 62
     0
370
    -2
100
AcDbBlockReference
  2
_Open30
 10
166.0581065989823
 20
1549.852081694064
 30
0.0
 41
1.8
 42
1.8
 43
1.8
  0
MTEXT
  5
C2E
330
C27
100
AcDbEntity
  8
0
 62
     0
100
AcDbMText
 10
163.5581065989822
 20
1551.577081694064
 30
0.0
 40
2.2
 41
0.0
 46
0.0
 71
     5
 72
     1
  1
5
 73
     1
 44
1.0
  0
POINT
  5
C2F
330
C27
100
AcDbEntity
  8
Defpoints
 62
     0
100
AcDbPoint
 10
161.058106598982
 20
1552.053299768932
 30
0.0
  0
POINT
  5
C30
330
C27
100
AcDbEntity
  8
Defpoints
 62
     0
100
AcDbPoint
 10
166.0581065989823
 20
1553.941991222556
 30
0.0
  0
POINT
  5
C31
330
C27
100
AcDbEntity
  8
Defpoints
 62
     0
100
AcDbPoint
 10
166.0581065989823
 20
1549.852081694064
 30
0.0
  0
ENDBLK
  5
C32
330
C27
100
AcDbEntity
  8
0
100
AcDbBlockEnd
  0
BLOCK
  5
C34
330
C33
100
AcDbEntity
  8
0
100
AcDbBlockBegin
  2
*D22
 70
     1
 10
0.0
 20
0.0
 30
0.0
  3
*D22
  1

  0
LINE
  5
C35
330
C33
100
AcDbEntity
  8
0
 62
     0
370
    -2
100
AcDbLine
 10
166.4121065989823
 20
1556.670991222556
 30
0.0
 11
172.2203549587348
 21
1556.670991222556
 31
0.0
  0
LINE
  5
C36
330
C33
100
AcDbEntity
  8
0
 62
     0
370
    -2
100
AcDbLine
 10
166.4121065989823
 20
1553.670991222556
 30
0.0
 11
172.2203549587348
 21
1553.670991222556
 31
0.0
  0
LINE
  5
C37
330
C33
100
AcDbEntity
  8
0
 62
     0
370
    -2
100
AcDbLine
 10
170.9703549587348
 20
1558.470991222556
 30
0.0
 11
170.9703549587348
 21
1560.270991222556
 31
0.0
  0
LINE
  5
C38
330
C33
100
AcDbEntity
  8
0
 62
     0
370
    -2
100
AcDbLine
 10
170.9703549587348
 20
1551.870991222556
 30
0.0
 11
170.9703549587348
 21
1550.070991222556
 31
0.0
  0
LINE
  5
C39
330
C33
100
AcDbEntity
  8
0
 62
     0
370
    -2
100
AcDbLine
 10
170.9703549587348
 20
1556.670991222556
 30
0.0
 11
170.9703549587348
 21
1553.670991222556
 31
0.0
  0
INSERT
  5
C3A
330
C33
100
AcDbEntity
  8
0
 62
     0
370
    -2
100
AcDbBlockReference
  2
_Open30
 10
170.9703549587348
 20
1556.670991222556
 30
0.0
 41
1.8
 42
1.8
 43
1.8
 50
270.0
  0
INSERT
  5
C3B
330
C33
100
AcDbEntity
  8
0
 62
     0
370
    -2
100
AcDbBlockReference
  2
_Open30
 10
170.9703549587348
 20
1553.670991222556
 30
0.0
 41
1.8
 42
1.8
 43
1.8
 50
90.0
  0
MTEXT
  5
C3C
330
C33
100
AcDbEntity
  8
0
 62
     0
100
AcDbMText
 10
169.2453549587345
 20
1555.170991222556
 30
0.0
 40
2.2
 41
0.0
 46
0.0
 71
     5
 72
     1
  1
3
 11
0.0000000000000001
 21
1.0
 31
0.0
 73
     1
 44
1.0
  0
POINT
  5
C3D
330
C33
100
AcDbEntity
  8
Defpoints
 62
     0
100
AcDbPoint
 10
165.7871065989823
 20
1556.670991222556
 30
0.0
  0
POINT
  5
C3E
330
C33
100
AcDbEntity
  8
Defpoints
 62
     0
100
AcDbPoint
 10
165.7871065989823
 20
1553.670991222556
 30
0.0
  0
POINT
  5
C3F
330
C33
100
AcDbEntity
  8
Defpoints
 62
     0
100
AcDbPoint
 10
170.9703549587348
 20
1553.670991222556
 30
0.0
  0
ENDBLK
  5
C40
330
C33
100
AcDbEntity
  8
0
100
AcDbBlockEnd
  0
BLOCK
  5
C96
330
C8B
100
AcDbEntity
  8
0
100
AcDbBlockBegin
  2
*D23
 70
     1
 10
0.0
 20
0.0
 30
0.0
  3
*D23
  1

  0
LINE
  5
CB2
330
C8B
100
AcDbEntity
  8
0
 62
     0
370
    -2
100
AcDbLine
 10
3.978169400178756
 20
21.84565757083889
 30
0.0
 11
3.978169400178756
 21
26.97410015904386
 31
0.0
  0
LINE
  5
CB3
330
C8B
100
AcDbEntity
  8
0
 62
     0
370
    -2
100
AcDbLine
 10
9.37816940017876
 20
21.84565757083889
 30
0.0
 11
9.37816940017876
 21
26.97410015904386
 31
0.0
  0
LINE
  5
CB4
330
C8B
100
AcDbEntity
  8
0
 62
     0
370
    -2
100
AcDbLine
 10
7.578169400178762
 20
25.72410015904386
 30
0.0
 11
5.778169400178757
 21
25.72410015904386
 31
0.0
  0
LINE
  5
CB5
330
C8B
100
AcDbEntity
  8
0
 62
     0
370
    -2
100
AcDbLine
 10
3.978169400178756
 20
25.72410015904386
 30
0.0
 11
-3.838497266487913
 21
25.72410015904386
 31
0.0
  0
INSERT
  5
CB6
330
C8B
100
AcDbEntity
  8
0
 62
     0
370
    -2
100
AcDbBlockReference
  2
_Open30
 10
9.37816940017876
 20
25.72410015904386
 30
0.0
 41
1.8
 42
1.8
 43
1.8
  0
INSERT
  5
CB7
330
C8B
100
AcDbEntity
  8
0
 62
     0
370
    -2
100
AcDbBlockReference
  2
_Open30
 10
3.978169400178756
 20
25.72410015904386
 30
0.0
 41
1.8
 42
1.8
 43
1.8
 50
180.0
  0
MTEXT
  5
CB8
330
C8B
100
AcDbEntity
  8
0
 62
     0
100
AcDbMText
 10
-0.8301639331545798
 20
27.63243349237719
 30
0.0
 40
2.2
 41
0.0
 46
0.0
 71
     5
 72
     1
  1
5,4
 73
     1
 44
1.0
  0
POINT
  5
CB9
330
C8B
100
AcDbEntity
  8
Defpoints
 62
     0
100
AcDbPoint
 10
3.978169400178756
 20
21.22065757083889
 30
0.0
  0
POINT
  5
CBA
330
C8B
100
AcDbEntity
  8
Defpoints
 62
     0
100
AcDbPoint
 10
9.37816940017876
 20
21.22065757083889
 30
0.0
  0
POINT
  5
CBB
330
C8B
100
AcDbEntity
  8
Defpoints
 62
     0
100
AcDbPoint
 10
9.37816940017876
 20
25.72410015904386
 30
0.0
  0
ENDBLK
  5
C97
330
C8B
100
AcDbEntity
  8
0
100
AcDbBlockEnd
  0
BLOCK
  5
CA4
330
C98
100
AcDbEntity
  8
0
100
AcDbBlockBegin
  2
*D24
 70
     1
 10
0.0
 20
0.0
 30
0.0
  3
*D24
  1

  0
LINE
  5
CBC
330
C98
100
AcDbEntity
  8
0
 62
     0
370
    -2
100
AcDbLine
 10
19.89340937551316
 20
23.40450329765092
 30
0.0
 11
19.89340937551316
 21
26.99046977500909
 31
0.0
  0
LINE
  5
CBD
330
C98
100
AcDbEntity
  8
0
 62
     0
370
    -2
100
AcDbLine
 10
17.89335980363896
 20
22.90740007932088
 30
0.0
 11
17.89335980363896
 21
26.99046977500909
 31
0.0
  0
LINE
  5
CBE
330
C98
100
AcDbEntity
  8
0
 62
     0
370
    -2
100
AcDbLine
 10
21.69340937551316
 20
25.74046977500909
 30
0.0
 11
23.49340937551316
 21
25.74046977500909
 31
0.0
  0
LINE
  5
CBF
330
C98
100
AcDbEntity
  8
0
 62
     0
370
    -2
100
AcDbLine
 10
16.09335980363896
 20
25.74046977500909
 30
0.0
 11
11.57669313697229
 21
25.74046977500909
 31
0.0
  0
LINE
  5
CC0
330
C98
100
AcDbEntity
  8
0
 62
     0
370
    -2
100
AcDbLine
 10
19.89340937551316
 20
25.74046977500909
 30
0.0
 11
17.89335980363896
 21
25.74046977500909
 31
0.0
  0
INSERT
  5
CC1
330
C98
100
AcDbEntity
  8
0
 62
     0
370
    -2
100
AcDbBlockReference
  2
_Open30
 10
19.89340937551316
 20
25.74046977500909
 30
0.0
 41
1.8
 42
1.8
 43
1.8
 50
180.0
  0
INSERT
  5
CC2
330
C98
100
AcDbEntity
  8
0
 62
     0
370
    -2
100
AcDbBlockReference
  2
_Open30
 10
17.89335980363896
 20
25.74046977500909
 30
0.0
 41
1.8
 42
1.8
 43
1.8
  0
MTEXT
  5
CC3
330
C98
100
AcDbEntity
  8
0
 62
     0
100
AcDbMText
 10
12.93502647030562
 20
27.46546977500909
 30
0.0
 40
2.2
 41
0.0
 46
0.0
 71
     5
 72
     1
  1
2
 73
     1
 44
1.0
  0
POINT
  5
CC4
330
C98
100
AcDbEntity
  8
Defpoints
 62
     0
100
AcDbPoint
 10
19.89340937551316
 20
22.77950329765092
 30
0.0
  0
POINT
  5
CC5
330
C98
100
AcDbEntity
  8
Defpoints
 62
     0
100
AcDbPoint
 10
17.89335980363896
 20
22.28240007932088
 30
0.0
  0
POINT
  5
CC6
330
C98
100
AcDbEntity
  8
Defpoints
 62
     0
100
AcDbPoint
 10
17.89335980363896
 20
25.74046977500909
 30
0.0
  0
ENDBLK
  5
CA5
330
C98
100
AcDbEntity
  8
0
100
AcDbBlockEnd
  0
BLOCK
  5
CB0
330
CA6
100
AcDbEntity
  8
0
100
AcDbBlockBegin
  2
*D25
 70
     1
 10
0.0
 20
0.0
 30
0.0
  3
*D25
  1

  0
LINE
  5
CC7
330
CA6
100
AcDbEntity
  8
0
 62
     0
370
    -2
100
AcDbLine
 10
19.89340937551316
 20
15.91912039040282
 30
0.0
 11
19.89340937551316
 21
13.09290231553511
 31
0.0
  0
LINE
  5
CC8
330
CA6
100
AcDbEntity
  8
0
 62
     0
370
    -2
100
AcDbLine
 10
24.8934093755133
 20
17.80781184402682
 30
0.0
 11
24.8934093755133
 21
13.09290231553511
 31
0.0
  0
LINE
  5
CC9
330
CA6
100
AcDbEntity
  8
0
 62
     0
370
    -2
100
AcDbLine
 10
21.69340937551316
 20
14.34290231553511
 30
0.0
 11
23.0934093755133
 21
14.34290231553511
 31
0.0
  0
INSERT
  5
CCA
330
CA6
100
AcDbEntity
  8
0
 62
     0
370
    -2
100
AcDbBlockReference
  2
_Open30
 10
19.89340937551316
 20
14.34290231553511
 30
0.0
 41
1.8
 42
1.8
 43
1.8
 50
180.0
  0
INSERT
  5
CCB
330
CA6
100
AcDbEntity
  8
0
 62
     0
370
    -2
100
AcDbBlockReference
  2
_Open30
 10
24.8934093755133
 20
14.34290231553511
 30
0.0
 41
1.8
 42
1.8
 43
1.8
  0
MTEXT
  5
CCC
330
CA6
100
AcDbEntity
  8
0
 62
     0
100
AcDbMText
 10
22.39340937551323
 20
16.0679023155351
 30
0.0
 40
2.2
 41
0.0
 46
0.0
 71
     5
 72
     1
  1
5
 73
     1
 44
1.0
  0
POINT
  5
CCD
330
CA6
100
AcDbEntity
  8
Defpoints
 62
     0
100
AcDbPoint
 10
19.89340937551316
 20
16.54412039040282
 30
0.0
  0
POINT
  5
CCE
330
CA6
100
AcDbEntity
  8
Defpoints
 62
     0
100
AcDbPoint
 10
24.8934093755133
 20
18.43281184402682
 30
0.0
  0
POINT
  5
CCF
330
CA6
100
AcDbEntity
  8
Defpoints
 62
     0
100
AcDbPoint
 10
24.8934093755133
 20
14.34290231553511
 30
0.0
  0
ENDBLK
  5
CB1
330
CA6
100
AcDbEntity
  8
0
100
AcDbBlockEnd
  0
BLOCK
  5
CDC
330
CD0
100
AcDbEntity
  8
0
100
AcDbBlockBegin
  2
*D26
 70
     1
 10
0.0
 20
0.0
 30
0.0
  3
*D26
  1

  0
LINE
  5
CD1
330
CD0
100
AcDbEntity
  8
0
 62
     0
370
    -2
100
AcDbLine
 10
25.24740937551332
 20
21.16181184402664
 30
0.0
 11
31.05565773526581
 21
21.16181184402664
 31
0.0
  0
LINE
  5
CD2
330
CD0
100
AcDbEntity
  8
0
 62
     0
370
    -2
100
AcDbLine
 10
25.24740937551332
 20
18.16181184402642
 30
0.0
 11
31.05565773526581
 21
18.16181184402642
 31
0.0
  0
LINE
  5
CD3
330
CD0
100
AcDbEntity
  8
0
 62
     0
370
    -2
100
AcDbLine
 10
29.80565773526581
 20
22.96181184402664
 30
0.0
 11
29.80565773526582
 21
24.76181184402665
 31
0.0
  0
LINE
  5
CD4
330
CD0
100
AcDbEntity
  8
0
 62
     0
370
    -2
100
AcDbLine
 10
29.80565773526581
 20
16.36181184402641
 30
0.0
 11
29.80565773526581
 21
14.56181184402641
 31
0.0
  0
LINE
  5
CD5
330
CD0
100
AcDbEntity
  8
0
 62
     0
370
    -2
100
AcDbLine
 10
29.80565773526581
 20
21.16181184402664
 30
0.0
 11
29.80565773526581
 21
18.16181184402642
 31
0.0
  0
INSERT
  5
CD6
330
CD0
100
AcDbEntity
  8
0
 62
     0
370
    -2
100
AcDbBlockReference
  2
_Open30
 10
29.80565773526581
 20
21.16181184402664
 30
0.0
 41
1.8
 42
1.8
 43
1.8
 50
270.0
  0
INSERT
  5
CD7
330
CD0
100
AcDbEntity
  8
0
 62
     0
370
    -2
100
AcDbBlockReference
  2
_Open30
 10
29.80565773526581
 20
18.16181184402642
 30
0.0
 41
1.8
 42
1.8
 43
1.8
 50
90.0
  0
MTEXT
  5
CD8
330
CD0
100
AcDbEntity
  8
0
 62
     0
100
AcDbMText
 10
28.0806577352658
 20
19.66181184402653
 30
0.0
 40
2.2
 41
0.0
 46
0.0
 71
     5
 72
     1
  1
3
 11
0.0000000000000001
 21
1.0
 31
0.0
 73
     1
 44
1.0
  0
POINT
  5
CD9
330
CD0
100
AcDbEntity
  8
Defpoints
 62
     0
100
AcDbPoint
 10
24.62240937551332
 20
21.16181184402664
 30
0.0
  0
POINT
  5
CDA
330
CD0
100
AcDbEntity
  8
Defpoints
 62
     0
100
AcDbPoint
 10
24.62240937551332
 20
18.16181184402642
 30
0.0
  0
POINT
  5
CDB
330
CD0
100
AcDbEntity
  8
Defpoints
 62
     0
100
AcDbPoint
 10
29.80565773526581
 20
18.16181184402642
 30
0.0
  0
ENDBLK
  5
CDD
330
CD0
100
AcDbEntity
  8
0
100
AcDbBlockEnd
  0
BLOCK
  5
D25
330
D1B
100
AcDbEntity
  8
0
100
AcDbBlockBegin
  2
*D27
 70
     1
 10
0.0
 20
0.0
 30
0.0
  3
*D27
  1

  0
LINE
  5
2055
330
D1B
100
AcDbEntity
  8
dimention
 62
     0
370
    -2
100
AcDbLine
 10
0.0000009054007251
 20
11.67171725782987
 30
0.0
 11
0.0000009054007257
 21
21.27550529186857
 31
0.0
  0
LINE
  5
2056
330
D1B
100
AcDbEntity
  8
dimention
 62
     0
370
    -2
100
AcDbLine
 10
12.89998866200471
 20
11.67171725782987
 30
0.0
 11
12.89998866200471
 21
21.27550529186857
 31
0.0
  0
LINE
  5
2057
330
D1B
100
AcDbEntity
  8
dimention
 62
     0
370
    -2
100
AcDbLine
 10
0.5000009054007258
 20
20.77550529186857
 30
0.0
 11
12.39998866200471
 21
20.77550529186857
 31
0.0
  0
INSERT
  5
2058
330
D1B
100
AcDbEntity
  8
dimention
 62
     0
370
    -2
100
AcDbBlockReference
  2
_Open30
 10
0.0000009054007257
 20
20.77550529186857
 30
0.0
 41
0.5
 42
0.5
 43
0.5
 50
180.0
  0
INSERT
  5
2059
330
D1B
100
AcDbEntity
  8
dimention
 62
     0
370
    -2
100
AcDbBlockReference
  2
_Open30
 10
12.89998866200471
 20
20.77550529186857
 30
0.0
 41
0.5
 42
0.5
 43
0.5
  0
MTEXT
  5
205A
330
D1B
100
AcDbEntity
  8
dimention
 62
     0
100
AcDbMText
 10
6.449994783702718
 20
21.47550529186857
 30
0.0
 40
0.8
 41
0.0
 46
0.0
 71
     5
 72
     1
  1
\A1;12.9
 73
     1
 44
1.0
  0
POINT
  5
205B
330
D1B
100
AcDbEntity
  8
Defpoints
 62
     0
100
AcDbPoint
 10
0.0000009054007251
 20
11.17171725782987
 30
0.0
  0
POINT
  5
205C
330
D1B
100
AcDbEntity
  8
Defpoints
 62
     0
100
AcDbPoint
 10
12.89998866200471
 20
11.17171725782987
 30
0.0
  0
POINT
  5
205D
330
D1B
100
AcDbEntity
  8
Defpoints
 62
     0
100
AcDbPoint
 10
12.89998866200471
 20
20.77550529186857
 30
0.0
  0
ENDBLK
  5
D26
330
D1B
100
AcDbEntity
  8
0
100
AcDbBlockEnd
  0
BLOCK
  5
D4F
330
D45
100
AcDbEntity
  8
0
100
AcDbBlockBegin
  2
*D28
 70
     1
 10
0.0
 20
0.0
 30
0.0
  3
*D28
  1

  0
LINE
  5
205E
330
D45
100
AcDbEntity
  8
dimention
 62
     0
370
    -2
100
AcDbLine
 10
33.24181309715039
 20
14.20809973191944
 30
0.0
 11
33.24181309715039
 21
21.27550529186857
 31
0.0
  0
LINE
  5
205F
330
D45
100
AcDbEntity
  8
dimention
 62
     0
370
    -2
100
AcDbLine
 10
38.54181309715034
 20
15.39562295973837
 30
0.0
 11
38.54181309715034
 21
21.27550529186857
 31
0.0
  0
LINE
  5
2060
330
D45
100
AcDbEntity
  8
dimention
 62
     0
370
    -2
100
AcDbLine
 10
33.74181309715039
 20
20.77550529186857
 30
0.0
 11
38.04181309715035
 21
20.77550529186857
 31
0.0
  0
INSERT
  5
2061
330
D45
100
AcDbEntity
  8
dimention
 62
     0
370
    -2
100
AcDbBlockReference
  2
_Open30
 10
33.24181309715039
 20
20.77550529186857
 30
0.0
 41
0.5
 42
0.5
 43
0.5
 50
180.0
  0
INSERT
  5
2062
330
D45
100
AcDbEntity
  8
dimention
 62
     0
370
    -2
100
AcDbBlockReference
  2
_Open30
 10
38.54181309715034
 20
20.77550529186857
 30
0.0
 41
0.5
 42
0.5
 43
0.5
  0
MTEXT
  5
2063
330
D45
100
AcDbEntity
  8
dimention
 62
     0
100
AcDbMText
 10
35.89181309715036
 20
21.47550529186857
 30
0.0
 40
0.8
 41
0.0
 46
0.0
 71
     5
 72
     1
  1
\A1;5.3
 73
     1
 44
1.0
  0
POINT
  5
2064
330
D45
100
AcDbEntity
  8
Defpoints
 62
     0
100
AcDbPoint
 10
33.24181309715039
 20
13.70809973191944
 30
0.0
  0
POINT
  5
2065
330
D45
100
AcDbEntity
  8
Defpoints
 62
     0
100
AcDbPoint
 10
38.54181309715034
 20
14.89562295973837
 30
0.0
  0
POINT
  5
2066
330
D45
100
AcDbEntity
  8
Defpoints
 62
     0
100
AcDbPoint
 10
38.54181309715034
 20
20.77550529186857
 30
0.0
  0
ENDBLK
  5
D50
330
D45
100
AcDbEntity
  8
0
100
AcDbBlockEnd
  0
BLOCK
  5
D67
330
D5D
100
AcDbEntity
  8
0
100
AcDbBlockBegin
  2
*D29
 70
     1
 10
0.0
 20
0.0
 30
0.0
  3
*D29
  1

  0
LINE
  5
2067
330
D5D
100
AcDbEntity
  8
dimention
 62
     0
370
    -2
100
AcDbLine
 10
78.54181393379794
 20
11.27131129205804
 30
0.0
 11
78.54181393379794
 21
21.27550529186857
 31
0.0
  0
LINE
  5
2068
330
D5D
100
AcDbEntity
  8
dimention
 62
     0
370
    -2
100
AcDbLine
 10
38.54181309715034
 20
15.39562295973837
 30
0.0
 11
38.54181309715034
 21
21.27550529186857
 31
0.0
  0
LINE
  5
2069
330
D5D
100
AcDbEntity
  8
dimention
 62
     0
370
    -2
100
AcDbLine
 10
78.04181393379794
 20
20.77550529186857
 30
0.0
 11
39.04181309715035
 21
20.77550529186857
 31
0.0
  0
INSERT
  5
206A
330
D5D
100
AcDbEntity
  8
dimention
 62
     0
370
    -2
100
AcDbBlockReference
  2
_Open30
 10
78.54181393379794
 20
20.77550529186857
 30
0.0
 41
0.5
 42
0.5
 43
0.5
  0
INSERT
  5
206B
330
D5D
100
AcDbEntity
  8
dimention
 62
     0
370
    -2
100
AcDbBlockReference
  2
_Open30
 10
38.54181309715034
 20
20.77550529186857
 30
0.0
 41
0.5
 42
0.5
 43
0.5
 50
180.0
  0
MTEXT
  5
206C
330
D5D
100
AcDbEntity
  8
dimention
 62
     0
100
AcDbMText
 10
58.54181351547413
 20
21.47550529186857
 30
0.0
 40
0.8
 41
0.0
 46
0.0
 71
     5
 72
     1
  1
\A1;40.0
 73
     1
 44
1.0
  0
POINT
  5
206D
330
D5D
100
AcDbEntity
  8
Defpoints
 62
     0
100
AcDbPoint
 10
78.54181393379794
 20
10.77131129205804
 30
0.0
  0
POINT
  5
206E
330
D5D
100
AcDbEntity
  8
Defpoints
 62
     0
100
AcDbPoint
 10
38.54181309715034
 20
14.89562295973837
 30
0.0
  0
POINT
  5
206F
330
D5D
100
AcDbEntity
  8
Defpoints
 62
     0
100
AcDbPoint
 10
38.54181309715034
 20
20.77550529186857
 30
0.0
  0
ENDBLK
  5
D68
330
D5D
100
AcDbEntity
  8
0
100
AcDbBlockEnd
  0
BLOCK
  5
D7F
330
D75
100
AcDbEntity
  8
0
100
AcDbBlockBegin
  2
*D30
 70
     1
 10
0.0
 20
0.0
 30
0.0
  3
*D30
  1

  0
LINE
  5
2070
330
D75
100
AcDbEntity
  8
dimention
 62
     0
370
    -2
100
AcDbLine
 10
78.54181393379794
 20
11.27131129205804
 30
0.0
 11
78.54181393379794
 21
16.41322338893169
 31
0.0
  0
LINE
  5
2071
330
D75
100
AcDbEntity
  8
dimention
 62
     0
370
    -2
100
AcDbLine
 10
63.54181393379793
 20
11.94781229923845
 30
0.0
 11
63.54181393379793
 21
16.41322338893169
 31
0.0
  0
LINE
  5
2072
330
D75
100
AcDbEntity
  8
dimention
 62
     0
370
    -2
100
AcDbLine
 10
78.04181393379794
 20
15.91322338893169
 30
0.0
 11
64.04181393379793
 21
15.91322338893169
 31
0.0
  0
INSERT
  5
2073
330
D75
100
AcDbEntity
  8
dimention
 62
     0
370
    -2
100
AcDbBlockReference
  2
_Open30
 10
78.54181393379794
 20
15.91322338893169
 30
0.0
 41
0.5
 42
0.5
 43
0.5
  0
INSERT
  5
2074
330
D75
100
AcDbEntity
  8
dimention
 62
     0
370
    -2
100
AcDbBlockReference
  2
_Open30
 10
63.54181393379793
 20
15.91322338893169
 30
0.0
 41
0.5
 42
0.5
 43
0.5
 50
180.0
  0
MTEXT
  5
2075
330
D75
100
AcDbEntity
  8
dimention
 62
     0
100
AcDbMText
 10
71.04181393379794
 20
16.61322338893169
 30
0.0
 40
0.8
 41
0.0
 46
0.0
 71
     5
 72
     1
  1
\A1;15.0
 73
     1
 44
1.0
  0
POINT
  5
2076
330
D75
100
AcDbEntity
  8
Defpoints
 62
     0
100
AcDbPoint
 10
78.54181393379794
 20
10.77131129205804
 30
0.0
  0
POINT
  5
2077
330
D75
100
AcDbEntity
  8
Defpoints
 62
     0
100
AcDbPoint
 10
63.54181393379793
 20
11.44781229923845
 30
0.0
  0
POINT
  5
2078
330
D75
100
AcDbEntity
  8
Defpoints
 62
     0
100
AcDbPoint
 10
63.54181393379793
 20
15.91322338893169
 30
0.0
  0
ENDBLK
  5
D80
330
D75
100
AcDbEntity
  8
0
100
AcDbBlockEnd
  0
BLOCK
  5
EC7
330
EC6
100
AcDbEntity
  8
0
100
AcDbBlockBegin
  2
*D31
 70
     1
 10
0.0
 20
0.0
 30
0.0
  3
*D31
  1

  0
LINE
  5
EC8
330
EC6
100
AcDbEntity
  8
0
 62
     0
370
    -2
100
AcDbLine
 10
750.9831179146877
 20
1332.035699692635
 30
0.0
 11
750.9831179146877
 21
1337.160699692635
 31
0.0
  0
LINE
  5
EC9
330
EC6
100
AcDbEntity
  8
0
 62
     0
370
    -2
100
AcDbLine
 10
795.9831179146878
 20
1327.043830585725
 30
0.0
 11
795.9831179146878
 21
1337.160699692635
 31
0.0
  0
LINE
  5
ECA
330
EC6
100
AcDbEntity
  8
0
 62
     0
370
    -2
100
AcDbLine
 10
752.7831179146877
 20
1335.910699692635
 30
0.0
 11
794.183117914688
 21
1335.910699692635
 31
0.0
  0
INSERT
  5
ECB
330
EC6
100
AcDbEntity
  8
0
 62
     0
370
    -2
100
AcDbBlockReference
  2
_Open30
 10
750.9831179146877
 20
1335.910699692635
 30
0.0
 41
1.8
 42
1.8
 43
1.8
 50
180.0
  0
INSERT
  5
ECC
330
EC6
100
AcDbEntity
  8
0
 62
     0
370
    -2
100
AcDbBlockReference
  2
_Open30
 10
795.9831179146878
 20
1335.910699692635
 30
0.0
 41
1.8
 42
1.8
 43
1.8
  0
MTEXT
  5
ECD
330
EC6
100
AcDbEntity
  8
0
 62
     0
100
AcDbMText
 10
773.4831179146878
 20
1337.635699692635
 30
0.0
 40
2.2
 41
0.0
 46
0.0
 71
     5
 72
     1
  1
45
 73
     1
 44
1.0
  0
POINT
  5
ECE
330
EC6
100
AcDbEntity
  8
Defpoints
 62
     0
100
AcDbPoint
 10
750.9831179146877
 20
1331.410699692635
 30
0.0
  0
POINT
  5
ECF
330
EC6
100
AcDbEntity
  8
Defpoints
 62
     0
100
AcDbPoint
 10
795.9831179146878
 20
1326.418830585725
 30
0.0
  0
POINT
  5
ED0
330
EC6
100
AcDbEntity
  8
Defpoints
 62
     0
100
AcDbPoint
 10
795.9831179146878
 20
1335.910699692635
 30
0.0
  0
ENDBLK
  5
ED1
330
EC6
100
AcDbEntity
  8
0
100
AcDbBlockEnd
  0
BLOCK
  5
ED3
330
ED2
100
AcDbEntity
  8
0
100
AcDbBlockBegin
  2
*D32
 70
     1
 10
0.0
 20
0.0
 30
0.0
  3
*D32
  1

  0
LINE
  5
ED4
330
ED2
100
AcDbEntity
  8
0
 62
     0
370
    -2
100
AcDbLine
 10
780.9831179146879
 20
1327.855830585725
 30
0.0
 11
780.9831179146879
 21
1332.660699692635
 31
0.0
  0
LINE
  5
ED5
330
ED2
100
AcDbEntity
  8
0
 62
     0
370
    -2
100
AcDbLine
 10
795.9831179146878
 20
1327.043830585725
 30
0.0
 11
795.9831179146878
 21
1332.660699692635
 31
0.0
  0
LINE
  5
ED6
330
ED2
100
AcDbEntity
  8
0
 62
     0
370
    -2
100
AcDbLine
 10
782.783117914688
 20
1331.410699692635
 30
0.0
 11
794.183117914688
 21
1331.410699692635
 31
0.0
  0
INSERT
  5
ED7
330
ED2
100
AcDbEntity
  8
0
 62
     0
370
    -2
100
AcDbBlockReference
  2
_Open30
 10
780.9831179146879
 20
1331.410699692635
 30
0.0
 41
1.8
 42
1.8
 43
1.8
 50
180.0
  0
INSERT
  5
ED8
330
ED2
100
AcDbEntity
  8
0
 62
     0
370
    -2
100
AcDbBlockReference
  2
_Open30
 10
795.9831179146878
 20
1331.410699692635
 30
0.0
 41
1.8
 42
1.8
 43
1.8
  0
MTEXT
  5
ED9
330
ED2
100
AcDbEntity
  8
0
 62
     0
100
AcDbMText
 10
788.4831179146877
 20
1333.135699692635
 30
0.0
 40
2.2
 41
0.0
 46
0.0
 71
     5
 72
     1
  1
15
 73
     1
 44
1.0
  0
POINT
  5
EDA
330
ED2
100
AcDbEntity
  8
Defpoints
 62
     0
100
AcDbPoint
 10
780.9831179146879
 20
1327.230830585725
 30
0.0
  0
POINT
  5
EDB
330
ED2
100
AcDbEntity
  8
Defpoints
 62
     0
100
AcDbPoint
 10
795.9831179146878
 20
1326.418830585725
 30
0.0
  0
POINT
  5
EDC
330
ED2
100
AcDbEntity
  8
Defpoints
 62
     0
100
AcDbPoint
 10
795.9831179146878
 20
1331.410699692635
 30
0.0
  0
ENDBLK
  5
EDD
330
ED2
100
AcDbEntity
  8
0
100
AcDbBlockEnd
  0
BLOCK
  5
F32
330
F28
100
AcDbEntity
  8
0
100
AcDbBlockBegin
  2
*D33
 70
     1
 10
0.0
 20
0.0
 30
0.0
  3
*D33
  1

  0
LINE
  5
F9C
330
F28
100
AcDbEntity
  8
0
 62
     0
370
    -2
100
AcDbLine
 10
18.96045163245695
 20
-8.700557188550462
 30
0.0
 11
18.96045163245695
 21
-4.200557188550462
 31
0.0
  0
LINE
  5
F9D
330
F28
100
AcDbEntity
  8
0
 62
     0
370
    -2
100
AcDbLine
 10
63.96045163245695
 20
-13.69242629546015
 30
0.0
 11
63.96045163245695
 21
-4.200557188550462
 31
0.0
  0
LINE
  5
F9E
330
F28
100
AcDbEntity
  8
0
 62
     0
370
    -2
100
AcDbLine
 10
19.46045163245695
 20
-4.700557188550462
 30
0.0
 11
63.46045163245695
 21
-4.700557188550462
 31
0.0
  0
INSERT
  5
F9F
330
F28
100
AcDbEntity
  8
0
 62
     0
370
    -2
100
AcDbBlockReference
  2
_Open30
 10
18.96045163245695
 20
-4.700557188550462
 30
0.0
 41
0.5
 42
0.5
 43
0.5
 50
180.0
  0
INSERT
  5
FA0
330
F28
100
AcDbEntity
  8
0
 62
     0
370
    -2
100
AcDbBlockReference
  2
_Open30
 10
63.96045163245695
 20
-4.700557188550462
 30
0.0
 41
0.5
 42
0.5
 43
0.5
  0
MTEXT
  5
FA1
330
F28
100
AcDbEntity
  8
0
 62
     0
100
AcDbMText
 10
41.46045163245695
 20
-4.000557188550462
 30
0.0
 40
0.8
 41
0.0
 46
0.0
 71
     5
 72
     1
  1
\A1;45.0
 73
     1
 44
1.0
  0
POINT
  5
FA2
330
F28
100
AcDbEntity
  8
Defpoints
 62
     0
100
AcDbPoint
 10
18.96045163245695
 20
-9.200557188550462
 30
0.0
  0
POINT
  5
FA3
330
F28
100
AcDbEntity
  8
Defpoints
 62
     0
100
AcDbPoint
 10
63.96045163245695
 20
-14.19242629546015
 30
0.0
  0
POINT
  5
FA4
330
F28
100
AcDbEntity
  8
Defpoints
 62
     0
100
AcDbPoint
 10
63.96045163245695
 20
-4.700557188550462
 30
0.0
  0
ENDBLK
  5
F33
330
F28
100
AcDbEntity
  8
0
100
AcDbBlockEnd
  0
BLOCK
  5
F47
330
F3D
100
AcDbEntity
  8
0
100
AcDbBlockBegin
  2
*D34
 70
     1
 10
0.0
 20
0.0
 30
0.0
  3
*D34
  1

  0
LINE
  5
FA5
330
F3D
100
AcDbEntity
  8
0
 62
     0
370
    -2
100
AcDbLine
 10
48.96045163245706
 20
-12.88042629546025
 30
0.0
 11
48.96045163245706
 21
-8.700557188550462
 31
0.0
  0
LINE
  5
FA6
330
F3D
100
AcDbEntity
  8
0
 62
     0
370
    -2
100
AcDbLine
 10
63.96045163245695
 20
-13.69242629546015
 30
0.0
 11
63.96045163245695
 21
-8.700557188550462
 31
0.0
  0
LINE
  5
FA7
330
F3D
100
AcDbEntity
  8
0
 62
     0
370
    -2
100
AcDbLine
 10
49.46045163245706
 20
-9.200557188550462
 30
0.0
 11
63.46045163245695
 21
-9.200557188550462
 31
0.0
  0
INSERT
  5
FA8
330
F3D
100
AcDbEntity
  8
0
 62
     0
370
    -2
100
AcDbBlockReference
  2
_Open30
 10
48.96045163245706
 20
-9.200557188550462
 30
0.0
 41
0.5
 42
0.5
 43
0.5
 50
180.0
  0
INSERT
  5
FA9
330
F3D
100
AcDbEntity
  8
0
 62
     0
370
    -2
100
AcDbBlockReference
  2
_Open30
 10
63.96045163245695
 20
-9.200557188550462
 30
0.0
 41
0.5
 42
0.5
 43
0.5
  0
MTEXT
  5
FAA
330
F3D
100
AcDbEntity
  8
0
 62
     0
100
AcDbMText
 10
56.46045163245701
 20
-8.500557188550462
 30
0.0
 40
0.8
 41
0.0
 46
0.0
 71
     5
 72
     1
  1
\A1;15.0
 73
     1
 44
1.0
  0
POINT
  5
FAB
330
F3D
100
AcDbEntity
  8
Defpoints
 62
     0
100
AcDbPoint
 10
48.96045163245706
 20
-13.38042629546025
 30
0.0
  0
POINT
  5
FAC
330
F3D
100
AcDbEntity
  8
Defpoints
 62
     0
100
AcDbPoint
 10
63.96045163245695
 20
-14.19242629546015
 30
0.0
  0
POINT
  5
FAD
330
F3D
100
AcDbEntity
  8
Defpoints
 62
     0
100
AcDbPoint
 10
63.96045163245695
 20
-9.200557188550462
 30
0.0
  0
ENDBLK
  5
F48
330
F3D
100
AcDbEntity
  8
0
100
AcDbBlockEnd
  0
BLOCK
  5
117B
330
117A
100
AcDbEntity
  8
0
100
AcDbBlockBegin
  2
*D35
 70
     1
 10
0.0
 20
0.0
 30
0.0
  3
*D35
  1

  0
LINE
  5
117C
330
117A
100
AcDbEntity
  8
0
 62
     0
370
    -2
100
AcDbLine
 10
224.3928407325108
 20
1556.921845225308
 30
0.0
 11
224.3928407325108
 21
1566.636730653353
 31
0.0
  0
LINE
  5
117D
330
117A
100
AcDbEntity
  8
0
 62
     0
370
    -2
100
AcDbLine
 10
231.2928407325108
 20
1556.921845225308
 30
0.0
 11
231.2928407325108
 21
1566.636730653353
 31
0.0
  0
LINE
  5
117E
330
117A
100
AcDbEntity
  8
0
 62
     0
370
    -2
100
AcDbLine
 10
226.1928407325108
 20
1565.386730653353
 30
0.0
 11
229.4928407325108
 21
1565.386730653353
 31
0.0
  0
INSERT
  5
117F
330
117A
100
AcDbEntity
  8
0
 62
     0
370
    -2
100
AcDbBlockReference
  2
_Open30
 10
224.3928407325108
 20
1565.386730653353
 30
0.0
 41
1.8
 42
1.8
 43
1.8
 50
180.0
  0
INSERT
  5
1180
330
117A
100
AcDbEntity
  8
0
 62
     0
370
    -2
100
AcDbBlockReference
  2
_Open30
 10
231.2928407325108
 20
1565.386730653353
 30
0.0
 41
1.8
 42
1.8
 43
1.8
  0
MTEXT
  5
1181
330
117A
100
AcDbEntity
  8
0
 62
     0
100
AcDbMText
 10
227.8428407325108
 20
1567.295063986686
 30
0.0
 40
2.2
 41
0.0
 46
0.0
 71
     5
 72
     1
  1
6,9
 73
     1
 44
1.0
  0
POINT
  5
1182
330
117A
100
AcDbEntity
  8
Defpoints
 62
     0
100
AcDbPoint
 10
224.3928407325108
 20
1556.296845225308
 30
0.0
  0
POINT
  5
1183
330
117A
100
AcDbEntity
  8
Defpoints
 62
     0
100
AcDbPoint
 10
231.2928407325108
 20
1556.296845225308
 30
0.0
  0
POINT
  5
1184
330
117A
100
AcDbEntity
  8
Defpoints
 62
     0
100
AcDbPoint
 10
231.2928407325108
 20
1565.386730653353
 30
0.0
  0
ENDBLK
  5
1185
330
117A
100
AcDbEntity
  8
0
100
AcDbBlockEnd
  0
BLOCK
  5
1187
330
1186
100
AcDbEntity
  8
0
100
AcDbBlockBegin
  2
*D36
 70
     1
 10
0.0
 20
0.0
 30
0.0
  3
*D36
  1

  0
LINE
  5
1188
330
1186
100
AcDbEntity
  8
0
 62
     0
370
    -2
100
AcDbLine
 10
242.1733618035988
 20
1558.278516208369
 30
0.0
 11
242.1733618035988
 21
1565.783274177192
 31
0.0
  0
LINE
  5
1189
330
1186
100
AcDbEntity
  8
0
 62
     0
370
    -2
100
AcDbLine
 10
244.9733618035988
 20
1558.913605403191
 30
0.0
 11
244.9733618035988
 21
1565.783274177192
 31
0.0
  0
LINE
  5
118A
330
1186
100
AcDbEntity
  8
0
 62
     0
370
    -2
100
AcDbLine
 10
240.3733618035988
 20
1564.533274177192
 30
0.0
 11
238.5733618035988
 21
1564.533274177192
 31
0.0
  0
LINE
  5
118B
330
1186
100
AcDbEntity
  8
0
 62
     0
370
    -2
100
AcDbLine
 10
246.7733618035988
 20
1564.533274177192
 30
0.0
 11
254.5900284702655
 21
1564.533274177192
 31
0.0
  0
LINE
  5
118C
330
1186
100
AcDbEntity
  8
0
 62
     0
370
    -2
100
AcDbLine
 10
242.1733618035988
 20
1564.533274177192
 30
0.0
 11
244.9733618035988
 21
1564.533274177192
 31
0.0
  0
INSERT
  5
118D
330
1186
100
AcDbEntity
  8
0
 62
     0
370
    -2
100
AcDbBlockReference
  2
_Open30
 10
242.1733618035988
 20
1564.533274177192
 30
0.0
 41
1.8
 42
1.8
 43
1.8
  0
INSERT
  5
118E
330
1186
100
AcDbEntity
  8
0
 62
     0
370
    -2
100
AcDbBlockReference
  2
_Open30
 10
244.9733618035988
 20
1564.533274177192
 30
0.0
 41
1.8
 42
1.8
 43
1.8
 50
180.0
  0
MTEXT
  5
118F
330
1186
100
AcDbEntity
  8
0
 62
     0
100
AcDbMText
 10
251.5816951369321
 20
1566.441607510525
 30
0.0
 40
2.2
 41
0.0
 46
0.0
 71
     5
 72
     1
  1
2,8
 73
     1
 44
1.0
  0
POINT
  5
1190
330
1186
100
AcDbEntity
  8
Defpoints
 62
     0
100
AcDbPoint
 10
242.1733618035988
 20
1557.653516208369
 30
0.0
  0
POINT
  5
1191
330
1186
100
AcDbEntity
  8
Defpoints
 62
     0
100
AcDbPoint
 10
244.9733618035988
 20
1558.288605403191
 30
0.0
  0
POINT
  5
1192
330
1186
100
AcDbEntity
  8
Defpoints
 62
     0
100
AcDbPoint
 10
244.9733618035988
 20
1564.533274177192
 30
0.0
  0
ENDBLK
  5
1193
330
1186
100
AcDbEntity
  8
0
100
AcDbBlockEnd
  0
BLOCK
  5
1195
330
1194
100
AcDbEntity
  8
0
100
AcDbBlockBegin
  2
*D37
 70
     1
 10
0.0
 20
0.0
 30
0.0
  3
*D37
  1

  0
LINE
  5
1196
330
1194
100
AcDbEntity
  8
0
 62
     0
370
    -2
100
AcDbLine
 10
249.9733618035989
 20
1556.550986796604
 30
0.0
 11
249.9733618035989
 21
1562.129714128493
 31
0.0
  0
LINE
  5
1197
330
1194
100
AcDbEntity
  8
0
 62
     0
370
    -2
100
AcDbLine
 10
244.9733618035988
 20
1558.913703654012
 30
0.0
 11
244.9733618035988
 21
1562.129714128493
 31
0.0
  0
LINE
  5
1198
330
1194
100
AcDbEntity
  8
0
 62
     0
370
    -2
100
AcDbLine
 10
248.1733618035988
 20
1560.879714128493
 30
0.0
 11
246.7733618035988
 21
1560.879714128493
 31
0.0
  0
INSERT
  5
1199
330
1194
100
AcDbEntity
  8
0
 62
     0
370
    -2
100
AcDbBlockReference
  2
_Open30
 10
249.9733618035989
 20
1560.879714128493
 30
0.0
 41
1.8
 42
1.8
 43
1.8
  0
INSERT
  5
119A
330
1194
100
AcDbEntity
  8
0
 62
     0
370
    -2
100
AcDbBlockReference
  2
_Open30
 10
244.9733618035988
 20
1560.879714128493
 30
0.0
 41
1.8
 42
1.8
 43
1.8
 50
180.0
  0
MTEXT
  5
119B
330
1194
100
AcDbEntity
  8
0
 62
     0
100
AcDbMText
 10
247.4733618035988
 20
1562.604714128493
 30
0.0
 40
2.2
 41
0.0
 46
0.0
 71
     5
 72
     1
  1
5
 73
     1
 44
1.0
  0
POINT
  5
119C
330
1194
100
AcDbEntity
  8
Defpoints
 62
     0
100
AcDbPoint
 10
249.9733618035989
 20
1555.925986796604
 30
0.0
  0
POINT
  5
119D
330
1194
100
AcDbEntity
  8
Defpoints
 62
     0
100
AcDbPoint
 10
244.9733618035988
 20
1558.288703654012
 30
0.0
  0
POINT
  5
119E
330
1194
100
AcDbEntity
  8
Defpoints
 62
     0
100
AcDbPoint
 10
244.9733618035988
 20
1560.879714128493
 30
0.0
  0
ENDBLK
  5
119F
330
1194
100
AcDbEntity
  8
0
100
AcDbBlockEnd
  0
BLOCK
  5
11A1
330
11A0
100
AcDbEntity
  8
0
100
AcDbBlockBegin
  2
*D38
 70
     1
 10
0.0
 20
0.0
 30
0.0
  3
*D38
  1

  0
LINE
  5
11A2
330
11A0
100
AcDbEntity
  8
0
 62
     0
370
    -2
100
AcDbLine
 10
250.2193618035988
 20
1556.304986796604
 30
0.0
 11
258.0941884644198
 21
1556.304986796604
 31
0.0
  0
LINE
  5
11A3
330
11A0
100
AcDbEntity
  8
0
 62
     0
370
    -2
100
AcDbLine
 10
250.2193618035988
 20
1552.304986796604
 30
0.0
 11
258.0941884644198
 21
1552.304986796604
 31
0.0
  0
LINE
  5
11A4
330
11A0
100
AcDbEntity
  8
0
 62
     0
370
    -2
100
AcDbLine
 10
256.8441884644199
 20
1558.104986796604
 30
0.0
 11
256.8441884644199
 21
1559.904986796604
 31
0.0
  0
LINE
  5
11A5
330
11A0
100
AcDbEntity
  8
0
 62
     0
370
    -2
100
AcDbLine
 10
256.8441884644199
 20
1550.504986796604
 30
0.0
 11
256.8441884644199
 21
1548.704986796604
 31
0.0
  0
LINE
  5
11A6
330
11A0
100
AcDbEntity
  8
0
 62
     0
370
    -2
100
AcDbLine
 10
256.8441884644199
 20
1556.304986796604
 30
0.0
 11
256.8441884644199
 21
1552.304986796604
 31
0.0
  0
INSERT
  5
11A7
330
11A0
100
AcDbEntity
  8
0
 62
     0
370
    -2
100
AcDbBlockReference
  2
_Open30
 10
256.8441884644199
 20
1556.304986796604
 30
0.0
 41
1.8
 42
1.8
 43
1.8
 50
270.0
  0
INSERT
  5
11A8
330
11A0
100
AcDbEntity
  8
0
 62
     0
370
    -2
100
AcDbBlockReference
  2
_Open30
 10
256.8441884644199
 20
1552.304986796604
 30
0.0
 41
1.8
 42
1.8
 43
1.8
 50
90.0
  0
MTEXT
  5
11A9
330
11A0
100
AcDbEntity
  8
0
 62
     0
100
AcDbMText
 10
255.1191884644196
 20
1554.304986796604
 30
0.0
 40
2.2
 41
0.0
 46
0.0
 71
     5
 72
     1
  1
4
 11
0.0000000000000001
 21
1.0
 31
0.0
 73
     1
 44
1.0
  0
POINT
  5
11AA
330
11A0
100
AcDbEntity
  8
Defpoints
 62
     0
100
AcDbPoint
 10
249.5943618035988
 20
1556.304986796604
 30
0.0
  0
POINT
  5
11AB
330
11A0
100
AcDbEntity
  8
Defpoints
 62
     0
100
AcDbPoint
 10
249.5943618035989
 20
1552.304986796604
 30
0.0
  0
POINT
  5
11AC
330
11A0
100
AcDbEntity
  8
Defpoints
 62
     0
100
AcDbPoint
 10
256.8441884644199
 20
1552.304986796604
 30
0.0
  0
ENDBLK
  5
11AD
330
11A0
100
AcDbEntity
  8
0
100
AcDbBlockEnd
  0
BLOCK
  5
1206
330
11FC
100
AcDbEntity
  8
0
100
AcDbBlockBegin
  2
*D39
 70
     1
 10
0.0
 20
0.0
 30
0.0
  3
*D39
  1

  0
LINE
  5
1216
330
11FC
100
AcDbEntity
  8
0
 62
     0
370
    -2
100
AcDbLine
 10
2.584421110006046
 20
24.84573336089238
 30
0.0
 11
2.584421110006048
 21
34.56061878893729
 31
0.0
  0
LINE
  5
1217
330
11FC
100
AcDbEntity
  8
0
 62
     0
370
    -2
100
AcDbLine
 10
9.484421110006051
 20
24.84573336089238
 30
0.0
 11
9.484421110006051
 21
34.56061878893729
 31
0.0
  0
LINE
  5
1218
330
11FC
100
AcDbEntity
  8
0
 62
     0
370
    -2
100
AcDbLine
 10
4.384421110006048
 20
33.31061878893729
 30
0.0
 11
7.684421110006052
 21
33.31061878893729
 31
0.0
  0
INSERT
  5
1219
330
11FC
100
AcDbEntity
  8
0
 62
     0
370
    -2
100
AcDbBlockReference
  2
_Open30
 10
2.584421110006048
 20
33.31061878893729
 30
0.0
 41
1.8
 42
1.8
 43
1.8
 50
180.0
  0
INSERT
  5
121A
330
11FC
100
AcDbEntity
  8
0
 62
     0
370
    -2
100
AcDbBlockReference
  2
_Open30
 10
9.484421110006051
 20
33.31061878893729
 30
0.0
 41
1.8
 42
1.8
 43
1.8
  0
MTEXT
  5
121B
330
11FC
100
AcDbEntity
  8
0
 62
     0
100
AcDbMText
 10
6.034421110006049
 20
34.40228545560396
 30
0.0
 40
0.8
 41
0.0
 46
0.0
 71
     5
 72
     1
  1
6,9
 73
     1
 44
1.0
  0
POINT
  5
121C
330
11FC
100
AcDbEntity
  8
Defpoints
 62
     0
100
AcDbPoint
 10
2.584421110006046
 20
24.22073336089238
 30
0.0
  0
POINT
  5
121D
330
11FC
100
AcDbEntity
  8
Defpoints
 62
     0
100
AcDbPoint
 10
9.484421110006051
 20
24.22073336089238
 30
0.0
  0
POINT
  5
121E
330
11FC
100
AcDbEntity
  8
Defpoints
 62
     0
100
AcDbPoint
 10
9.484421110006051
 20
33.31061878893729
 30
0.0
  0
ENDBLK
  5
1207
330
11FC
100
AcDbEntity
  8
0
100
AcDbBlockEnd
  0
BLOCK
  5
1214
330
1208
100
AcDbEntity
  8
0
100
AcDbBlockBegin
  2
*D40
 70
     1
 10
0.0
 20
0.0
 30
0.0
  3
*D40
  1

  0
LINE
  5
121F
330
1208
100
AcDbEntity
  8
0
 62
     0
370
    -2
100
AcDbLine
 10
20.36494218109405
 20
26.20240434395282
 30
0.0
 11
20.36494218109405
 21
33.70716231277607
 31
0.0
  0
LINE
  5
1220
330
1208
100
AcDbEntity
  8
0
 62
     0
370
    -2
100
AcDbLine
 10
23.16494218109403
 20
26.83749353877534
 30
0.0
 11
23.16494218109403
 21
33.70716231277607
 31
0.0
  0
LINE
  5
1221
330
1208
100
AcDbEntity
  8
0
 62
     0
370
    -2
100
AcDbLine
 10
18.56494218109405
 20
32.45716231277607
 30
0.0
 11
16.76494218109405
 21
32.45716231277607
 31
0.0
  0
LINE
  5
1222
330
1208
100
AcDbEntity
  8
0
 62
     0
370
    -2
100
AcDbLine
 10
24.96494218109404
 20
32.45716231277607
 30
0.0
 11
29.74827551442737
 21
32.45716231277607
 31
0.0
  0
LINE
  5
1223
330
1208
100
AcDbEntity
  8
0
 62
     0
370
    -2
100
AcDbLine
 10
20.36494218109405
 20
32.45716231277607
 30
0.0
 11
23.16494218109403
 21
32.45716231277607
 31
0.0
  0
INSERT
  5
1224
330
1208
100
AcDbEntity
  8
0
 62
     0
370
    -2
100
AcDbBlockReference
  2
_Open30
 10
20.36494218109405
 20
32.45716231277607
 30
0.0
 41
1.8
 42
1.8
 43
1.8
  0
INSERT
  5
1225
330
1208
100
AcDbEntity
  8
0
 62
     0
370
    -2
100
AcDbBlockReference
  2
_Open30
 10
23.16494218109403
 20
32.45716231277607
 30
0.0
 41
1.8
 42
1.8
 43
1.8
 50
180.0
  0
MTEXT
  5
1226
330
1208
100
AcDbEntity
  8
0
 62
     0
100
AcDbMText
 10
28.2566088477607
 20
33.54882897944273
 30
0.0
 40
0.8
 41
0.0
 46
0.0
 71
     5
 72
     1
  1
2,8
 73
     1
 44
1.0
  0
POINT
  5
1227
330
1208
100
AcDbEntity
  8
Defpoints
 62
     0
100
AcDbPoint
 10
20.36494218109405
 20
25.57740434395282
 30
0.0
  0
POINT
  5
1228
330
1208
100
AcDbEntity
  8
Defpoints
 62
     0
100
AcDbPoint
 10
23.16494218109403
 20
26.21249353877534
 30
0.0
  0
POINT
  5
1229
330
1208
100
AcDbEntity
  8
Defpoints
 62
     0
100
AcDbPoint
 10
23.16494218109403
 20
32.45716231277607
 30
0.0
  0
ENDBLK
  5
1215
330
1208
100
AcDbEntity
  8
0
100
AcDbBlockEnd
  0
BLOCK
  5
1234
330
122A
100
AcDbEntity
  8
0
100
AcDbBlockBegin
  2
*D41
 70
     1
 10
0.0
 20
0.0
 30
0.0
  3
*D41
  1

  0
LINE
  5
122B
330
122A
100
AcDbEntity
  8
0
 62
     0
370
    -2
100
AcDbLine
 10
28.16494218109401
 20
24.47487493218819
 30
0.0
 11
28.16494218109401
 21
30.05360226407697
 31
0.0
  0
LINE
  5
122C
330
122A
100
AcDbEntity
  8
0
 62
     0
370
    -2
100
AcDbLine
 10
23.16494218109403
 20
26.83759178959622
 30
0.0
 11
23.16494218109403
 21
30.05360226407697
 31
0.0
  0
LINE
  5
122D
330
122A
100
AcDbEntity
  8
0
 62
     0
370
    -2
100
AcDbLine
 10
26.36494218109401
 20
28.80360226407697
 30
0.0
 11
24.96494218109404
 21
28.80360226407697
 31
0.0
  0
INSERT
  5
122E
330
122A
100
AcDbEntity
  8
0
 62
     0
370
    -2
100
AcDbBlockReference
  2
_Open30
 10
28.16494218109401
 20
28.80360226407697
 30
0.0
 41
1.8
 42
1.8
 43
1.8
  0
INSERT
  5
122F
330
122A
100
AcDbEntity
  8
0
 62
     0
370
    -2
100
AcDbBlockReference
  2
_Open30
 10
23.16494218109403
 20
28.80360226407697
 30
0.0
 41
1.8
 42
1.8
 43
1.8
 50
180.0
  0
MTEXT
  5
1230
330
122A
100
AcDbEntity
  8
0
 62
     0
100
AcDbMText
 10
25.66494218109403
 20
29.82860226407697
 30
0.0
 40
0.8
 41
0.0
 46
0.0
 71
     5
 72
     1
  1
5
 73
     1
 44
1.0
  0
POINT
  5
1231
330
122A
100
AcDbEntity
  8
Defpoints
 62
     0
100
AcDbPoint
 10
28.16494218109401
 20
23.84987493218819
 30
0.0
  0
POINT
  5
1232
330
122A
100
AcDbEntity
  8
Defpoints
 62
     0
100
AcDbPoint
 10
23.16494218109403
 20
26.21259178959622
 30
0.0
  0
POINT
  5
1233
330
122A
100
AcDbEntity
  8
Defpoints
 62
     0
100
AcDbPoint
 10
23.16494218109403
 20
28.80360226407697
 30
0.0
  0
ENDBLK
  5
1235
330
122A
100
AcDbEntity
  8
0
100
AcDbBlockEnd
  0
BLOCK
  5
1242
330
1236
100
AcDbEntity
  8
0
100
AcDbBlockBegin
  2
*D42
 70
     1
 10
0.0
 20
0.0
 30
0.0
  3
*D42
  1

  0
LINE
  5
1237
330
1236
100
AcDbEntity
  8
0
 62
     0
370
    -2
100
AcDbLine
 10
28.41094218109402
 20
24.22887493218809
 30
0.0
 11
36.2857688419151
 21
24.22887493218809
 31
0.0
  0
LINE
  5
1238
330
1236
100
AcDbEntity
  8
0
 62
     0
370
    -2
100
AcDbLine
 10
28.41094218109407
 20
20.22887493218787
 30
0.0
 11
36.2857688419151
 21
20.22887493218787
 31
0.0
  0
LINE
  5
1239
330
1236
100
AcDbEntity
  8
0
 62
     0
370
    -2
100
AcDbLine
 10
35.03576884191509
 20
26.02887493218809
 30
0.0
 11
35.03576884191509
 21
27.82887493218809
 31
0.0
  0
LINE
  5
123A
330
1236
100
AcDbEntity
  8
0
 62
     0
370
    -2
100
AcDbLine
 10
35.03576884191509
 20
18.42887493218786
 30
0.0
 11
35.03576884191509
 21
16.62887493218786
 31
0.0
  0
LINE
  5
123B
330
1236
100
AcDbEntity
  8
0
 62
     0
370
    -2
100
AcDbLine
 10
35.03576884191509
 20
24.22887493218809
 30
0.0
 11
35.03576884191509
 21
20.22887493218787
 31
0.0
  0
INSERT
  5
123C
330
1236
100
AcDbEntity
  8
0
 62
     0
370
    -2
100
AcDbBlockReference
  2
_Open30
 10
35.03576884191509
 20
24.22887493218809
 30
0.0
 41
1.8
 42
1.8
 43
1.8
 50
270.0
  0
INSERT
  5
123D
330
1236
100
AcDbEntity
  8
0
 62
     0
370
    -2
100
AcDbBlockReference
  2
_Open30
 10
35.03576884191509
 20
20.22887493218787
 30
0.0
 41
1.8
 42
1.8
 43
1.8
 50
90.0
  0
MTEXT
  5
123E
330
1236
100
AcDbEntity
  8
0
 62
     0
100
AcDbMText
 10
34.01076884191508
 20
22.22887493218798
 30
0.0
 40
0.8
 41
0.0
 46
0.0
 71
     5
 72
     1
  1
4
 11
0.0000000000000001
 21
1.0
 31
0.0
 73
     1
 44
1.0
  0
POINT
  5
123F
330
1236
100
AcDbEntity
  8
Defpoints
 62
     0
100
AcDbPoint
 10
27.78594218109402
 20
24.22887493218809
 30
0.0
  0
POINT
  5
1240
330
1236
100
AcDbEntity
  8
Defpoints
 62
     0
100
AcDbPoint
 10
27.78594218109407
 20
20.22887493218787
 30
0.0
  0
POINT
  5
1241
330
1236
100
AcDbEntity
  8
Defpoints
 62
     0
100
AcDbPoint
 10
35.03576884191509
 20
20.22887493218787
 30
0.0
  0
ENDBLK
  5
1243
330
1236
100
AcDbEntity
  8
0
100
AcDbBlockEnd
  0
BLOCK
  5
1597
330
156D
100
AcDbEntity
  8
0
100
AcDbBlockBegin
  2
A$C05606886
 70
     0
 10
0.0
 20
0.0
 30
0.0
  3
A$C05606886
  1

  0
LWPOLYLINE
  5
156E
330
156D
100
AcDbEntity
  8
0
100
AcDbPolyline
 90
        6
 70
     1
 43
0.0
 10
21.09242732689768
 20
43.27098660655475
 10
25.0424100522157
 20
40.99046301679821
 10
28.99239277753361
 20
43.27098660655475
 10
28.99239277753361
 20
47.83203378606843
 10
25.0424100522157
 20
50.11255737582495
 10
21.09242732689768
 20
47.83203378606843
  0
CIRCLE
  5
156F
330
156D
100
AcDbEntity
  8
0
100
AcDbCircle
 10
25.0424100522157
 20
45.55151019631147
 30
0.0
 40
3.833806762808646
  0
LINE
  5
1570
330
156D
100
AcDbEntity
  8
0
100
AcDbLine
 10
41.44974647992649
 20
49.38531695912002
 30
0.0
 11
41.44974647992649
 21
41.71770343350272
 31
0.0
  0
LINE
  5
1571
330
156D
100
AcDbEntity
  8
0
100
AcDbLine
 10
44.94974647992648
 20
50.11255737582495
 30
0.0
 11
44.94974647992648
 21
48.40151019631139
 31
0.0
  0
ARC
  5
1572
330
156D
100
AcDbEntity
  8
0
100
AcDbCircle
 10
45.29974647992651
 20
48.40151019631139
 30
0.0
 40
0.35
100
AcDbArc
 50
180.0
 51
270.0
  0
LINE
  5
1573
330
156D
100
AcDbEntity
  8
0
100
AcDbLine
 10
52.94974647992649
 20
47.61851019631149
 30
0.0
 11
52.94974647992649
 21
43.48451019631148
 31
0.0
  0
LINE
  5
1574
330
156D
100
AcDbEntity
  8
0
100
AcDbLine
 10
46.44974647992649
 20
48.05151019631147
 30
0.0
 11
46.44974647992649
 21
43.05151019631147
 31
0.0
  0
LINE
  5
1575
330
156D
100
AcDbEntity
  8
0
100
AcDbLine
 10
52.51674647992651
 20
48.05151019631147
 30
0.0
 11
52.51674647992651
 21
43.05151019631147
 31
0.0
  0
LINE
  5
1576
330
156D
100
AcDbEntity
  8
0
100
AcDbLine
 10
41.86961893027659
 20
40.99046301679776
 30
0.0
 11
44.94974647992648
 21
40.99046301679776
 31
0.0
  0
LINE
  5
1577
330
156D
100
AcDbEntity
  8
0
100
AcDbLine
 10
41.86961893027636
 20
50.11255737582451
 30
0.0
 11
44.94974647992648
 21
50.11255737582495
 31
0.0
  0
LINE
  5
1578
330
156D
100
AcDbEntity
  8
0
100
AcDbLine
 10
41.86961893027659
 20
43.27098660655475
 30
0.0
 11
44.94974647992648
 21
43.27098660655475
 31
0.0
  0
LINE
  5
1579
330
156D
100
AcDbEntity
  8
0
100
AcDbLine
 10
41.86961893027659
 20
47.83203378606798
 30
0.0
 11
44.94974647992648
 21
47.83203378606798
 31
0.0
  0
LINE
  5
157A
330
156D
100
AcDbEntity
  8
0
100
AcDbLine
 10
41.44974647992649
 20
49.38531695912002
 30
0.0
 11
41.86961893027636
 21
50.11255737582451
 31
0.0
  0
LINE
  5
157B
330
156D
100
AcDbEntity
  8
0
100
AcDbLine
 10
41.44974647992649
 20
41.71770343350272
 30
0.0
 11
41.86961893027659
 21
40.99046301679776
 31
0.0
  0
ARC
  5
157C
330
156D
100
AcDbEntity
  8
0
100
AcDbCircle
 10
43.53591184420372
 20
42.13072481167613
 30
0.0
 40
2.019091141049102
100
AcDbArc
 50
145.615752531945
 51
214.384247468055
  0
ARC
  5
157D
330
156D
100
AcDbEntity
  8
0
100
AcDbCircle
 10
49.063987926668
 20
45.55151019631147
 30
0.0
 40
7.547167223513365
100
AcDbArc
 50
162.4120462260085
 51
197.5879537739914
  0
ARC
  5
157E
330
156D
100
AcDbEntity
  8
0
100
AcDbCircle
 10
43.53591184420429
 20
48.97229558094636
 30
0.0
 40
2.019091141049595
100
AcDbArc
 50
145.6157525319613
 51
214.3842474680387
  0
LINE
  5
157F
330
156D
100
AcDbEntity
  8
0
100
AcDbLine
 10
45.29974647992651
 20
48.05151019631147
 30
0.0
 11
52.51674647992651
 21
48.05151019631147
 31
0.0
  0
LINE
  5
1580
330
156D
100
AcDbEntity
  8
0
100
AcDbLine
 10
46.44974647992649
 20
47.61851019631149
 30
0.0
 11
52.94974647992649
 21
47.61851019631149
 31
0.0
  0
LINE
  5
1581
330
156D
100
AcDbEntity
  8
0
100
AcDbLine
 10
45.29974647992657
 20
43.05151019631147
 30
0.0
 11
52.51674647992651
 21
43.05151019631147
 31
0.0
  0
LINE
  5
1582
330
156D
100
AcDbEntity
  8
0
100
AcDbLine
 10
46.44974647992649
 20
43.48451019631148
 30
0.0
 11
52.94974647992649
 21
43.48451019631148
 31
0.0
  0
LINE
  5
1583
330
156D
100
AcDbEntity
  8
0
100
AcDbLine
 10
52.94974647992649
 20
47.61851019631149
 30
0.0
 11
52.51674647992651
 21
48.05151019631147
 31
0.0
  0
LINE
  5
1584
330
156D
100
AcDbEntity
  8
0
100
AcDbLine
 10
52.94974647992649
 20
43.48451019631148
 30
0.0
 11
52.51674647992651
 21
43.05151019631147
 31
0.0
  0
LINE
  5
1585
330
156D
100
AcDbEntity
  8
0
100
AcDbLine
 10
46.44974647992649
 20
47.61851019631149
 30
0.0
 11
46.01674647992648
 21
48.05151019631147
 31
0.0
  0
LINE
  5
1586
330
156D
100
AcDbEntity
  8
0
100
AcDbLine
 10
46.44974647992649
 20
43.48451019631148
 30
0.0
 11
46.01674647992648
 21
43.05151019631147
 31
0.0
  0
LINE
  5
1587
330
156D
100
AcDbEntity
  8
0
100
AcDbLine
 10
-32.82742231182181
 20
-60.05348450980659
 30
0.0
 11
-32.82742231182181
 21
-63.295484509807
 31
0.0
  0
LINE
  5
1588
330
156D
100
AcDbEntity
  8
0
100
AcDbLine
 10
-47.82742231182183
 20
-59.67448450980646
 30
0.0
 11
-47.82742231182179
 21
-63.67448450980622
 31
0.0
  0
LINE
  5
1589
330
156D
100
AcDbEntity
  8
0
100
AcDbLine
 10
-33.20642231182183
 20
-59.67448450980668
 30
0.0
 11
-33.20642231182177
 21
-63.67448450980669
 31
0.0
  0
LINE
  5
158A
330
156D
100
AcDbEntity
  8
0
100
AcDbLine
 10
-57.47742231182172
 20
-63.67448450980646
 30
0.0
 11
-33.20642231182177
 21
-63.67448450980646
 31
0.0
  0
LINE
  5
158B
330
156D
100
AcDbEntity
  8
0
100
AcDbLine
 10
-47.82742231182179
 20
-63.29548450980656
 30
0.0
 11
-32.82742231182181
 21
-63.29548450980678
 31
0.0
  0
LINE
  5
158C
330
156D
100
AcDbEntity
  8
0
100
AcDbLine
 10
-57.47742231182172
 20
-59.67448450980668
 30
0.0
 11
-33.20642231182183
 21
-59.67448450980646
 31
0.0
  0
LINE
  5
158D
330
156D
100
AcDbEntity
  8
0
100
AcDbLine
 10
-47.82742231182183
 20
-60.05348450980659
 30
0.0
 11
-32.82742231182181
 21
-60.05348450980659
 31
0.0
  0
LINE
  5
158E
330
156D
100
AcDbEntity
  8
0
100
AcDbLine
 10
-32.82742231182181
 20
-60.05348450980659
 30
0.0
 11
-33.20642231182183
 21
-59.67448450980668
 31
0.0
  0
LINE
  5
158F
330
156D
100
AcDbEntity
  8
0
100
AcDbLine
 10
-32.82742231182181
 20
-63.295484509807
 30
0.0
 11
-33.20642231182161
 21
-63.67448450980669
 31
0.0
  0
LINE
  5
1590
330
156D
100
AcDbEntity
  8
0
100
AcDbLine
 10
-47.82742231182183
 20
-60.05348450980637
 30
0.0
 11
-48.20642231182183
 21
-59.67448450980646
 31
0.0
  0
LINE
  5
1591
330
156D
100
AcDbEntity
  8
0
100
AcDbLine
 10
-47.82742231182179
 20
-63.29548450980678
 30
0.0
 11
-48.20642231182159
 21
-63.67448450980646
 31
0.0
  0
LINE
  5
1592
330
156D
100
AcDbEntity
  8
0
100
AcDbLine
 10
44.94974647992648
 20
48.40151019631139
 30
0.0
 11
44.94974647992655
 21
42.70151019631156
 31
0.0
  0
LINE
  5
1593
330
156D
100
AcDbEntity
  8
0
100
AcDbLine
 10
44.94974647992655
 20
42.70151019631156
 30
0.0
 11
44.94974647992648
 21
40.99046301679776
 31
0.0
  0
ARC
  5
1594
330
156D
100
AcDbEntity
  8
0
100
AcDbCircle
 10
45.29974647992657
 20
42.70151019631156
 30
0.0
 40
0.35
100
AcDbArc
 50
90.0
 51
180.0
  0
ENDBLK
  5
1598
330
156D
100
AcDbEntity
  8
0
100
AcDbBlockEnd
  0
BLOCK
  5
1867
330
1866
100
AcDbEntity
  8
0
100
AcDbBlockBegin
  2
*D44
 70
     1
 10
0.0
 20
0.0
 30
0.0
  3
*D44
  1

  0
LINE
  5
1868
330
1866
100
AcDbEntity
  8
0
 62
     0
370
    -2
100
AcDbLine
 10
490.4878072141085
 20
1555.572857019445
 30
0.0
 11
499.6078364093341
 21
1555.572857019445
 31
0.0
  0
LINE
  5
1869
330
1866
100
AcDbEntity
  8
0
 62
     0
370
    -2
100
AcDbLine
 10
490.4878072141085
 20
1549.572857019445
 30
0.0
 11
499.6078364093341
 21
1549.572857019445
 31
0.0
  0
LINE
  5
186A
330
1866
100
AcDbEntity
  8
0
 62
     0
370
    -2
100
AcDbLine
 10
498.357836409334
 20
1553.772857019445
 30
0.0
 11
498.357836409334
 21
1551.372857019445
 31
0.0
  0
INSERT
  5
186B
330
1866
100
AcDbEntity
  8
0
 62
     0
370
    -2
100
AcDbBlockReference
  2
_Open30
 10
498.357836409334
 20
1555.572857019445
 30
0.0
 41
1.8
 42
1.8
 43
1.8
 50
90.0
  0
INSERT
  5
186C
330
1866
100
AcDbEntity
  8
0
 62
     0
370
    -2
100
AcDbBlockReference
  2
_Open30
 10
498.357836409334
 20
1549.572857019445
 30
0.0
 41
1.8
 42
1.8
 43
1.8
 50
270.0
  0
MTEXT
  5
186D
330
1866
100
AcDbEntity
  8
0
 62
     0
100
AcDbMText
 10
496.6328364093339
 20
1552.572857019445
 30
0.0
 40
2.2
 41
0.0
 46
0.0
 71
     5
 72
     1
  1
6
 11
0.0000000000000001
 21
1.0
 31
0.0
 73
     1
 44
1.0
  0
POINT
  5
186E
330
1866
100
AcDbEntity
  8
Defpoints
 62
     0
100
AcDbPoint
 10
489.8628072141085
 20
1555.572857019445
 30
0.0
  0
POINT
  5
186F
330
1866
100
AcDbEntity
  8
Defpoints
 62
     0
100
AcDbPoint
 10
489.8628072141085
 20
1549.572857019445
 30
0.0
  0
POINT
  5
1870
330
1866
100
AcDbEntity
  8
Defpoints
 62
     0
100
AcDbPoint
 10
498.357836409334
 20
1549.572857019445
 30
0.0
  0
ENDBLK
  5
1871
330
1866
100
AcDbEntity
  8
0
100
AcDbBlockEnd
  0
BLOCK
  5
18C0
330
18B6
100
AcDbEntity
  8
0
100
AcDbBlockBegin
  2
*D45
 70
     1
 10
0.0
 20
0.0
 30
0.0
  3
*D45
  1

  0
LINE
  5
18B7
330
18B6
100
AcDbEntity
  8
0
 62
     0
370
    -2
100
AcDbLine
 10
37.59459728716417
 20
8.715747889564681
 30
0.0
 11
46.71462648238986
 21
8.71574788956468
 31
0.0
  0
LINE
  5
18B8
330
18B6
100
AcDbEntity
  8
0
 62
     0
370
    -2
100
AcDbLine
 10
37.59459728716417
 20
2.715747889564908
 30
0.0
 11
46.71462648238986
 21
2.715747889564905
 31
0.0
  0
LINE
  5
18B9
330
18B6
100
AcDbEntity
  8
0
 62
     0
370
    -2
100
AcDbLine
 10
45.46462648238986
 20
6.915747889564681
 30
0.0
 11
45.46462648238986
 21
4.515747889564907
 31
0.0
  0
INSERT
  5
18BA
330
18B6
100
AcDbEntity
  8
0
 62
     0
370
    -2
100
AcDbBlockReference
  2
_Open30
 10
45.46462648238986
 20
8.71574788956468
 30
0.0
 41
1.8
 42
1.8
 43
1.8
 50
90.0
  0
INSERT
  5
18BB
330
18B6
100
AcDbEntity
  8
0
 62
     0
370
    -2
100
AcDbBlockReference
  2
_Open30
 10
45.46462648238986
 20
2.715747889564905
 30
0.0
 41
1.8
 42
1.8
 43
1.8
 50
270.0
  0
MTEXT
  5
18BC
330
18B6
100
AcDbEntity
  8
0
 62
     0
100
AcDbMText
 10
44.43962648238986
 20
5.715747889564799
 30
0.0
 40
0.8
 41
0.0
 46
0.0
 71
     5
 72
     1
  1
6
 11
0.0000000000000001
 21
1.0
 31
0.0
 73
     1
 44
1.0
  0
POINT
  5
18BD
330
18B6
100
AcDbEntity
  8
Defpoints
 62
     0
100
AcDbPoint
 10
36.96959728716417
 20
8.715747889564681
 30
0.0
  0
POINT
  5
18BE
330
18B6
100
AcDbEntity
  8
Defpoints
 62
     0
100
AcDbPoint
 10
36.96959728716417
 20
2.715747889564909
 30
0.0
  0
POINT
  5
18BF
330
18B6
100
AcDbEntity
  8
Defpoints
 62
     0
100
AcDbPoint
 10
45.46462648238986
 20
2.715747889564905
 30
0.0
  0
ENDBLK
  5
18C1
330
18B6
100
AcDbEntity
  8
0
100
AcDbBlockEnd
  0
ENDSEC
  0
SECTION
  2
ENTITIES
  0
DIMENSION
  5
D1A
330
1F
100
AcDbEntity
  8
dimention
100
AcDbDimension
  2
*D27
 10
12.89998866200471
 20
20.77550529186857
 30
0.0
 11
6.449994783702718
 21
20.77550529186857
 31
0.0
 70
   160
 71
     5
 42
12.89998775660398
 73
     0
 74
     0
 75
     0
  3
Standard
100
AcDbAlignedDimension
 13
0.0000009054007251
 23
11.17171725782987
 33
0.0
 14
12.89998866200471
 24
11.17171725782987
 34
0.0
100
AcDbRotatedDimension
  0
DIMENSION
  5
D44
330
1F
100
AcDbEntity
  8
dimention
100
AcDbDimension
  2
*D28
 10
38.54181309715034
 20
20.77550529186857
 30
0.0
 11
35.89181309715036
 21
20.77550529186857
 31
0.0
 70
   160
 71
     5
 42
5.299999999999954
 73
     0
 74
     0
 75
     0
  3
Standard
100
AcDbAlignedDimension
 13
33.24181309715039
 23
13.70809973191944
 33
0.0
 14
38.54181309715034
 24
14.89562295973837
 34
0.0
100
AcDbRotatedDimension
  0
DIMENSION
  5
D5C
330
1F
100
AcDbEntity
  8
dimention
100
AcDbDimension
  2
*D29
 10
38.54181309715034
 20
20.77550529186857
 30
0.0
 11
58.54181351547413
 21
20.77550529186857
 31
0.0
 70
   160
 71
     5
 42
40.00000083664759
 73
     0
 74
     0
 75
     0
  3
Standard
100
AcDbAlignedDimension
 13
78.54181393379794
 23
10.77131129205804
 33
0.0
 14
38.54181309715034
 24
14.89562295973837
 34
0.0
100
AcDbRotatedDimension
  0
DIMENSION
  5
D74
330
1F
100
AcDbEntity
  8
dimention
100
AcDbDimension
  2
*D30
 10
63.54181393379793
 20
15.91322338893169
 30
0.0
 11
71.04181393379794
 21
15.91322338893169
 31
0.0
 70
   160
 71
     5
 42
15.00000000000001
 73
     0
 74
     0
 75
     0
  3
Standard
100
AcDbAlignedDimension
 13
78.54181393379794
 23
10.77131129205804
 33
0.0
 14
63.54181393379793
 24
11.44781229923845
 34
0.0
100
AcDbRotatedDimension
  0
LEADER
  5
FDD
330
1F
100
AcDbEntity
  8
dimention
100
AcDbLeader
  3
Standard
 73
     0
 40
0.8
 41
1.333333333333333
 76
     3
 10
71.04181366993559
 20
3.447811555920451
 30
0.0
 10
73.91830490822359
 20
0.5713203176324502
 30
0.0
 10
75.71655837991603
 20
0.5713203176324504
 30
0.0
340
FDE
213
0.0
223
-0.4
233
0.0
1001
ACAD
1000
DSTYLE
1002
{
1070
   147
1040
0.3
1070
    77
1070
     0
1002
}
  0
MTEXT
  5
FDE
102
{ACAD_REACTORS
330
FDD
102
}
330
1F
100
AcDbEntity
  8
dimention
100
AcDbMText
 10
76.01655837991602
 20
0.9713203176324503
 30
0.0
 40
0.8
 41
0.0
 46
0.0
 71
     1
 72
     1
  1
\A1;M8
 73
     1
 44
1.0
  0
LWPOLYLINE
  5
1C6B
330
1F
100
AcDbEntity
  8
visible1
100
AcDbPolyline
 90
        6
 70
     1
 43
0.0
 10
0.0000009054007251
 20
3.723905854011718
 10
6.449994783702777
 20
0.0000001521027571
 10
12.89998866200471
 20
3.723905854011718
 10
12.89998866200471
 20
11.17171725782987
 10
6.449994783702777
 20
14.89562295973883
 10
0.0000009054007251
 20
11.17171725782987
  0
CIRCLE
  5
1C6C
330
1F
100
AcDbEntity
  8
visible2
100
AcDbCircle
 10
6.449994783702777
 20
7.447811555920907
 30
0.0
 40
6.260288175998996
  0
LINE
  5
1C6D
330
1F
100
AcDbEntity
  8
visible1
100
AcDbLine
 10
33.24181309715039
 20
13.70809973191944
 30
0.0
 11
33.24181309715039
 21
1.187523379921457
 31
0.0
  0
LINE
  5
1C6E
330
1F
100
AcDbEntity
  8
visible1
100
AcDbLine
 10
38.54181309715034
 20
14.89562295973837
 30
0.0
 11
38.54181309715034
 21
11.94781155592045
 31
0.0
  0
ARC
  5
1C6F
330
1F
100
AcDbEntity
  8
visible1
100
AcDbCircle
 10
39.04181309715035
 20
11.94781155592045
 30
0.0
 40
0.5
100
AcDbArc
 50
180.0
 51
270.0
  0
LINE
  5
1C73
330
1F
100
AcDbEntity
  8
visible1
100
AcDbLine
 10
33.92742995240065
 20
0.0000001521020749
 30
0.0
 11
38.54181309715045
 21
0.0000001521023023
 31
0.0
  0
LINE
  5
1C74
330
1F
100
AcDbEntity
  8
visible1
100
AcDbLine
 10
33.9274299524003
 20
14.89562295973837
 30
0.0
 11
38.54181309715034
 21
14.89562295973837
 31
0.0
  0
LINE
  5
1C75
330
1F
100
AcDbEntity
  8
visible2
100
AcDbLine
 10
33.92742995240065
 20
3.723905854011263
 30
0.0
 11
38.54181309715045
 21
3.723905854011263
 31
0.0
  0
LINE
  5
1C76
330
1F
100
AcDbEntity
  8
visible2
100
AcDbLine
 10
33.92742995240065
 20
11.17171725782941
 30
0.0
 11
38.54181309715034
 21
11.17171725782941
 31
0.0
  0
LINE
  5
1C77
330
1F
100
AcDbEntity
  8
visible1
100
AcDbLine
 10
33.24181309715039
 20
13.70809973191944
 30
0.0
 11
33.9274299524003
 21
14.89562295973837
 31
0.0
  0
LINE
  5
1C78
330
1F
100
AcDbEntity
  8
visible1
100
AcDbLine
 10
33.24181309715039
 20
1.187523379921457
 30
0.0
 11
33.92742995240065
 21
0.0000001521020749
 31
0.0
  0
ARC
  5
1C79
330
1F
100
AcDbEntity
  8
visible2
100
AcDbCircle
 10
36.64834795171237
 20
1.861953003056895
 30
0.0
 40
3.297008216270631
100
AcDbArc
 50
145.6157525319468
 51
214.3842474680532
  0
ARC
  5
1C7A
330
1F
100
AcDbEntity
  8
visible2
100
AcDbCircle
 10
45.67523727508556
 20
7.447811555920451
 30
0.0
 40
12.32389753964398
100
AcDbArc
 50
162.4120462260095
 51
197.5879537739904
  0
ARC
  5
1C7B
330
1F
100
AcDbEntity
  8
visible2
100
AcDbCircle
 10
36.64834795171316
 20
13.03367010878401
 30
0.0
 40
3.297008216271438
100
AcDbArc
 50
145.6157525319613
 51
214.3842474680387
  0
LINE
  5
1C84
330
1F
100
AcDbEntity
  8
visible1
100
AcDbLine
 10
38.54181309715034
 20
11.94781155592045
 30
0.0
 11
38.54181309715045
 21
2.947811555920452
 31
0.0
  0
LINE
  5
1C85
330
1F
100
AcDbEntity
  8
visible1
100
AcDbLine
 10
38.54181309715045
 20
2.947811555920452
 30
0.0
 11
38.54181309715068
 21
0.0000001521025297
 31
0.0
  0
ARC
  5
1C86
330
1F
100
AcDbEntity
  8
visible1
100
AcDbCircle
 10
39.04181309715045
 20
2.947811555920452
 30
0.0
 40
0.5
100
AcDbArc
 50
90.0
 51
180.0
  0
LINE
  5
1FDF
330
1F
100
AcDbEntity
  8
visible1
100
AcDbLine
 10
78.54181393379794
 20
10.77131129205804
 30
0.0
 11
78.54181393379803
 21
4.124311292058108
 31
0.0
  0
LINE
  5
1FE0
330
1F
100
AcDbEntity
  8
visible2
100
AcDbLine
 10
63.54181393379793
 20
11.44781129205785
 30
0.0
 11
63.54181393379803
 21
3.447811292057848
 31
0.0
  0
LINE
  5
1FE1
330
1F
100
AcDbEntity
  8
visible2
100
AcDbLine
 10
77.86531393379789
 20
11.4478112920583
 30
0.0
 11
77.86531393379799
 21
3.447811292058077
 31
0.0
  0
LINE
  5
1FE2
330
1F
100
AcDbEntity
  8
visible2
100
AcDbLine
 10
63.54181393379803
 20
4.124311292057882
 30
0.0
 11
62.86531393379799
 21
3.447811292057848
 31
0.0
  0
LINE
  5
1FE3
330
1F
100
AcDbEntity
  8
visible2
100
AcDbLine
 10
63.54181393379793
 20
10.77131129205781
 30
0.0
 11
62.86531393379778
 21
11.44781129205785
 31
0.0
  0
LINE
  5
1FE4
330
1F
100
AcDbEntity
  8
visible1
100
AcDbLine
 10
39.04181393379804
 20
3.447811292057848
 30
0.0
 11
77.86531393379812
 21
3.447811292058077
 31
0.0
  0
LINE
  5
1FE5
330
1F
100
AcDbEntity
  8
visible2
100
AcDbLine
 10
63.54181393379803
 20
4.124311292058337
 30
0.0
 11
78.54181393379803
 21
4.124311292058108
 31
0.0
  0
LINE
  5
1FE6
330
1F
100
AcDbEntity
  8
visible1
100
AcDbLine
 10
39.04181393379815
 20
11.4478112920583
 30
0.0
 11
77.86531393379799
 21
11.44781129205898
 31
0.0
  0
LINE
  5
1FE7
330
1F
100
AcDbEntity
  8
visible2
100
AcDbLine
 10
63.54181393379793
 20
10.77131129205781
 30
0.0
 11
78.54181393379794
 21
10.77131129205804
 31
0.0
  0
LINE
  5
1FE8
330
1F
100
AcDbEntity
  8
visible1
100
AcDbLine
 10
78.54181393379794
 20
10.77131129205804
 30
0.0
 11
77.86531393379812
 21
11.44781129205807
 31
0.0
  0
LINE
  5
1FE9
330
1F
100
AcDbEntity
  8
visible1
100
AcDbLine
 10
78.54181393379803
 20
4.124311292058108
 30
0.0
 11
77.86531393379799
 21
3.447811292058077
 31
0.0
  0
LINE
  5
2040
330
1F
100
AcDbEntity
  8
center
 48
0.1
100
AcDbLine
 10
6.449994783702778
 20
17.7080997319199
 30
0.0
 11
6.449994783702775
 21
-2.812476620078092
 31
0.0
  0
LINE
  5
2041
330
1F
100
AcDbEntity
  8
center
 48
0.1
100
AcDbLine
 10
16.71028295970177
 20
7.447811555920905
 30
0.0
 11
-3.81029339229622
 21
7.447811555920908
 31
0.0
  0
LINE
  5
2042
330
1F
100
AcDbEntity
  8
center
 48
0.1
100
AcDbLine
 10
29.24181309715039
 20
7.447811555920447
 30
0.0
 11
82.54181393379798
 21
7.4478115559213
 31
0.0
  0
VIEWPORT
  5
C8
330
58
100
AcDbEntity
 67
     1
  8
0
100
AcDbViewport
 10
5.719999900953038
 20
4.008333223072561
 30
0.0
 40
12.36801978644424
 41
10.34582245849186
 68
     1
 69
     1
 12
5.719999900953038
 22
4.008333223072561
 13
0.0
 23
0.0
 14
10.0
 24
10.0
 15
10.0
 25
10.0
 16
0.0
 26
0.0
 36
1.0
 17
0.0
 27
0.0
 37
0.0
 42
50.0
 43
0.0
 44
0.0
 45
10.34582245849186
 50
0.0
 51
0.0
 72
  1000
 90
   557088
  1

281
     0
 71
     1
 74
     0
110
0.0
120
0.0
130
0.0
111
1.0
121
0.0
131
0.0
112
0.0
122
1.0
132
0.0
 79
     0
146
0.0
170
     0
 61
     5
348
9F
292
     1
282
     1
141
0.0
142
0.0
 63
   250
421
  3355443
  0
INSERT
  5
84D
330
58
100
AcDbEntity
 67
     1
  8
0
100
AcDbBlockReference
  2
A$C77245723
 10
-0.1249980250631576
 20
-0.1249920533320328
 30
0.0
 41
0.039348486137268
 42
0.039348486137268
 43
0.039348486137268
  0
VIEWPORT
  5
85F
330
58
100
AcDbEntity
 67
     1
  8
0
100
AcDbViewport
 10
5.718252180372954
 20
4.006598997043155
 30
0.0
 40
10.50604579865055
 41
7.082727504708241
 68
     2
 69
     2
 12
35.97314684621817
 22
5.628198079366513
 13
0.0
 23
0.0
 14
0.5
 24
0.5
 15
0.5
 25
0.5
 16
0.0
 26
0.0
 36
1.0
 17
0.0
 27
0.0
 37
0.0
 42
50.0
 43
0.0
 44
0.0
 45
70.82727457679908
 50
0.0
 51
0.0
 72
  1000
 90
   557152
  1

281
     0
 71
     1
 74
     0
110
0.0
120
0.0
130
0.0
111
1.0
121
0.0
131
0.0
112
0.0
122
1.0
132
0.0
 79
     0
146
0.0
170
     0
 61
     5
348
9F
292
     1
282
     1
141
0.0
142
0.0
 63
   250
421
  3355443
  0
MTEXT
  5
9BE
330
58
100
AcDbEntity
 67
     1
  8
0
100
AcDbMText
 10
8.220666147000066
 20
1.645689828807073
 30
0.0
 40
0.1
 41
2.750608932698165
 46
0.3934848613726818
 71
     4
 72
     5
  1
{\fMS PGothic|b0|i0|c128|p50;　　　ARM08-40\H0.8x; （アルミナ六角ボルトM8x40L）}
 73
     1
 44
1.0
  0
MTEXT
  5
9CA
330
58
100
AcDbEntity
 67
     1
  8
0
100
AcDbMText
 10
7.628546306485749
 20
1.350576182777563
 30
0.0
 40
0.1
 41
1.184239681028635
 46
0.1967424306863406
 71
     5
 72
     5
  1
{\fMS PGothic|b0|i0|c128|p50;1 ： 10}
 73
     1
 44
1.0
  0
MTEXT
  5
9D0
330
58
100
AcDbEntity
 67
     1
  8
0
100
AcDbMText
 10
7.628546306485747
 20
1.153833752091224
 30
0.0
 40
0.06
 41
1.184239681028635
 46
0.1967424306863404
 71
     5
 72
     5
  1
{\fMS PGothic|b0|i0|c128|p50;W.O. 20100426}
 73
     1
 44
1.0
  0
ENDSEC
  0
SECTION
  2
OBJECTS
  0
DICTIONARY
  5
C
330
0
100
AcDbDictionary
281
     1
  3
ACAD_COLOR
350
73
  3
ACAD_GROUP
350
D
  3
ACAD_LAYOUT
350
1A
  3
ACAD_MATERIAL
350
72
  3
ACAD_MLINESTYLE
350
17
  3
ACAD_PLOTSETTINGS
350
19
  3
ACAD_PLOTSTYLENAME
350
E
  3
ACAD_TABLESTYLE
350
86
  3
ACAD_VISUALSTYLE
350
99
  3
AcDbVariableDictionary
350
66
  0
DICTIONARY
  5
D2
330
2
100
AcDbDictionary
280
     1
281
     1
  3
ACAD_LAYERFILTERS
360
2054
  3
ACAD_LAYERSTATES
360
D3
  3
ACLYDICTIONARY
360
2053
  0
DICTIONARY
  5
2044
330
1F
100
AcDbDictionary
280
     1
281
     1
  3
ACAD_SORTENTS
360
2045
  0
DICTIONARY
  5
272
330
223
100
AcDbDictionary
280
     1
281
     1
  3
ACAD_SORTENTS
360
273
  0
DICTIONARY
  5
2C5
330
276
100
AcDbDictionary
280
     1
281
     1
  3
ACAD_SORTENTS
360
2C6
  0
DICTIONARY
  5
527
330
42F
100
AcDbDictionary
280
     1
281
     1
  0
DICTIONARY
  5
5CF
330
534
100
AcDbDictionary
280
     1
281
     1
  0
DICTIONARY
  5
7F6
330
7A7
100
AcDbDictionary
280
     1
281
     1
  3
ACAD_SORTENTS
360
7F7
  0
DICTIONARY
  5
8C1
330
7FA
100
AcDbDictionary
280
     1
281
     1
  3
ACAD_SORTENTS
360
8C2
  0
DICTIONARY
  5
A0B
330
9E7
100
AcDbDictionary
280
     1
281
     1
  3
ACAD_SORTENTS
360
A0C
  0
DICTIONARY
  5
BDC
330
BB4
100
AcDbDictionary
280
     1
281
     1
  3
ACAD_SORTENTS
360
BDD
  0
DICTIONARY
  5
C08
330
BE0
100
AcDbDictionary
280
     1
281
     1
  3
ACAD_SORTENTS
360
C09
  0
DICTIONARY
  5
1595
330
156D
100
AcDbDictionary
280
     1
281
     1
  3
ACAD_SORTENTS
360
1596
  0
DICTIONARY
  5
73
102
{ACAD_REACTORS
330
C
102
}
330
C
100
AcDbDictionary
281
     1
  0
DICTIONARY
  5
D
102
{ACAD_REACTORS
330
C
102
}
330
C
100
AcDbDictionary
281
     1
  3
*A1
350
179
  3
*A2
350
533
  3
*A3
350
7A6
  0
DICTIONARY
  5
1A
102
{ACAD_REACTORS
330
C
102
}
330
C
100
AcDbDictionary
281
     1
  3
Model
350
22
  3
レイアウト1
350
59
  0
DICTIONARY
  5
72
102
{ACAD_REACTORS
330
C
102
}
330
C
100
AcDbDictionary
281
     1
  3
ByBlock
350
97
  3
ByLayer
350
96
  3
Global
350
98
  0
DICTIONARY
  5
17
102
{ACAD_REACTORS
330
C
102
}
330
C
100
AcDbDictionary
281
     1
  3
Standard
350
18
  0
DICTIONARY
  5
19
102
{ACAD_REACTORS
330
C
102
}
330
C
100
AcDbDictionary
281
     1
  3
A4vertical
350
2084
  0
ACDBDICTIONARYWDFLT
  5
E
102
{ACAD_REACTORS
330
C
102
}
330
C
100
AcDbDictionary
281
     1
  3
Normal
350
F
100
AcDbDictionaryWithDefault
340
F
  0
DICTIONARY
  5
86
102
{ACAD_REACTORS
330
C
102
}
330
C
100
AcDbDictionary
281
     1
  3
Standard
350
87
  0
DICTIONARY
  5
99
102
{ACAD_REACTORS
330
C
102
}
330
C
100
AcDbDictionary
281
     1
  3
2dWireframe
350
9F
  3
3D Hidden
350
A1
  3
3dWireframe
350
A0
  3
Basic
350
9E
  3
Brighten
350
A5
  3
ColorChange
350
A9
  3
Conceptual
350
A2
  3
Dim
350
A4
  3
Facepattern
350
A8
  3
Flat
350
9A
  3
FlatWithEdges
350
9B
  3
Gouraud
350
9C
  3
GouraudWithEdges
350
9D
  3
Linepattern
350
A7
  3
Realistic
350
A3
  3
Thicken
350
A6
  0
DICTIONARY
  5
66
102
{ACAD_REACTORS
330
C
102
}
330
C
100
AcDbDictionary
281
     1
  3
CTABLESTYLE
350
89
  3
DIMASSOC
350
67
  3
HIDETEXT
350
6B
  0
DICTIONARY
  5
2054
102
{ACAD_REACTORS
330
D2
102
}
330
D2
100
AcDbDictionary
281
     1
  0
DICTIONARY
  5
D3
102
{ACAD_REACTORS
330
D2
102
}
330
D2
100
AcDbDictionary
281
     1
  3
kda ceramic screws
350
2050
  0
DICTIONARY
  5
2053
102
{ACAD_REACTORS
330
D2
102
}
330
D2
100
AcDbDictionary
281
     1
1001
ACAD
1000
<All
  0
SORTENTSTABLE
  5
2045
102
{ACAD_REACTORS
330
2044
102
}
330
2044
100
AcDbSortentsTable
330
1F
331
1C6B
  5
1C6B
331
1C7A
  5
1C7A
331
D44
  5
D44
331
2042
  5
2043
331
1C78
  5
1C78
331
2040
  5
2041
331
1FE8
  5
1FE9
331
1C76
  5
1C76
331
FDD
  5
FDD
331
1C85
  5
1C85
331
1FE6
  5
1FE7
331
1C74
  5
1C74
331
1FE4
  5
1FE5
331
1FE2
  5
1FE3
331
D1A
  5
D1A
331
1FE0
  5
1FE1
331
1C6E
  5
1C6E
331
1C6C
  5
1C6C
331
1C7B
  5
1C7B
331
1C79
  5
1C79
331
D74
  5
D74
331
2041
  5
2042
331
1FE9
  5
2040
331
1C77
  5
1C77
331
FDE
  5
FDE
331
1C86
  5
1C86
331
1FE7
  5
1FE8
331
1C75
  5
1C75
331
1C84
  5
1C84
331
1FE5
  5
1FE6
331
1C73
  5
1C73
331
1FE3
  5
1FE4
331
D5C
  5
D5C
331
1FE1
  5
1FE2
331
1C6F
  5
1C6F
331
1FDF
  5
1FDF
331
1C6D
  5
1C6D
  0
SORTENTSTABLE
  5
273
102
{ACAD_REACTORS
330
272
102
}
330
272
100
AcDbSortentsTable
330
223
  0
SORTENTSTABLE
  5
2C6
102
{ACAD_REACTORS
330
2C5
102
}
330
2C5
100
AcDbSortentsTable
330
276
  0
SORTENTSTABLE
  5
7F7
102
{ACAD_REACTORS
330
7F6
102
}
330
7F6
100
AcDbSortentsTable
330
7A7
  0
SORTENTSTABLE
  5
8C2
102
{ACAD_REACTORS
330
8C1
102
}
330
8C1
100
AcDbSortentsTable
330
7FA
  0
SORTENTSTABLE
  5
A0C
102
{ACAD_REACTORS
330
A0B
102
}
330
A0B
100
AcDbSortentsTable
330
9E7
  0
SORTENTSTABLE
  5
BDD
102
{ACAD_REACTORS
330
BDC
102
}
330
BDC
100
AcDbSortentsTable
330
BB4
  0
SORTENTSTABLE
  5
C09
102
{ACAD_REACTORS
330
C08
102
}
330
C08
100
AcDbSortentsTable
330
BE0
  0
SORTENTSTABLE
  5
1596
102
{ACAD_REACTORS
330
1595
102
}
330
1595
100
AcDbSortentsTable
330
156D
  0
GROUP
  5
179
102
{ACAD_REACTORS
330
D
102
}
330
D
100
AcDbGroup
300

 70
     1
 71
     1
  0
GROUP
  5
533
102
{ACAD_REACTORS
330
D
102
}
330
D
100
AcDbGroup
300

 70
     1
 71
     1
  0
GROUP
  5
7A6
102
{ACAD_REACTORS
330
D
102
}
330
D
100
AcDbGroup
300

 70
     1
 71
     1
  0
LAYOUT
  5
22
102
{ACAD_REACTORS
330
1A
102
}
330
1A
100
AcDbPlotSettings
  1

  2
Macromedia FlashPaper
  4
A4
  6

 40
3.174999952316283
 41
3.174999952316283
 42
3.175003051757812
 43
3.17498779296875
 44
209.9733276367186
 45
296.9259948730469
 46
0.0
 47
0.0
 48
0.0
 49
0.0
140
0.0
141
0.0
142
1.0
143
1.267450439718669
 70
 11952
 72
     0
 73
     1
 74
     0
  7
monochrome.ctb
 75
     0
147
0.7889854850829238
 76
     0
 77
     2
 78
   300
148
0.8971076320843025
149
5.868066689983559
100
AcDbLayout
  1
Model
 70
     1
 71
     0
 10
0.0
 20
0.0
 11
12.0
 21
9.0
 12
0.0
 22
0.0
 32
0.0
 14
0.0
 24
0.0
 34
0.0
 15
0.0
 25
0.0
 35
0.0
146
0.0
 13
0.0
 23
0.0
 33
0.0
 16
1.0
 26
0.0
 36
0.0
 17
0.0
 27
1.0
 37
0.0
 76
     0
330
1F
331
94
1001
ACAD_PSEXT
1000
Macromedia FlashPaper
1000
MacromediaFlashPaper
1000
LPT1:
1000

1070
     0
  0
LAYOUT
  5
59
102
{ACAD_XDICTIONARY
360
17E
102
}
102
{ACAD_REACTORS
330
1A
102
}
330
1A
100
AcDbPlotSettings
  1
A4vertical
  2
Macromedia FlashPaper.pc3
  4
A4
  6

 40
3.174999952316284
 41
3.174999952316284
 42
3.17498779296875
 43
3.175003051757812
 44
296.9259948730469
 45
209.9733276367187
 46
0.0
 47
0.0
 48
0.0
 49
0.0
140
0.0
141
0.0
142
1.0
143
0.0393700787401575
 70
   640
 72
     1
 73
     0
 74
     5
  7

 75
    16
147
25.4
 76
     0
 77
     2
 78
   300
148
0.0
149
0.0
100
AcDbLayout
  1
レイアウト1
 70
     1
 71
     1
 10
-0.1249999981226884
 20
-0.1249999981226884
 11
11.56499980002876
 21
8.141666444267812
 12
0.0
 22
0.0
 32
0.0
 14
0.2679611643237827
 24
0.2683024197663073
 34
-0.0000000000112498
 15
11.16847214462166
 25
7.745210581882446
 35
0.0000000000002956
146
0.0
 13
0.0
 23
0.0
 33
0.0
 16
1.0
 26
0.0
 36
0.0
 17
0.0
 27
1.0
 37
0.0
 76
     0
330
58
331
C8
1001
ACAD_PSEXT
1000
Macromedia FlashPaper.pc3
1000
MacromediaFlashPaper
1000
LPT1:
1000

1070
     0
  0
MATERIAL
  5
97
102
{ACAD_REACTORS
330
72
102
}
330
72
100
AcDbMaterial
  1
ByBlock
  0
MATERIAL
  5
96
102
{ACAD_REACTORS
330
72
102
}
330
72
100
AcDbMaterial
  1
ByLayer
  0
MATERIAL
  5
98
102
{ACAD_REACTORS
330
72
102
}
330
72
100
AcDbMaterial
  1
Global
  0
MLINESTYLE
  5
18
102
{ACAD_REACTORS
330
17
102
}
330
17
100
AcDbMlineStyle
  2
STANDARD
 70
     0
  3

 62
   256
 51
90.0
 52
90.0
 71
     2
 49
0.5
 62
   256
  6
BYLAYER
 49
-0.5
 62
   256
  6
BYLAYER
  0
PLOTSETTINGS
  5
2084
102
{ACAD_REACTORS
330
19
102
}
330
19
100
AcDbPlotSettings
  1
A4vertical
  2
Macromedia FlashPaper.pc3
  4
A4
  6

 40
3.174999952316284
 41
3.174999952316284
 42
3.17498779296875
 43
3.175003051757812
 44
296.9259948730469
 45
209.9733276367187
 46
0.0
 47
0.0
 48
0.0
 49
0.0
140
0.0
141
0.0
142
1.0
143
0.0393700787401575
 70
  2688
 72
     1
 73
     0
 74
     5
  7

 75
    16
147
25.4
 76
     0
 77
     2
 78
   300
148
0.0
149
0.0
1001
ACAD_PSEXT
1000
Macromedia FlashPaper.pc3
1000
MacromediaFlashPaper
1000
LPT1:
1000

1070
     0
  0
ACDBPLACEHOLDER
  5
F
102
{ACAD_REACTORS
330
E
102
}
330
E
  0
TABLESTYLE
  5
87
102
{ACAD_REACTORS
330
86
102
}
330
86
100
AcDbTableStyle
  3
Standard
 70
     0
 71
     0
 40
0.06
 41
0.06
280
     0
281
     0
  7
Standard
140
0.18
170
     2
 62
     0
 63
     7
283
     0
 90
      512
 91
        0
  1

274
    -2
284
     1
 64
     0
275
    -2
285
     1
 65
     0
276
    -2
286
     1
 66
     0
277
    -2
287
     1
 67
     0
278
    -2
288
     1
 68
     0
279
    -2
289
     1
 69
     0
  7
Standard
140
0.25
170
     5
 62
     0
 63
     7
283
     0
 90
      512
 91
        0
  1

274
    -2
284
     1
 64
     0
275
    -2
285
     1
 65
     0
276
    -2
286
     1
 66
     0
277
    -2
287
     1
 67
     0
278
    -2
288
     1
 68
     0
279
    -2
289
     1
 69
     0
  7
Standard
140
0.18
170
     5
 62
     0
 63
     7
283
     0
 90
      512
 91
        0
  1

274
    -2
284
     1
 64
     0
275
    -2
285
     1
 65
     0
276
    -2
286
     1
 66
     0
277
    -2
287
     1
 67
     0
278
    -2
288
     1
 68
     0
279
    -2
289
     1
 69
     0
  0
VISUALSTYLE
  5
9F
102
{ACAD_REACTORS
330
99
102
}
330
99
100
AcDbVisualStyle
  2
2dWireframe
 70
     4
 71
     0
 72
     2
 73
     1
 90
        0
 40
-0.6
 41
-30.0
 62
     5
 63
     7
421
 16777215
 74
     1
 91
        4
 64
     7
 65
   257
 75
     1
175
     1
 42
1.0
 92
        0
 66
   257
 43
1.0
 76
     1
 77
     6
 78
     2
 67
     7
 79
     5
170
     0
171
     0
290
     0
174
     0
 93
        1
 44
0.0
173
     0
291
     0
 45
0.0
  0
VISUALSTYLE
  5
A1
102
{ACAD_REACTORS
330
99
102
}
330
99
100
AcDbVisualStyle
  2
3D Hidden
 70
     6
 71
     1
 72
     2
 73
     2
 90
        0
 40
-0.6
 41
-30.0
 62
     5
 63
     7
421
 16777215
 74
     2
 91
        2
 64
     7
 65
   257
 75
     2
175
     1
 42
40.0
 92
        0
 66
   257
 43
1.0
 76
     1
 77
     6
 78
     2
 67
     7
 79
     3
170
     0
171
     0
290
     0
174
     0
 93
        1
 44
0.0
173
     0
291
     0
 45
0.0
  0
VISUALSTYLE
  5
A0
102
{ACAD_REACTORS
330
99
102
}
330
99
100
AcDbVisualStyle
  2
3dWireframe
 70
     5
 71
     0
 72
     2
 73
     1
 90
        0
 40
-0.6
 41
-30.0
 62
     5
 63
     7
421
 16777215
 74
     1
 91
        4
 64
     7
 65
   257
 75
     1
175
     1
 42
1.0
 92
        0
 66
   257
 43
1.0
 76
     1
 77
     6
 78
     2
 67
     7
 79
     5
170
     0
171
     0
290
     0
174
     0
 93
        1
 44
0.0
173
     0
291
     0
 45
0.0
  0
VISUALSTYLE
  5
9E
102
{ACAD_REACTORS
330
99
102
}
330
99
100
AcDbVisualStyle
  2
Basic
 70
     7
 71
     1
 72
     0
 73
     1
 90
        0
 40
-0.6
 41
-30.0
 62
     5
 63
     7
421
 16777215
 74
     0
 91
        4
 64
     7
 65
   257
 75
     1
175
     1
 42
1.0
 92
        8
 66
     7
 43
1.0
 76
     1
 77
     6
 78
     2
 67
     7
 79
     5
170
     0
171
     0
290
     0
174
     0
 93
        1
 44
0.0
173
     0
291
     1
 45
0.0
  0
VISUALSTYLE
  5
A5
102
{ACAD_REACTORS
330
99
102
}
330
99
100
AcDbVisualStyle
  2
Brighten
 70
    12
 71
     2
 72
     2
 73
     1
 90
        0
 40
-0.6
 41
-30.0
 62
     5
 63
     7
421
 16777215
 74
     1
 91
        4
 64
     7
 65
   257
 75
     1
175
     1
 42
1.0
 92
        8
 66
     7
 43
1.0
 76
     1
 77
     6
 78
     2
 67
     7
 79
     5
170
     0
171
     0
290
     0
174
     0
 93
        1
 44
50.0
173
     0
291
     1
 45
0.0
  0
VISUALSTYLE
  5
A9
102
{ACAD_REACTORS
330
99
102
}
330
99
100
AcDbVisualStyle
  2
ColorChange
 70
    16
 71
     2
 72
     2
 73
     3
 90
        0
 40
-0.6
 41
-30.0
 62
     5
 63
     8
421
  8421504
 74
     1
 91
        4
 64
     7
 65
   257
 75
     1
175
     1
 42
1.0
 92
        8
 66
     8
424
  8421504
 43
1.0
 76
     1
 77
     6
 78
     2
 67
     7
 79
     5
170
     0
171
     0
290
     0
174
     0
 93
        1
 44
0.0
173
     0
291
     1
 45
0.0
  0
VISUALSTYLE
  5
A2
102
{ACAD_REACTORS
330
99
102
}
330
99
100
AcDbVisualStyle
  2
Conceptual
 70
     9
 71
     3
 72
     2
 73
     1
 90
        0
 40
-0.6
 41
-30.0
 62
     5
 63
     7
421
 16777215
 74
     2
 91
        2
 64
     7
 65
   257
 75
     1
175
     1
 42
40.0
 92
        8
 66
     7
 43
1.0
 76
     1
 77
     6
 78
     2
 67
     7
 79
     3
170
     0
171
     0
290
     0
174
     0
 93
        1
 44
0.0
173
     0
291
     0
 45
0.0
  0
VISUALSTYLE
  5
A4
102
{ACAD_REACTORS
330
99
102
}
330
99
100
AcDbVisualStyle
  2
Dim
 70
    11
 71
     2
 72
     2
 73
     1
 90
        0
 40
-0.6
 41
-30.0
 62
     5
 63
     7
421
 16777215
 74
     1
 91
        4
 64
     7
 65
   257
 75
     1
175
     1
 42
1.0
 92
        8
 66
     7
 43
1.0
 76
     1
 77
     6
 78
     2
 67
     7
 79
     5
170
     0
171
     0
290
     0
174
     0
 93
        1
 44
-50.0
173
     0
291
     1
 45
0.0
  0
VISUALSTYLE
  5
A8
102
{ACAD_REACTORS
330
99
102
}
330
99
100
AcDbVisualStyle
  2
Facepattern
 70
    15
 71
     2
 72
     2
 73
     1
 90
        0
 40
-0.6
 41
-30.0
 62
     5
 63
     7
421
 16777215
 74
     1
 91
        4
 64
     7
 65
   257
 75
     1
175
     1
 42
1.0
 92
        8
 66
     7
 43
1.0
 76
     1
 77
     6
 78
     2
 67
     7
 79
     5
170
     0
171
     0
290
     0
174
     0
 93
        1
 44
0.0
173
     0
291
     1
 45
0.0
  0
VISUALSTYLE
  5
9A
102
{ACAD_REACTORS
330
99
102
}
330
99
100
AcDbVisualStyle
  2
Flat
 70
     0
 71
     2
 72
     1
 73
     1
 90
        2
 40
-0.6
 41
30.0
 62
     5
 63
     7
421
 16777215
 74
     0
 91
        4
 64
     7
 65
   257
 75
     1
175
     1
 42
1.0
 92
        8
 66
     7
 43
1.0
 76
     1
 77
     6
 78
     2
 67
     7
 79
     5
170
     0
171
     0
290
     0
174
     0
 93
        1
 44
0.0
173
     0
291
     1
 45
0.0
  0
VISUALSTYLE
  5
9B
102
{ACAD_REACTORS
330
99
102
}
330
99
100
AcDbVisualStyle
  2
FlatWithEdges
 70
     1
 71
     2
 72
     1
 73
     1
 90
        2
 40
-0.6
 41
30.0
 62
     5
 63
     7
421
 16777215
 74
     1
 91
        4
 64
     7
 65
   257
 75
     1
175
     1
 42
1.0
 92
        0
 66
   257
 43
1.0
 76
     1
 77
     6
 78
     2
 67
     7
 79
     5
170
     0
171
     0
290
     0
174
     0
 93
        1
 44
0.0
173
     0
291
     1
 45
0.0
  0
VISUALSTYLE
  5
9C
102
{ACAD_REACTORS
330
99
102
}
330
99
100
AcDbVisualStyle
  2
Gouraud
 70
     2
 71
     2
 72
     2
 73
     1
 90
        2
 40
-0.6
 41
30.0
 62
     5
 63
     7
421
 16777215
 74
     0
 91
        4
 64
     7
 65
   257
 75
     1
175
     1
 42
1.0
 92
        0
 66
     7
 43
1.0
 76
     1
 77
     6
 78
     2
 67
     7
 79
     5
170
     0
171
     0
290
     0
174
     0
 93
        1
 44
0.0
173
     0
291
     1
 45
0.0
  0
VISUALSTYLE
  5
9D
102
{ACAD_REACTORS
330
99
102
}
330
99
100
AcDbVisualStyle
  2
GouraudWithEdges
 70
     3
 71
     2
 72
     2
 73
     1
 90
        2
 40
-0.6
 41
30.0
 62
     5
 63
     7
421
 16777215
 74
     1
 91
        4
 64
     7
 65
   257
 75
     1
175
     1
 42
1.0
 92
        0
 66
   257
 43
1.0
 76
     1
 77
     6
 78
     2
 67
     7
 79
     5
170
     0
171
     0
290
     0
174
     0
 93
        1
 44
0.0
173
     0
291
     1
 45
0.0
  0
VISUALSTYLE
  5
A7
102
{ACAD_REACTORS
330
99
102
}
330
99
100
AcDbVisualStyle
  2
Linepattern
 70
    14
 71
     2
 72
     2
 73
     1
 90
        0
 40
-0.6
 41
-30.0
 62
     5
 63
     7
421
 16777215
 74
     1
 91
        4
 64
     7
 65
   257
 75
     7
175
     7
 42
1.0
 92
        8
 66
     7
 43
1.0
 76
     1
 77
     6
 78
     2
 67
     7
 79
     5
170
     0
171
     0
290
     0
174
     0
 93
        1
 44
0.0
173
     0
291
     1
 45
0.0
  0
VISUALSTYLE
  5
A3
102
{ACAD_REACTORS
330
99
102
}
330
99
100
AcDbVisualStyle
  2
Realistic
 70
     8
 71
     2
 72
     2
 73
     1
 90
        0
 40
-0.6
 41
-30.0
 62
     5
 63
     7
421
 16777215
 74
     1
 91
        0
 64
     7
 65
   257
 75
     1
175
     1
 42
1.0
 92
        8
 66
     8
424
  7895160
 43
1.0
 76
     1
 77
     6
 78
     2
 67
     7
 79
     5
170
     0
171
     0
290
     0
174
     0
 93
       13
 44
0.0
173
     0
291
     0
 45
0.0
  0
VISUALSTYLE
  5
A6
102
{ACAD_REACTORS
330
99
102
}
330
99
100
AcDbVisualStyle
  2
Thicken
 70
    13
 71
     2
 72
     2
 73
     1
 90
        0
 40
-0.6
 41
-30.0
 62
     5
 63
     7
421
 16777215
 74
     1
 91
        4
 64
     7
 65
   257
 75
     1
175
     1
 42
1.0
 92
       12
 66
     7
 43
1.0
 76
     1
 77
     6
 78
     2
 67
     7
 79
     5
170
     0
171
     0
290
     0
174
     0
 93
        1
 44
0.0
173
     0
291
     1
 45
0.0
  0
DICTIONARYVAR
  5
89
102
{ACAD_REACTORS
330
66
102
}
330
66
100
DictionaryVariables
280
     0
  1
STANDARD
  0
DICTIONARYVAR
  5
67
102
{ACAD_REACTORS
330
66
102
}
330
66
100
DictionaryVariables
280
     0
  1
2
  0
DICTIONARYVAR
  5
6B
102
{ACAD_REACTORS
330
66
102
}
330
66
100
DictionaryVariables
280
     0
  1
1
  0
XRECORD
  5
2050
102
{ACAD_REACTORS
330
D3
102
}
330
D3
100
AcDbXrecord
280
     1
 91
      495
301

290
     0
302
0
  8
center
 90
        8
 62
     1
370
    13
331
2035
  1
色_1
  8
dimention
 90
        8
 62
     5
370
    13
331
16
  1
色_5
  8
visible2
 90
        8
 62
     7
370
    13
331
16
  1
色_7
  8
visible1
 90
        8
 62
     7
370
    20
331
16
  1
色_7
  8
Defpoints
 90
        0
 62
     7
370
    -3
331
16
  1
色_7
  8
0
 90
        8
 62
     7
370
    -3
331
16
  1
色_7
  0
DICTIONARY
  5
17E
330
59
100
AcDbDictionary
280
     1
281
     1
  3
ADSK_XREC_LAYOUTTHUMBNAIL
360
17F
  0
XRECORD
  5
17F
102
{ACAD_REACTORS
330
17E
102
}
330
17E
100
AcDbXrecord
280
     1
310
28000000B40000007F00000001000800000000004C59000000000000000000000001000000000000FFFFFF0000000000FFFFFF000000000000000000000000000000000000000000000000000000000000000000330000006600000099000000CC000000FF00000000330000333300006633000099330000CC330000FF3300
310
0000660000336600006666000099660000CC660000FF66000000990000339900006699000099990000CC990000FF99000000CC000033CC000066CC000099CC0000CCCC0000FFCC000000FF000033FF000066FF000099FF0000CCFF0000FFFF000000003300330033006600330099003300CC003300FF003300003333003333
310
33006633330099333300CC333300FF33330000663300336633006666330099663300CC663300FF66330000993300339933006699330099993300CC993300FF99330000CC330033CC330066CC330099CC3300CCCC3300FFCC330000FF330033FF330066FF330099FF3300CCFF3300FFFF330000006600330066006600660099
310
006600CC006600FF00660000336600333366006633660099336600CC336600FF33660000666600336666006666660099666600CC666600FF66660000996600339966006699660099996600CC996600FF99660000CC660033CC660066CC660099CC6600CCCC6600FFCC660000FF660033FF660066FF660099FF6600CCFF6600
310
FFFF660000009900330099006600990099009900CC009900FF00990000339900333399006633990099339900CC339900FF33990000669900336699006666990099669900CC669900FF66990000999900339999006699990099999900CC999900FF99990000CC990033CC990066CC990099CC9900CCCC9900FFCC990000FF99
310
0033FF990066FF990099FF9900CCFF9900FFFF99000000CC003300CC006600CC009900CC00CC00CC00FF00CC000033CC003333CC006633CC009933CC00CC33CC00FF33CC000066CC003366CC006666CC009966CC00CC66CC00FF66CC000099CC003399CC006699CC009999CC00CC99CC00FF99CC0000CCCC0033CCCC0066CC
310
CC0099CCCC00CCCCCC00FFCCCC0000FFCC0033FFCC0066FFCC0099FFCC00CCFFCC00FFFFCC000000FF003300FF006600FF009900FF00CC00FF00FF00FF000033FF003333FF006633FF009933FF00CC33FF00FF33FF000066FF003366FF006666FF009966FF00CC66FF00FF66FF000099FF003399FF006699FF009999FF00CC
310
99FF00FF99FF0000CCFF0033CCFF0066CCFF0099CCFF00CCCCFF00FFCCFF0000FFFF0033FFFF0066FFFF0099FFFF00CCFFFF00FFFFFF00000000000D0D0D001A1A1A00282828003535350043434300505050005D5D5D006B6B6B00787878008686860093939300A1A1A100AEAEAE00BBBBBB00C9C9C900D6D6D600E4E4E400
310
F1F1F100FFFFFF0000000000000000000000000000000000000000000000000000000000000000000000000000000000E2E2E2E2E2E2E2E2E2E2E2E2E2E2E2E2E2E2E2E2E2E2E2E2E2E2E2E2E2E2E2E2E2E2E2E2E2E2E2E2E2E2E2E2E2E2E2E2E2E2E2E2E2E2E2E2E2E2E2E2E2E2E2E2E2E2E2E2E2E2E2E2E2E2E2E2E2E2E2
310
E2E2E2E2E2E2E2E2E2E2E2E2E2E2E2E2E2E2E2E2E2E2E2E2E2E2E2E2E2E2E2E2E2E2E2E2E2E2E2E2E2E2E2E2E2E2E2E2E2E2E2E2E2E2E2E2E2E2E2E2E2E2E2E2E2E2E2E2E2E2E2E2E2E2E2E2E2E2E2E2E2E2E2E2E2E2E2E2E2E2E2E2E2E2E2E2E2E2E2E2E2E2F5F5F5F5F5F5F5F5F5F5F5F5F5F5F5F5F5F5F5F5F5F5F5F5F5
310
F5F5F5F5F5F5F5F5F5F5F5F5F5F5F5F5F5F5F5F5F5F5F5F5F5F5F5F5F5F5F5F5F5F5F5F5F5F5F5F5F5F5F5F5F5F5F5F5F5F5F5F5F5F5F5F5F5F5F5F5F5F5F5F5F5F5F5F5F5F5F5F5F5F5F5F5F5F5F5F5F5F5F5F5F5F5F5F5F5F5F5F5F5F5F5F5F5F5F5F5F5F5F5F5F5F5F5F5F5F5F5F5F5F5F5F5F5F5F5F5F5F5F5F5F5F5F5
310
F5F5F5F5F5F5F5F5F5F5F5F5F5F5F5F5F5F5F5F5F5F5F5F5F5E2E2E2F5E2E2E2E2E2E2E2E2F5F5F5F5F5F5F5F5F5E2E2E2E2E2E2E2E2E2E2E2E2E2E2E2E2F5F5F5F5F5F5F5F5F5E2E2E2E2E2E2E2E2E2E2E2E2E2E2E2E2F5F5F5F5F5F5F5F5F5E2E2E2E2E2E2E2E2E2E2E2E2E2E2E2E2F5F5F5F5F5F5F5F5F5E2E2E2E2E2E2
310
E2E2E2E2E2E2E2E2E2E2F5F5F5F5F5F5F5F5F5E2E2E2E2E2E2E2E2E2E2E2E2E2E2E2E2F5F5F5F5F5F5F5F5F5E2E2E2E2E2E2E2E2E2E2E2E2E2E2E2E2F5F5F5F5F5F5F5F5F5E2E2E2E2E2E2E2E2F5E2E2E2F5E2F5F5F5F5F5F5F5F5F5F5F5F5F5F5F5F5F5F5F5F5F5F5F5F5F5F5F5F5F5F5F5F5F5F5F5F5F5F5F5F5F5F5F5F5
310
F5F5F5F5F5F5F5F5F5F5F5F5F5F5F5F5F5F5F5F5F5F5F5F5F5F5F5F5F5F5F5F5F5F5F5F5F5F5F5F5F5F5F5F5F5F5F5F5F5F5F5F5F5F5F5F5F5F5F5F5F5F5F5F5F5F5F5F5F5F5F5F5F5F5F5F5F5F5F5F5F5F5F5F5F5F5F5F5F5F5F5F5F5F5F5F5F5F5F5F5F5F5F5F5F5F5F5F5F5F5F5F5F5F5F5F5F5F5F5F5F5F5F5F5F5F5F5
310
F5F5E2F5E2E2E2F5E2F5F5F5F5F5F5F5F5F5F5F5F5F5F5F5F5F5F5F5F5F5F5F5F5F5F5F5F5F5F5F5F5F5F5F5F5F5F5F5F5F5F5F5F5F5F5F5F5F5F5F5F5F5F5F5F5F5F5F5F5F5F5F5F5F5F5F5F5F5F5F5F5F5F5F5F5F5F5F5F5F5F5F5F5F5F5F5F5F5F5F5F5F5F5F5F5F5F5F5F5F5F5F5F5F5F5F5F5F5F5F5F5F5F5F5F5F5F5
310
F5F5F5F5F5F5F5F5F5F5F5F5F5F5F5F5F5F5F5F5F5F5F5F5F5F5F5F5F5F5F5F5F5F5F5F5F5F5F5F5F5F5F5F5F5F5F5F5F5F5F5F5F5F5F5E2F5E2E2E2F5E2F5F5F5F5F5F5F5F5F5F5F5F5F5F5F5F5F5F5F5F5F5F5F5F5F5F5F5F5F5F5F5F5F5F5F5F5F5F5F5F5F5F5F5F5F5F5F5F5F5F5F5F5F5F5F5F5F5F5F5F5F5F5F5F5F5
310
F5F5F5F5F5F5F5F5F5F5F5F5F5F5F5F5F5F5F5F5F5F5F5F5F5F5F5F5F5F5F5F5F5F5F5F5F5F5F5F5F5F5F5F5F5F5F5F5F5F5F5F5F5F5F5F5F5F5F5F5F5F5F5F5F5F5F5F5F5F5F5F5F5F5F5F5F5F5F5F5F5F5F5F5F5F5F5F5F5F5F5F5F5F5F5F5F5F5F5F5F5F5F5F5F5F5F5F5E2F5E2E2E2F5E2F5F5F5F5F5F5F5F5F5F5F5F5
310
F5F5F5F5F5F5F5E2E2F5F5F5F5F5F5F5F5F5F5F5F5E2F5F5F5F5F5F5F5F5F5F5F5F5E2E2F5F5F5F5F5F5F5F5F5F5F5E2F5F5F5F5F5F5F5F5F5F5F5F5E2E2F5F5F5F5F5F5F5F5F5F5F5F5E2F5F5F5F5F5F5F5F5F5F5F5F5E2E2F5F5F5F5F5F5F5F5F5F5F5F5E2F5F5F5F5F5F5F5F5F5F5F5E2E2F5F5F5F5F5F5F5F5F5F5F5F5
310
E2F5F5F5F5F5F5F5F5F5F5F5F5E2E2F5F5F5F5F5F5F5F5F5F5F5F5F5F5F5F5F5F5F5E2F5E2E2E2F5E2F5F5F5F5F5F5F5F5F5F5F5F5F5F5F5F5F5F5F5E2E2F5F5F5F5F5F5F5F5F5F5F5F5E2F5F5F5F5F5F5F5F5F5F5F5F5E2E2F5F5F5F5F5F5F5F5F5F5F5E2F5F5F5F5F5F5F5F5F5F5F5F5E2E2F5F5F5F5F5F5F5F5F5F5F5F5
310
E2F5F5F5F5F5F5F5F5F5F5F5F5E2E2F5F5F5F5F5F5F5F5F5F5F5F5E2F5F5F5F5F5F5F5F5F5F5F5E2E2F5F5F5F5F5F5F5F5F5F5F5F5E2F5F5F5F5F5F5F5F5F5F5F5F5E2E2F5F5F5F5F5F5F5F5F5F5F5F5F5F5F5F5F5F5F5E2F5E2E2E2F5E2F5F5F5F5F5F5F5F5F5F5F5F5F5F5F5F5F5F5F5E2E2F5F5F5F5F5F5F5F5F5F5F5F5
310
E2F5F5F5F5F5F5F5F5F5F5F5F5E2E2F5F5F5F5F5F5F5F5F5F5F5E2F5F5F5F5F5F5F5F5F5F5F5F5E2E2F5F5F5F5F5F5F5F5F5F5F5F5E2F5F5F5F5F5F5F5F5F5F5F5F5E2E2F5F5F5F5F5F5F5F5F5F5F5F5E2F5F5F5F5F5F5F5F5F5F5F5E2E2F5F5F5F5F5F5F5F5F5F5F5F5E2F5F5F5F5F5F5F5F5F5F5F5F5E2E2F5F5F5F5F5F5
310
F5F5F5F5F5F5F5F5F5F5F5F5F5E2F5E2E2E2F5E2F5F5F5F5F5F5E2E2E2E2E2E2E2E2E2E2E2E2E2E2E2E2E2E2E2E2E2E2E2E2E2E2E2E2E2E2E2E2E2E2E2E2E2E2E2E2E2E2E2E2E2E2E2E2E2E2E2E2E2E2E2E2E2E2E2E2E2E2E2E2E2E2E2E2E2E2E2E2E2E2E2E2E2E2E2E2E2E2E2E2E2E2E2E2E2E2E2E2E2E2E2E2E2E2E2E2E2
310
E2E2E2E2E2E2E2E2E2E2E2E2E2E2E2E2E2E2E2E2E2E2E2E2E2E2E2E2E2E2E2E2E2E2E2E2E2E2E2E2E2E2E2E2E2E2E2E2E2E2E2E2E2E2E2E2E2E2E2E2F5F5F5F5F5F5E2F5E2E2E2F5F5F5F5F5F5F5F5E2F5F5F5F5F5F5F5F5F5F5F5F5F5F5F5F5F5F5F5F5F5F5F5F5F5F5F5F5F5F5F5F5F5F5F5F5F5F5F5F5F5F5F5F5F5F5F5
310
F5F5F5F5F5F5F5F5F5F5F5F5F5F5F5F5F5F5F5F5F5F5F5F5F5F5F5F5F5F5F5F5F5F5F5F5F5F5F5F5F5F5F5F5F5F5F5F5F5F5F5F5E2F5F5F5F5F5F5F5F5F5F5F5F5F5F5F5F5F5E2F5F5F5F5F5F5F5F5F5F5F5F5F5F5F5F5F5F5F5F5F5F5F5F5F5F5F5F5F5F5F5F5F5F5F5F5F5F5F5F5F5E2F5F5F5F5F5F5F5F5E2E2E2F5F5F5
310
F5F5F5F5F5E2F5F5F5F5F5F5F5F5F5F5F5F5F5F5F5F5F5F5F5F5F5F5F5F5F5F5F5F5F5F5F5F5F5F5F5F5F5F5F5F5F5F5F5F5F5F5F5F5F5F5F5F5F5F5F5F5F5F5F5F5F5F5F5F5F5F5F5F5F5F5F5F5F5F5F5F5F5F5F5F5F5F5F5F5F5F5F5F5F5F5F5F5F5F5F5F5F5F5F5E2F5F5F5F5F5F5F5F5F5F5F5F5F5F5F5F5F5E2F5F5F5
310
F5F5F5E2E2E2E2E2E2E2E2E2E2E2E2F5F5F5F5F5F5F5F5F5F5F5F5F5F5F5F5F5F5F5F5F5F5F5E2F5F5F5F5F5F5F5F5E2E2E2F5F5F5F5F5F5F5F5E2F5F5F5F5F5F5F5F5F5F5F5F5F5F5F5F5F5F5F5F5F5F5F5F5F5F5F5F5F5F5F5F5F5F5F5F5F5F5F5F5F5F5F5F5F5F5F5F5F5F5F5F5F5F5F5F5F5F5F5F5F5F5F5F5F5F5F5F5
310
F5F5F5F5F5F5F5F5F5F5F5F5F5F5F5F5F5F5F5F5F5F5F5F5F5F5F5F5F5F5F5E2E2E2E2E2E2E2E2E2E2E2E2E2E2E2E2E2E2E2F5F5F5F5F5F5E2E2E2E2E2E2E2E2E2E2E2E2E2E2E2E2E2E2E2E2E2E2E2E2E2E2E2F5F5F5F5F5F5F5F5E2F5F5F5F5F5F5F5F5E2E2E2F5F5F5F5F5F5F5F5E2F5F5F5F5F5F5F5F5F5F5F5F5F5F5F5
310
F5F5F5F5F5F5F5F5F5F5F5F5F5F5F5F5F5F5F5F5F5F5F5F5F5F5F5F5F5F5F5F5F5F5F5F5F5F5F5F5F5F5F5F5F5F5F5F5F5F5F5F5F5F5F5F5F5F5F5F5F5F5F5F5F5F5F5F5F5F5F5F5F5F5F5F5F5F5F5F5F5F5F5F5E2F5F5F5F5F5F5F5F5F5F5F5F5F5F5F5F5F5E2F5F5F5F5F5F5E2E2E2E2E2E2E2E2E2E2E2E2E2E2E2E2E2E2
310
E2E2E2E2E2E2E2E2E2F5F5F5F5F5F5F5F5E2F5F5F5F5F5F5F5F5E2E2E2F5F5F5F5F5F5F5F5E2F5F5F5F5F5F5F5F5F5F5F5F5F5F5F5F5F5F5F5F5F5F5F5F5F5F5F5F5F5F5F5F5F5F5F5F5F5F5F5F5F5F5F5F5F5F5F5F5F5F5F5F5F5F5F5F5F5F5F5F5F5F5F5F5F5F5F5F5F5F5F5F5F5F5F5F5F5F5F5F5F5F5F5F5F5F5F5F5F5
310
F5F5F5F5F5F5F5F5F5F5E2F5F5F5F5F5F5F5F5F5F5F5F5F5F5F5F5F5E2F5F5F5F5F5F5E2E2E2E2E2E2E2E2E2E2E2E2E2E2E2E2E2E2E2E2E2E2E2E2E2E2E2F5F5F5F5F5F5F5F5E2F5F5F5F5F5F5F5F5E2E2E2F5F5F5F5F5F5F5F5E2F5F5F5F5F5F5F5F5F5F5F5F5F5F5F5F5F5F5F5F5F5F5F5F5F5F5F5F5F5F5F5F5F5F5F5F5
310
F5F5F5F5F5F5F5F5F5F5F5F5F5F5F5F5F5F5F5F5F5F5F5F5F5F5F5F5F5F5F5F5F5F5F5F5F5F5F5F5F5F5F5F5F5F5F5F5F5F5F5F5F5F5F5F5F5F5F5F5F5F5F5E2E2E2E2E2E2E2E2E2E2E2E2E2E2E2E2E2E2E2F5F5F5F5F5F5E2E2E2E2E2E2E2E2E2E2E2E2E2E2E2E2E2E2E2E2E2E2E2E2E2E2E2F5F5F5F5F5F5F5F5E2F5F5F5
310
F5F5F5F5F5E2E2E2F5F5F5F5F5F5F5F5E2F5F5F5F5F5F5F5F5F5F5F5F5F5F5F5F5F5F5F5F5F5F5F5F5F5F5F5F5F5F5F5F5F5F5F5F5F5F5F5F5F5F5F5F5F5F5F5F5F5F5F5F5F5F5F5F5F5F5F5F5F5F5F5F5F5F5F5F5F5F5F5F5F5F5F5F5F5F5F5F5F5F5F5F5F5F5F5F5F5F5F5F5F5F5F5F5F5F5F5E2F5F5F5F5F5F5F5F5F5F5
310
F5F5F5F5F5F5F5E2F5F5F5F5F5F5E2E2E2E2E2E2E2E2E2E2F5F5F5F5F5F5F5F5F5F5F5F5F5F5F5F5F5F5F5F5F5F5F5F5F5E2F5F5F5F5F5F5F5F5E2E2E2F5F5F5F5F5F5F5F5E2F5F5F5F5F5F5F5F5F5F5F5F5F5F5F5F5F5F5F5F5F5F5F5F5F5F5F5F5F5F5F5F5F5F5F5F5F5F5F5F5F5F5F5F5F5F5F5F5F5F5F5F5F5F5F5F5F5
310
F5F5F5F5F5F5F5F5F5F5F5F5F5F5F5F5F5F5F5F5F5F5F5F5F5F5F5F5F5F5F5F5F5F5F5F5F5F5F5F5F5F5E2F5F5F5F5F5F5F5F5F5F5F5F5F5F5F5F5F5E2E2E2F5F5F5F5F5F5F5F5F5F5F5F5F5F5F5F5F5F5F5F5F5F5F5F5F5F5F5F5F5F5F5F5F5F5F5F5F5F5F5E2F5F5F5F5F5F5F5F5E2E2E2F5F5F5F5F5F5F5F5E2F5F5F5F5
310
F5F5F5F5F5F5F5F5F5F5F5F5F5F5F5F5F5F5F5F5F5F5F5F5F5F5F5F5F5F5F5F5F5F5F5F5F5F5F5F5F5F5F5F5F5F5F5F5F5F5F5F5F5F5F5F5F5F5F5F5F5F5F5F5F5F5F5F5F5F5F5F5F5F5F5F5F5F5F5F5F5F5F5F5F5F5F5F5F5F5F5F5F5F5F5E2E2E2E2E2E2E2E2E2E2E2E2E2E2E2E2E2E2E2E2E2E2E2E2E2E2E2E2E2E2E2E2
310
E2E2E2E2E2E2E2E2E2E2E2E2E2E2E2E2E2E2E2E2E2E2E2E2E2E2E2E2E2F5F5F5F5F5F5F5F5E2E2E2F5E2F5F5F5F5F5F5E2F5F5F5F5F5F5F5F5F5F5F5F5F5F5F5F5F5F5F5F5F5F5F5F5F5F5F5F5F5F5F5F5F5F5F5F5F5F5F5F5F5F5F5F5F5F5F5F5F5F5F5F5F5F5F5F5F5F5F5F5F5F5F5F5F5F5F5F5F5F5F5F5F5F5F5F5F5F5
310
F5F5F5F5F5F5F5F5F5F5F5F5F5F5F5F5F5F5F5F5F5E2F5F5F5F5E2E2E2E2E2E2E2E2F5F5F5F5F5E2F5F5F5F5F5F5F5F5F5F5F5F5F5F5F5F5F5F5F5F5F5F5F5F5F5F5F5F5F5F5F5F5F5F5F5F5F5F5F5F5F5E2F5F5F5F5F5F5E2F5E2E2E2F5E2F5F5F5F5F5F5E2F5F5F5F5F5F5F5F5F5F5F5F5F5F5F5F5F5F5F5F5F5F5F5F5F5
310
F5F5F5F5F5F5F5F5F5F5F5F5F5F5F5F5F5F5F5F5F5F5F5F5F5F5F5F5F5F5F5F5F5F5F5F5F5F5F5F5F5F5F5F5F5F5F5F5F5F5F5F5F5F5F5F5F5F5F5F5F5F5F5F5F5F5F5F5F5F5F5F5F5F5E2E2E2F5F5F5F5F5F5F5F5F5F5F5F5F5F5F5E2E2E2E2E2E2E2E2E2E2E2E2E2E2E2E2E2E2E2E2E2E2E2E2E2E2E2E2E2E2E2E2E2E2E2
310
E2E2E2F5F5F5F5E2F5F5F5F5F5F5E2F5E2E2E2F5E2F5F5F5F5E2E2E2F5F5F5F5F5F5F5F5F5F5F5F5F5F5F5F5F5F5F5F5F5F5F5F5F5F5F5F5F5F5F5F5F5F5F5F5F5F5F5F5F5F5F5F5F5F5F5F5F5F5F5F5F5F5F5F5F5F5F5F5F5F5F5F5F5F5F5F5F5F5F5F5F5F5F5F5F5F5F5F5F5F5F5F5F5F5F5F5F5F5F5F5F5F5F5F5F5F5F5
310
E2E2E2E2E2E2E2E2E2E2E2E2E2E2E2E2E2E2E2E2E2E2E2E2E2E2E2E2E2E2E2E2E2E2E2E2E2E2E2E2E2E2E2E2E2E2E2E2E2E2E2E2E2E2E2E2F5F5F5F5E2E2E2F5F5F5F5E2F5E2E2E2F5E2F5F5F5F5E2E2E2F5F5F5F5F5F5F5F5F5F5F5F5F5F5F5F5F5F5F5F5F5F5F5F5F5F5F5F5F5F5F5F5F5F5F5F5F5F5F5F5F5F5F5F5F5F5
310
F5F5F5F5F5F5F5F5F5F5F5F5F5F5F5F5F5F5F5F5F5F5F5F5F5F5F5F5F5F5F5F5F5F5F5F5F5F5F5F5F5F5F5F5F5F5F5F5F5F5F5F5F5E2F5F5F5F5F5E2E2E2E2E2E2F5F5F5F5F5F5E2F5F5F5F5F5F5F5F5F5F5F5F5F5F5F5F5F5F5F5F5F5F5F5F5F5F5F5F5F5F5F5F5F5F5F5F5F5F5F5F5F5E2E2E2F5F5F5F5E2F5E2E2E2F5E2
310
F5F5F5F5E2E2E2F5F5F5F5F5F5F5F5F5F5F5F5F5F5F5F5F5F5F5F5F5F5F5F5F5F5F5F5F5F5F5F5F5F5F5F5F5F5F5F5F5F5F5F5F5F5F5F5F5F5F5F5F5F5F5F5F5F5F5F5F5F5F5F5F5F5F5F5F5F5F5F5F5F5F5F5F5F5F5F5F5F5F5F5F5F5F5F5F5F5F5F5F5F5F5F5F5F5F5E2E2E2F5F5F5E2E2E2E2E2E2F5F5F5F5F5F5E2E2E2
310
F5F5F5F5F5F5F5F5F5F5F5F5F5F5F5F5F5F5F5F5F5F5F5F5F5F5F5F5F5F5F5F5F5F5F5F5F5F5F5E2E2E2F5F5F5F5E2F5E2E2E2F5E2F5F5F5F5F5F5E2F5F5F5F5F5F5F5F5F5F5F5F5F5F5F5F5F5F5F5F5F5F5F5F5F5F5F5F5F5F5F5F5F5F5F5F5F5F5F5F5F5F5F5F5F5F5F5F5F5F5F5F5F5F5F5F5F5F5F5F5F5F5F5F5F5F5F5
310
F5F5F5F5F5F5F5F5F5F5F5F5F5F5F5F5F5F5F5F5F5F5F5F5F5F5F5F5F5F5F5F5E2E2E2E2E2E2E2E2E2E2E2E2E2E2E2E2E2E2E2E2E2E2E2E2E2E2E2E2E2E2E2E2E2E2E2E2E2E2E2E2E2E2E2E2E2E2E2E2E2E2E2E2E2E2E2E2E2E2E2E2E2F5F5F5F5F5F5E2F5E2E2E2F5E2F5F5F5F5F5F5E2F5F5F5F5F5F5F5F5F5F5F5F5F5F5
310
F5F5F5F5F5F5F5F5F5F5F5F5F5F5F5F5F5F5F5F5F5F5F5F5F5F5F5F5F5F5F5F5F5F5F5F5F5F5F5F5F5F5F5F5F5F5F5F5F5F5F5F5F5F5F5F5F5F5F5F5F5F5F5F5F5F5F5F5F5F5F5F5F5F5F5F5F5F5F5F5F5F5F5F5F5E2F5F5F5F5F5E2F5F5F5F5F5F5F5F5F5F5F5E2F5F5F5F5F5F5F5F5F5F5F5F5F5F5F5F5F5F5F5F5F5F5F5
310
F5F5F5F5F5F5F5F5F5F5F5F5F5F5F5F5F5F5E2F5F5F5F5F5F5E2F5E2E2E2F5E2F5F5F5F5F5F5E2F5F5F5F5F5F5F5F5F5F5F5F5F5F5F5F5F5F5F5F5F5F5F5F5F5F5F5F5F5F5F5F5F5F5F5F5F5F5F5F5F5F5F5F5F5F5F5F5F5F5F5F5F5F5F5F5F5F5F5F5F5F5F5F5F5F5F5F5F5F5F5F5F5F5F5F5F5F5F5F5F5F5F5F5F5F5F5F5
310
F5F5F5F5F5F5F5F5F5F5F5E2F5F5F5E2E2E2E2F5E2E2E2E2E2F5F5F5F5E2E2E2E2E2E2E2E2E2E2E2E2E2E2E2E2E2E2E2E2E2E2E2E2E2E2E2E2E2E2E2E2E2E2E2E2E2F5F5F5F5F5E2F5F5F5F5F5F5E2F5E2E2E2F5E2F5F5F5F5F5F5E2F5F5F5F5F5F5F5F5F5F5F5F5F5F5F5F5F5F5F5F5F5F5F5F5F5F5F5F5F5F5F5F5F5F5F5
310
F5F5F5F5F5F5F5F5F5F5F5F5F5F5F5F5F5F5F5F5F5F5F5F5F5F5F5F5F5F5F5F5F5F5F5F5F5F5F5F5F5F5F5F5F5F5F5F5F5F5F5F5F5F5F5F5F5F5F5F5F5F5F5F5E2F5F5F5E2E2E2E2E2E2E2E2E2E2E2F5F5F5E2E2E2E2E2E2E2E2E2E2E2E2E2E2E2E2E2E2E2E2E2E2E2E2E2E2E2E2E2E2E2E2E2E2E2E2E2F5F5F5F5F5E2F5F5
310
F5F5F5F5E2F5E2E2E2F5E2F5F5F5F5F5F5E2F5F5F5F5F5F5F5F5F5F5F5F5F5F5F5F5F5F5F5F5F5F5F5F5F5F5F5F5F5F5F5F5F5F5F5F5F5F5F5F5F5F5F5F5F5F5F5F5F5F5F5F5F5F5F5F5F5F5F5F5F5F5F5F5F5F5F5F5F5F5F5F5F5F5F5F5F5F5F5F5F5F5F5F5F5F5F5F5F5F5F5F5F5F5F5F5F5F5F5E2F5F5F5E2E2E2E2E2E2
310
E2F5F5E2F5F5F5F5E2F5F5F5F5F5F5F5F5F5F5F5F5F5F5F5F5F5F5F5F5F5F5F5F5F5F5F5F5F5F5F5F5F5F5F5F5F5F5F5F5F5E2F5F5F5F5F5F5E2F5E2E2E2F5E2F5F5F5F5F5F5E2F5F5F5F5F5F5F5F5F5F5F5F5F5F5F5F5F5F5F5F5F5F5F5F5F5F5F5F5F5F5F5F5F5F5F5F5F5F5F5F5F5F5F5F5F5F5F5F5F5F5F5F5F5F5F5F5
310
F5F5F5F5F5F5F5F5F5F5F5F5F5F5F5F5F5F5F5F5F5F5F5F5F5F5F5F5F5F5F5F5F5F5F5F5F5F5F5F5F5F5F5E2E2E2F5F5E2E2E2F5F5F5E2E2E2F5F5F5F5E2E2E2F5F5F5F5F5F5F5F5F5F5F5F5F5F5F5F5F5F5F5F5F5F5F5F5F5F5F5F5F5F5F5F5F5F5F5F5F5F5F5E2F5F5F5F5F5F5E2F5E2E2E2F5E2F5F5F5F5F5F5E2F5F5F5
310
F5F5F5F5F5F5F5F5F5F5F5F5F5F5F5F5F5F5F5F5F5F5F5F5F5F5F5F5F5F5F5F5F5F5F5F5F5F5F5F5F5F5F5F5F5F5F5F5F5F5F5F5F5F5F5F5F5F5F5F5F5F5F5F5F5F5F5F5F5F5F5F5F5F5F5F5F5F5F5F5F5F5F5F5F5F5F5F5F5F5F5F5F5F5F5F5E2E2E2E2E2E2E2E2E2E2E2E2E2E2E2E2E2E2E2E2E2E2E2E2E2E2E2E2E2E2E2
310
E2E2E2E2E2E2E2E2E2E2E2E2E2E2E2E2E2E2E2E2E2E2E2E2E2E2E2E2E2E2F5F5F5F5F5F5E2F5E2E2E2F5E2F5F5F5F5F5F5E2F5F5F5F5F5F5F5F5F5F5F5F5F5F5F5F5F5F5F5F5F5F5F5F5F5F5F5F5F5F5F5F5F5F5F5F5F5F5F5F5F5F5F5F5F5F5F5F5F5F5F5F5F5F5F5F5F5F5F5F5F5F5F5F5F5F5F5F5F5F5F5F5F5F5F5F5F5
310
F5F5F5F5F5F5F5F5F5F5F5F5F5F5F5F5F5F5F5F5F5F5F5F5F5F5F5F5F5F5F5F5F5F5F5F5F5F5F5F5F5F5F5F5F5F5F5F5F5F5F5F5F5F5F5F5F5F5F5F5F5F5F5F5F5F5F5F5F5F5F5F5F5F5F5F5F5F5F5F5F5F5E2F5F5F5F5F5F5E2F5E2E2E2F5E2F5F5F5F5F5F5E2F5F5F5F5F5F5F5F5F5F5F5F5F5F5F5F5F5F5F5F5F5F5F5F5
310
F5F5F5F5F5F5F5F5F5F5F5F5F5F5F5F5F5F5F5F5F5F5F5F5F5F5F5F5F5F5F5F5F5F5F5F5F5F5F5F5F5F5F5F5F5F5F5F5F5F5F5F5F5F5F5F5F5F5F5F5F5F5F5F5F5F5F5F5F5F5F5F5F5F5F5F5F5F5F5F5F5F5F5F5F5F5F5F5F5F5F5F5F5F5F5F5F5F5F5F5F5F5F5F5F5F5F5F5F5F5F5F5F5F5F5F5F5F5F5F5F5F5F5F5F5F5F5
310
F5F5F5F5F5F5F5F5E2F5F5F5F5F5F5E2F5E2E2E2F5E2F5F5F5F5F5F5E2F5F5F5F5F5F5F5F5F5F5F5F5F5F5F5F5F5F5F5F5F5F5F5F5F5F5F5F5F5F5F5F5F5F5F5F5F5F5F5F5F5F5F5F5F5F5F5F5F5F5F5F5F5F5F5F5F5F5F5F5F5F5F5F5F5F5F5F5F5F5F5F5F5F5F5F5F5F5F5F5F5F5F5F5F5F5F5F5F5F5F5F5F5F5F5F5F5F5
310
F5F5F5F5F5F5F5F5F5F5F5F5F5F5F5F5F5F5F5F5F5F5F5F5F5F5F5F5F5F5F5F5F5F5F5F5F5F5F5F5F5F5F5F5F5F5F5F5F5F5F5F5F5F5F5F5F5F5F5F5F5E2F5F5F5F5F5F5E2F5E2E2E2F5E2F5F5F5F5F5F5E2F5F5F5F5F5F5F5F5F5F5F5F5F5F5F5F5F5F5F5F5F5F5F5F5F5F5F5F5F5F5F5F5F5F5F5F5F5F5F5F5F5F5F5F5F5
310
F5F5F5F5F5F5F5F5F5F5F5F5F5F5F5F5F5F5F5F5F5F5F5F5F5F5F5F5F5F5F5F5F5F5F5F5F5F5F5F5F5F5F5F5F5F5F5F5F5F5F5F5F5F5F5F5F5F5F5F5F5F5F5F5F5F5F5F5F5F5F5F5F5F5F5F5F5F5F5F5F5F5F5F5F5F5F5F5F5F5F5F5F5F5F5F5F5F5F5F5F5F5F5F5F5F5F5F5F5F5F5F5F5F5E2F5F5F5F5F5F5E2F5E2E2E2F5
310
F5F5F5F5F5F5F5E2F5F5F5F5F5F5F5F5F5F5F5F5F5F5F5F5F5F5F5F5F5F5F5F5F5F5F5F5F5F5F5F5F5F5F5F5F5F5F5F5F5F5F5F5F5F5F5F5F5F5F5F5F5F5F5F5F5F5F5F5F5F5F5F5F5F5F5F5F5F5F5F5F5F5F5F5F5F5F5F5F5F5F5F5F5F5F5F5F5F5F5F5F5F5F5F5F5F5F5F5F5F5F5F5F5F5F5F5F5F5F5F5F5F5F5F5F5F5F5
310
F5F5F5F5F5F5F5F5F5F5F5F5F5F5F5F5F5F5F5F5F5F5F5F5F5F5F5F5F5F5F5F5F5F5F5F5F5F5F5F5E2F5F5F5F5F5F5F5F5E2E2E2F5F5F5F5F5E2E2E2E2F5F5F5F5F5F5F5F5F5F5F5F5F5F5F5F5F5F5F5F5F5F5F5F5F5F5F5F5F5F5F5F5F5F5F5F5F5F5F5F5F5F5F5F5F5F5F5F5F5F5F5F5F5F5F5F5F5F5F5F5F5F5F5F5F5F5
310
F5F5F5F5F5F5F5F5F5F5F5F5F5F5F5F5F5F5F5F5F5F5F5F5F5F5F5F5F5F5F5F5F5F5F5F5F5F5F5F5F5F5F5F5F5F5F5F5F5F5F5F5F5F5F5F5F5F5F5F5F5F5F5F5F5F5F5F5F5F5F5F5F5F5F5F5F5F5F5F5F5F5F5F5F5F5F5F5F5F5F5F5F5E2E2E2E2F5F5F5F5F5E2E2E2F5F5F5F5F5F5F5F5E2F5F5F5F5F5F5F5F5F5F5F5F5F5
310
F5F5F5F5F5F5F5F5F5F5F5F5F5F5F5F5F5F5F5F5F5F5F5F5F5F5F5F5F5F5F5F5F5F5F5F5F5F5F5F5F5F5F5F5F5F5F5F5F5F5F5F5F5F5F5F5F5F5F5F5F5F5F5F5F5F5F5F5F5F5F5F5F5F5F5F5F5F5F5F5F5F5F5F5F5F5F5F5F5F5F5F5F5F5F5F5F5F5F5F5F5F5F5F5F5F5F5F5F5F5F5F5F5F5F5F5F5F5F5F5F5F5F5F5F5F5F5
310
F5F5F5F5F5F5F5F5F5F5F5F5F5F5F5F5F5F5F5E2F5F5F5F5F5F5F5F5E2E2E2F5F5F5F5F5F5F5F5E2F5F5F5F5F5F5F5F5F5F5F5F5F5F5F5F5F5F5F5F5F5F5F5F5F5F5F5F5F5F5F5F5F5F5F5F5F5F5F5F5F5F5F5F5F5F5F5F5F5F5F5F5F5F5F5F5F5F5F5F5F5F5F5F5F5F5F5F5F5F5F5F5F5F5F5F5F5F5F5F5F5F5F5F5F5F5F5
310
F5F5F5F5F5F5F5F5F5F5F5F5F5F5F5F5F5F5F5F5F5F5F5F5F5F5F5F5F5F5F5F5F5F5F5F5F5F5F5F5F5F5F5F5F5F5F5F5F5F5F5F5F5F5F5F5F5F5F5F5F5F5F5F5F5F5F5F5F5F5F5F5E2F5F5F5F5F5F5F5F5E2E2E2F5F5F5F5F5F5F5F5E2F5F5F5F5F5F5F5F5F5F5F5F5F5F5F5F5F5F5F5F5F5F5F5F5F5F5F5F5F5F5F5F5F5F5
310
F5F5F5F5F5F5F5F5F5F5F5F5F5F5F5F5F5F5F5F5F5F5F5F5F5F5F5F5F5F5F5F5F5F5F5F5F5F5F5F5F5F5F5F5F5F5F5F5F5F5F5F5F5F5F5F5F5F5F5F5F5F5F5F5F5F5F5F5F5F5F5F5F5F5F5F5F5F5F5F5F5F5F5F5F5F5F5F5F5F5F5F5F5F5F5F5F5F5F5F5F5F5F5F5F5F5F5F5F5F5F5F5F5F5F5F5F5F5F5F5F5F5F5F5F5E2F5
310
F5F5F5F5F5F5F5E2E2E2F5F5F5F5F5F5F5F5E2F5F5F5F5F5F5F5F5F5F5F5F5F5F5F5F5F5F5F5F5F5F5F5F5F5F5F5F5F5F5F5F5F5F5F5F5F5F5F5F5F5F5F5F5F5F5F5F5F5F5F5F5F5F5F5F5F5F5F5F5F5F5F5F5F5F5F5F5F5F5F5F5F5F5F5F5F5F5F5F5F5F5F5F5F5F5F5F5F5F5F5F5F5F5F5F5F5F5F5F5F5F5F5F5F5F5F5F5
310
F5F5F5F5F5F5F5F5F5F5F5F5F5F5F5F5F5F5F5F5F5F5F5F5F5F5F5F5F5F5F5F5F5F5F5F5F5F5F5F5F5F5F5F5F5F5F5F5F5F5F5E2F5F5F5F5F5F5F5F5E2E2E2F5F5F5F5F5F5F5F5E2F5F5F5F5F5F5F5F5F5F5F5F5F5F5F5F5F5F5F5F5F5F5F5F5F5F5F5F5F5F5F5F5F5F5F5F5F5F5F5F5F5F5F5F5F5F5F5F5F5F5F5F5F5F5F5
310
F5F5F5F5F5F5F5F5F5F5F5F5F5F5F5F5F5F5F5F5F5F5F5F5F5F5F5F5F5F5F5F5F5F5F5F5F5F5F5F5F5F5F5F5F5F5F5F5F5F5F5F5F5F5F5F5F5F5F5F5F5F5F5F5F5F5F5F5F5F5F5F5F5F5F5F5F5F5F5F5F5F5F5F5F5F5F5F5F5F5F5F5F5F5F5F5F5F5F5F5F5F5F5F5E2F5F5F5F5F5F5F5F5E2E2E2F5F5F5F5F5F5F5F5E2F5F5
310
F5F5F5F5F5F5F5F5F5F5F5F5F5F5F5F5F5F5F5F5F5F5F5F5F5F5F5F5F5F5F5F5F5F5F5F5F5F5F5F5F5F5F5F5F5F5F5F5F5F5F5F5F5F5F5F5F5F5F5F5F5F5F5F5F5F5F5F5F5F5F5F5F5F5F5F5F5F5F5F5F5F5F5F5F5F5F5F5F5F5F5F5F5F5F5F5F5F5F5F5F5F5F5F5F5F5F5F5F5F5F5F5F5F5F5F5F5F5F5F5F5F5F5F5F5F5F5
310
F5F5F5F5F5F5F5F5F5F5F5F5F5F5F5F5F5F5F5F5F5F5F5F5F5F5F5F5F5F5E2F5F5F5F5F5F5F5F5E2E2E2F5E2F5F5F5F5F5F5E2F5F5F5F5F5F5F5F5F5F5F5F5F5F5F5F5F5F5F5F5F5F5F5F5F5F5F5F5F5F5F5F5F5F5F5F5F5F5F5F5F5F5F5F5F5F5F5F5F5F5F5F5F5F5F5F5F5F5F5F5F5F5F5F5F5F5F5F5F5F5F5F5F5F5F5F5
310
F5F5F5F5F5F5F5F5F5F5F5F5F5F5F5F5F5F5F5F5F5F5F5F5F5F5F5F5F5F5F5F5F5F5F5F5F5F5F5F5F5F5F5F5F5F5F5F5F5F5F5F5F5F5F5F5F5F5F5F5F5F5F5F5F5F5F5F5F5F5F5F5F5F5F5F5F5F5F5F5F5F5F5E2F5F5F5F5F5F5E2F5E2E2E2F5E2F5F5F5F5F5F5E2F5F5F5F5F5F5F5F5F5F5F5F5F5F5F5F5F5F5F5F5F5F5F5
310
F5F5F5F5F5F5F5F5F5F5F5F5F5F5F5F5F5F5F5F5F5F5F5F5F5F5F5F5F5F5F5F5F5F5F5F5F5F5F5F5F5F5F5F5F5F5F5F5F5F5F5F5F5F5F5F5F5F5F5F5F5F5F5F5F5F5F5F5F5F5F5F5F5F5F5F5F5F5F5F5F5F5F5F5F5F5F5F5F5F5F5F5F5F5F5F5F5F5F5F5F5F5F5F5F5F5F5F5F5F5F5F5F5F5F5F5F5F5F5F5F5F5F5F5F5F5F5
310
F5F5F5F5F5F5F5F5F5E2F5F5F5F5F5F5E2F5E2E2E2F5E2F5F5F5F5F5F5E2F5F5F5F5F5F5F5F5F5F5F5F5F5F5F5F5F5F5F5F5F5F5F5F5F5F5F5F5F5F5F5F5F5F5F5F5F5F5F5F5F5F5F5F5F5F5F5F5F5F5F5F5F5F5F5F5F5F5F5F5F5F5F5F5F5F5F5F5F5F5F5F5F5F5F5F5F5F5F5F5F5F5F5F5F5F5F5F5F5F5F5F5F5F5F5F5F5
310
F5F5F5F5F5F5F5F5F5F5F5F5F5F5F5F5F5F5F5F5F5F5F5F5F5F5F5F5F5F5F5F5F5F5F5F5F5F5F5F5F5F5F5F5F5F5F5F5F5F5F5F5F5F5F5F5F5F5F5F5F5F5E2F5F5F5F5F5F5E2F5E2E2E2F5E2F5F5F5F5F5F5E2F5F5F5F5F5F5F5F5F5F5F5F5F5F5F5F5F5F5F5F5F5F5F5F5F5F5F5F5F5F5F5F5F5F5F5F5F5F5F5F5F5F5F5F5
310
F5F5F5F5F5F5F5F5F5F5F5F5F5F5F5F5F5F5F5F5F5F5F5F5F5F5F5F5F5F5F5F5F5F5F5F5F5F5F5F5F5F5F5F5F5F5F5F5F5F5F5F5F5F5F5F5F5F5F5F5F5F5F5F5F5F5F5F5F5F5F5F5F5F5F5F5F5F5F5F5F5F5F5F5F5F5F5F5F5F5F5F5F5F5F5F5F5F5F5F5F5F5F5F5F5F5F5F5F5F5F5F5F5F5F5E2F5F5F5F5F5F5E2F5E2E2E2
310
F5E2F5F5F5F5F5F5E2F5F5F5F5F5F5F5F5F5F5F5F5F5F5F5F5F5F5F5F5F5F5F5F5F5F5F5F5F5F5F5F5F5F5F5F5F5F5F5F5F5F5F5F5F5F5F5F5F5F5F5F5F5F5F5F5F5F5F5F5F5F5F5F5F5F5F5F5F5F5F5F5F5F5F5F5F5F5F5F5F5F5F5F5F5F5F5F5F5F5F5F5F5F5F5F5F5F5F5F5F5F5F5F5F5F5F5F5F5F5F5F5F5F5F5F5F5F5
310
F5F5F5F5F5F5F5F5F5F5F5F5F5F5F5F5F5F5F5F5F5F5F5F5F5F5F5F5F5F5F5F5F5F5F5F5F5F5F5F5F5E2F5F5F5F5F5F5E2F5E2E2E2F5E2F5F5F5F5E2E2E2F5F5F5F5F5F5F5F5F5F5F5F5F5F5F5F5F5F5F5F5F5F5F5F5F5F5F5F5F5F5F5F5F5F5F5F5F5F5F5F5F5F5F5F5F5F5F5F5F5F5F5F5F5F5F5F5F5F5F5F5F5F5F5F5F5
310
F5F5F5F5F5F5F5F5F5F5F5F5F5F5F5F5F5F5F5F5F5F5F5F5F5F5F5F5F5F5F5F5F5F5F5F5F5F5F5F5F5F5F5F5F5F5F5F5F5F5F5F5F5F5F5F5F5F5F5F5F5F5F5F5F5F5F5F5F5F5F5F5F5F5F5F5F5F5F5F5F5F5F5F5F5F5F5F5F5F5F5F5F5F5E2E2E2F5F5F5F5E2F5E2E2E2F5E2F5F5F5F5E2E2E2F5F5F5F5F5F5F5F5F5F5F5F5
310
F5F5F5F5F5F5F5F5F5F5F5F5F5F5F5F5F5F5F5F5F5F5F5F5F5F5F5F5F5F5F5F5F5F5F5F5F5F5F5F5F5F5F5F5F5F5F5F5F5F5F5F5F5F5F5F5F5F5F5F5F5F5F5F5F5F5F5F5F5F5F5F5F5F5F5F5F5F5F5F5F5F5F5F5F5F5F5F5F5F5F5F5F5F5F5F5F5F5F5F5F5F5F5F5F5F5F5F5F5F5F5F5F5F5F5F5F5F5F5F5F5F5F5F5F5F5F5
310
F5F5F5F5F5F5F5F5F5F5F5F5F5F5F5F5F5F5F5F5E2E2E2F5F5F5F5E2F5E2E2E2F5E2F5F5F5F5F5F5E2F5F5F5F5F5F5F5F5F5F5F5F5F5F5F5F5F5F5F5F5F5F5F5F5F5F5F5F5F5F5F5F5F5F5F5F5F5F5F5F5F5F5F5F5F5F5F5F5F5F5F5F5F5F5F5F5F5F5F5F5F5F5F5F5F5F5F5F5F5F5F5F5F5F5F5F5F5F5F5F5F5F5F5F5F5F5
310
F5F5F5F5F5F5F5F5F5F5F5F5F5F5F5F5F5F5F5F5F5F5F5F5F5F5F5F5F5F5F5F5F5F5F5F5F5F5F5F5F5F5F5F5F5F5F5F5F5F5F5F5F5F5F5F5F5F5F5F5F5F5F5F5F5F5F5F5F5F5F5F5F5E2F5F5F5F5F5F5E2F5E2E2E2F5E2F5F5F5F5F5F5E2F5F5F5F5F5F5F5F5F5F5F5F5F5F5F5F5F5F5F5F5F5F5F5F5F5F5F5F5F5F5F5F5F5
310
F5F5F5F5F5F5F5F5F5F5F5F5F5F5F5F5F5F5F5F5F5F5F5F5F5F5F5F5F5F5F5F5F5F5F5F5F5F5F5F5F5F5F5F5F5F5F5F5F5F5F5F5F5F5F5F5F5F5F5F5F5F5F5F5F5F5F5F5F5F5F5F5F5F5F5F5F5F5F5F5F5F5F5F5F5F5F5F5F5F5F5F5F5F5F5F5F5F5F5F5F5F5F5F5F5F5F5F5F5F5F5F5F5F5F5F5F5F5F5F5F5F5F5F5F5F5E2
310
F5F5F5F5F5F5E2F5E2E2E2F5E2F5F5F5F5F5F5E2F5F5F5F5F5F5F5F5F5F5F5F5F5F5F5F5F5F5F5F5F5F5F5F5F5F5F5F5F5F5F5F5F5F5F5F5F5F5F5F5F5F5F5F5F5F5F5F5F5F5F5F5F5F5F5F5F5F5F5F5F5F5F5F5F5F5F5F5F5F5F5F5F5F5F5F5F5F5F5F5F5F5F5F5F5F5F5F5F5F5F5F5F5F5F5F5F5F5F5F5F5F5F5F5F5F5F5
310
F5F5F5F5F5F5F5F5F5F5F5F5F5F5F5F5F5F5F5F5F5F5F5F5F5F5F5F5F5F5F5F5F5F5F5F5F5F5F5F5F5F5F5F5F5F5F5F5F5F5F5F5E2F5F5F5F5F5F5E2F5E2E2E2F5E2F5F5F5F5F5F5E2F5F5F5F5F5F5F5F5F5F5F5F5F5F5F5F5F5F5F5F5F5F5F5F5F5F5F5F5F5F5F5F5F5F5F5F5F5F5F5F5F5F5F5F5F5F5F5F5F5F5F5F5F5F5
310
F5F5F5F5F5F5F5F5F5F5F5F5F5F5F5F5F5F5F5F5F5F5F5F5F5F5F5F5F5F5F5F5F5F5F5F5F5F5F5F5F5F5F5F5F5F5F5F5F5F5F5F5F5F5F5F5F5F5F5F5F5F5F5F5F5F5F5F5F5F5F5F5F5F5F5F5F5F5F5F5F5F5F5F5F5F5F5F5F5F5F5F5F5F5F5F5F5F5F5F5F5F5F5F5F5E2F5F5F5F5F5F5E2F5E2E2E2F5E2F5F5F5F5F5F5E2F5
310
F5F5F5F5F5F5F5F5F5F5F5F5F5F5F5F5F5F5F5F5F5F5F5F5F5F5F5F5F5F5F5F5F5F5F5F5F5F5F5F5F5F5F5F5F5F5F5F5F5F5F5F5F5F5F5F5F5F5F5F5F5F5F5F5F5F5F5F5F5F5F5F5F5F5F5F5F5F5F5F5F5F5F5F5F5F5F5F5F5F5F5F5F5F5F5F5F5F5F5F5F5F5F5F5F5F5F5F5F5F5F5F5F5F5F5F5F5F5F5F5F5F5F5F5F5F5F5
310
F5F5F5F5F5F5F5F5F5F5F5F5F5F5F5F5F5F5F5F5F5F5F5F5F5F5F5F5F5F5F5E2F5F5F5F5F5F5E2F5E2E2E2F5E2F5F5F5F5F5F5E2F5F5F5F5F5F5F5F5F5F5F5F5F5F5F5F5F5F5F5F5F5F5F5F5F5F5F5F5F5F5F5F5F5F5E2F5F5F5F5F5F5F5F5F5F5F5F5F5F5F5F5F5F5F5F5F5F5F5F5F5F5F5F5F5F5F5F5F5F5F5F5F5F5F5F5
310
F5E2E2E2E2E2E2E2E2F5F5F5F5F5F5F5F5F5F5F5F5F5F5F5F5F5F5F5F5F5F5F5F5F5F5F5F5F5F5F5F5F5F5F5F5F5F5F5F5F5F5F5F5F5F5F5F5F5F5F5F5E2E2E2E2E2E2F5F5F5F5F5F5F5F5F5F5F5F5F5F5F5F5F5E2F5F5F5F5F5F5E2F5E2E2E2F5E2F5F5F5F5F5F5E2F5F5F5F5F5F5F5F5F5F5F5F5F5F5F5F5F5F5F5F5F5F5
310
F5F5F5F5F5F5F5F5F5F5E2E2E2E2E2F5F5F5F5F5F5F5F5F5F5F5F5F5F5F5F5F5F5F5F5F5F5F5F5F5F5F5F5F5F5F5F5F5F5F5F5F5F5E2F5F5F5F5F5F5F5E2F5F5F5F5F5F5F5F5F5F5F5F5F5F5F5F5F5F5F5F5F5F5F5F5F5F5F5F5F5F5F5F5F5F5F5F5F5F5F5F5F5F5F5F5F5F5F5F5F5F5F5E2F5F5F5E2E2E2F5F5F5F5F5F5F5
310
F5F5F5F5F5F5F5F5F5F5E2F5F5F5F5F5F5E2F5E2E2E2F5E2F5F5F5F5F5F5E2F5F5F5F5F5F5F5F5F5F5F5F5F5F5F5F5F5F5F5F5F5F5F5F5F5F5F5F5F5F5E2E2E2F5F5F5F5E2E2E2F5F5F5F5F5F5F5F5F5F5F5F5F5F5F5F5F5F5F5F5F5F5F5F5F5F5F5F5F5F5F5F5F5F5F5E2F5F5F5F5F5F5F5E2F5F5F5F5F5F5F5F5F5F5F5F5
310
F5F5F5F5F5F5F5F5F5F5F5F5F5F5F5F5F5F5F5F5F5F5F5F5F5F5F5F5F5F5F5F5F5F5F5F5F5F5E2F5F5F5F5F5F5F5F5F5F5F5F5F5F5F5F5F5F5F5F5F5F5F5F5E2F5F5F5F5F5F5E2F5E2E2E2F5E2F5F5F5F5F5F5E2F5F5F5F5F5F5F5F5F5F5F5F5F5F5F5F5F5F5F5F5F5F5F5F5F5F5F5F5E2E2E2F5F5F5F5F5F5F5F5E2E2F5F5
310
F5F5F5F5F5F5F5F5F5F5F5F5F5F5F5F5F5F5F5F5F5F5F5F5F5F5F5F5F5F5F5F5E2F5F5F5F5F5F5F5E2F5F5F5F5F5F5F5F5F5F5F5F5F5F5F5F5F5F5F5F5F5F5F5F5F5F5F5F5F5F5F5F5F5F5F5F5F5F5F5F5F5F5F5F5F5F5F5F5F5E2F5F5F5F5F5F5F5F5F5F5F5F5F5F5F5F5F5F5F5F5F5F5F5F5F5E2F5F5F5F5F5F5E2F5E2E2
310
E2F5F5F5F5F5F5F5F5E2F5F5F5F5F5F5F5F5F5F5F5F5F5F5F5F5F5F5F5F5F5F5F5F5F5F5E2E2E2F5F5F5F5F5F5F5F5F5F5F5F5E2E2F5F5F5F5F5F5F5F5F5F5F5F5F5F5F5F5F5F5F5F5F5F5F5F5F5F5F5F5F5F5F5F5E2F5F5F5F5F5F5F5E2F5F5F5F5F5F5F5F5F5F5F5F5F5F5F5F5F5F5F5F5F5F5F5F5F5F5F5F5F5F5F5F5F5
310
F5F5F5F5F5F5F5F5F5F5F5F5F5F5F5E2E2F5F5F5F5F5F5F5F5F5F5F5F5F5F5F5F5F5F5F5F5F5F5F5F5F5E2F5F5F5F5F5F5F5F5E2E2E2F5F5F5F5F5F5F5F5E2F5F5F5F5F5F5F5F5F5F5F5F5F5F5F5F5F5F5F5F5F5F5F5F5F5E2F5E2F5F5F5F5F5F5F5F5F5F5F5F5F5F5E2E2E2F5F5F5F5F5F5F5F5F5F5F5F5F5F5F5F5F5F5F5
310
F5F5F5F5F5F5F5F5F5F5F5E2E2E2E2E2E2E2E2E2E2E2E2E2E2E2E2E2E2E2E2E2E2E2E2E2E2E2E2E2E2E2E2E2E2E2E2E2E2E2E2E2E2E2E2E2E2E2E2E2E2E2E2E2E2E2E2E2E2E2E2E2E2E2E2E2E2E2E2F5F5F5F5F5F5F5F5F5F5F5F5F5F5F5F5E2F5F5F5F5F5F5F5F5E2E2E2F5F5F5F5F5F5F5F5E2F5F5F5F5F5F5F5F5F5F5F5
310
F5F5F5F5F5F5F5F5F5F5F5F5F5F5E2E2F5F5F5F5F5F5F5F5F5F5F5F5F5F5F5F5E2E2F5F5F5F5F5F5F5F5F5F5F5F5F5F5F5F5F5F5F5F5F5F5F5F5F5F5F5F5F5F5E2E2F5F5F5F5F5F5E2F5F5F5F5F5F5F5F5F5F5F5F5F5F5F5F5F5F5F5F5F5F5F5F5F5F5F5F5F5F5F5F5F5F5F5F5F5E2E2E2E2E2E2E2E2E2E2E2E2E2E2E2E2E2
310
E2E2E2E2E2E2F5F5F5F5F5F5F5F5F5F5F5F5F5F5F5E2F5F5F5F5F5F5F5F5E2E2E2F5F5F5F5F5F5F5F5E2F5F5F5F5F5F5F5F5F5F5F5F5F5F5F5F5F5F5F5F5F5F5F5F5F5E2E2F5F5F5F5F5F5F5F5F5F5F5F5F5F5F5F5E2E2F5F5F5F5F5F5F5F5F5F5F5F5F5F5F5F5F5F5F5F5F5F5F5F5F5F5F5F5F5F5E2E2F5F5F5F5F5F5E2F5
310
F5F5F5F5F5F5F5F5F5F5F5F5F5F5F5F5F5F5F5F5F5F5F5F5F5F5F5F5F5F5F5F5F5F5F5F5E2F5F5F5F5F5F5F5F5F5F5F5F5F5F5F5F5F5F5F5F5E2E2F5F5F5F5F5F5F5F5F5F5F5F5F5F5F5E2F5F5F5F5F5F5F5F5E2E2E2F5F5F5F5F5E2E2E2E2F5F5F5F5F5F5F5F5F5F5F5F5F5F5F5F5F5F5F5F5F5F5F5F5F5E2F5F5F5F5F5F5
310
F5F5F5F5F5F5F5F5F5F5F5F5E2F5F5F5F5F5F5F5F5F5F5F5F5F5F5F5F5F5F5F5F5F5F5F5F5F5F5F5F5F5F5E2F5F5F5F5F5F5F5E2F5F5F5F5F5F5F5F5F5F5F5F5F5F5F5F5F5F5F5F5F5F5F5F5F5F5F5F5F5F5F5F5F5F5F5F5F5E2F5F5F5F5F5F5F5F5F5F5F5F5F5F5F5F5F5F5F5F5E2E2F5F5F5F5F5F5F5F5F5F5F5F5F5F5F5
310
E2E2E2E2F5F5F5F5F5E2E2E2F5F5F5F5F5F5F5F5E2F5F5F5F5F5F5F5F5F5F5F5F5F5F5F5F5F5F5F5F5F5F5F5F5F5E2F5F5F5F5F5F5F5F5F5F5F5F5F5F5F5F5F5F5E2F5F5F5F5F5F5F5F5F5F5F5F5F5F5F5F5F5F5F5F5F5F5F5F5F5F5F5F5F5F5E2F5F5F5F5F5F5F5E2F5F5F5F5F5F5F5F5F5F5F5F5F5F5F5F5F5F5F5F5F5F5
310
F5F5F5F5F5F5F5F5F5F5F5F5F5F5F5E2F5F5F5F5F5F5F5F5F5F5F5F5F5F5F5F5F5F5F5F5E2E2F5F5F5F5F5F5F5F5F5F5F5F5F5F5F5E2F5F5F5F5F5F5F5F5E2E2E2F5F5F5F5F5F5F5F5E2F5F5F5F5F5F5F5F5F5F5F5F5F5F5F5F5F5F5F5F5F5F5F5F5F5E2F5F5F5F5F5F5F5F5F5F5F5F5F5F5F5F5F5F5E2F5F5F5F5F5F5F5F5
310
F5F5F5F5F5F5F5F5F5F5F5F5F5F5F5F5F5F5F5F5F5F5E2F5F5F5F5F5F5F5E2F5F5F5F5F5F5F5F5F5F5F5F5F5F5F5F5F5F5F5F5F5F5F5F5F5F5F5F5F5F5F5F5F5F5F5F5F5E2F5F5F5F5F5F5F5F5F5F5F5F5F5F5F5F5F5F5F5F5E2E2F5F5F5F5F5F5F5F5F5F5F5F5F5F5F5E2F5F5F5F5F5F5F5F5E2E2E2F5F5F5F5F5F5F5F5E2
310
F5F5F5F5F5F5F5F5F5F5F5F5F5F5F5F5F5F5F5F5F5F5F5F5F5E2F5F5F5F5F5F5F5F5F5F5F5F5F5F5F5F5F5F5E2F5F5F5F5F5F5F5F5F5F5F5F5F5F5F5F5F5F5F5F5F5F5F5F5F5F5F5F5F5F5E2F5F5F5F5F5F5F5E2F5F5F5F5F5F5F5F5F5F5F5F5F5F5F5F5F5F5F5F5F5F5F5F5F5F5F5F5F5F5F5F5F5F5F5F5F5E2F5F5F5F5F5
310
F5F5F5F5F5F5F5F5F5F5F5F5F5F5F5E2E2F5F5F5F5F5F5F5F5F5F5F5F5F5F5F5E2F5F5F5F5F5F5F5F5E2E2E2F5F5F5F5F5F5F5F5E2F5F5F5F5F5F5F5F5F5F5F5F5F5F5F5F5F5F5F5F5F5F5F5F5F5E2F5F5F5F5F5F5F5F5F5F5F5F5F5F5F5F5F5F5E2F5F5F5F5F5F5F5F5F5F5F5F5F5F5F5F5F5F5F5F5F5F5F5F5F5F5F5F5F5
310
F5E2F5F5F5F5F5F5F5E2F5F5F5F5F5F5F5F5F5F5F5F5F5F5F5F5F5F5F5F5F5F5F5F5F5F5F5F5F5F5F5F5F5F5F5F5F5E2F5F5F5F5F5F5F5F5F5F5F5F5F5F5F5F5F5F5F5F5E2E2F5F5F5F5F5F5F5F5F5F5F5F5F5F5F5E2F5F5F5F5F5F5F5F5E2E2E2F5E2F5F5F5F5F5F5E2F5F5F5F5F5F5F5F5F5F5F5F5F5F5F5F5F5F5F5F5F5
310
F5F5F5F5E2F5F5F5F5F5F5F5F5F5F5F5F5F5F5F5F5F5F5E2F5F5F5F5F5F5F5F5F5F5F5F5F5F5F5F5F5F5F5F5F5F5F5F5F5F5F5F5F5F5E2F5F5F5F5F5F5F5E2F5F5F5F5F5F5F5F5F5F5F5F5F5F5F5F5F5F5F5F5F5F5F5F5F5F5F5F5F5F5F5F5F5F5F5F5F5E2F5F5F5F5F5F5F5F5F5F5F5F5F5F5F5F5F5F5F5F5E2E2F5F5F5F5
310
F5F5F5F5F5F5F5F5F5F5F5E2F5F5F5F5F5F5E2F5E2E2E2F5E2F5F5F5F5F5F5E2F5F5F5F5F5F5F5F5F5F5F5F5F5F5F5F5F5F5F5F5F5F5F5F5F5E2E2F5F5F5F5F5F5F5F5F5F5F5F5F5F5F5F5E2E2F5F5F5F5F5F5F5F5F5F5F5F5F5F5F5F5F5F5F5F5F5F5F5F5F5F5F5F5F5F5E2F5F5F5F5F5F5F5E2F5F5F5F5F5F5F5F5F5F5F5
310
F5F5F5F5F5F5F5F5F5F5F5F5F5F5F5F5F5F5F5F5F5F5F5F5F5F5E2F5F5F5F5F5F5F5F5F5F5F5F5F5F5F5F5F5F5F5F5E2E2F5F5F5F5F5F5F5F5F5F5F5F5F5F5F5E2F5F5F5F5F5F5E2F5E2E2E2F5E2F5F5F5F5F5F5E2F5F5F5F5F5F5F5F5F5F5F5F5F5F5F5F5F5F5F5F5F5F5F5F5F5E2E2F5F5F5F5F5F5F5F5F5F5F5F5F5F5F5
310
F5E2E2F5F5F5F5F5F5F5F5F5F5F5F5F5F5F5F5F5F5F5F5F5F5F5F5F5F5F5F5F5F5E2E2F5F5F5F5F5F5E2F5F5F5F5F5F5F5F5F5F5F5F5F5F5F5F5F5F5F5F5F5F5F5F5F5F5F5F5F5F5F5F5F5F5F5F5F5E2F5F5F5F5F5F5F5F5F5F5F5F5F5F5F5F5F5F5F5F5E2E2F5F5F5F5F5F5F5F5F5F5F5F5F5F5F5E2F5F5F5F5F5F5E2F5E2
310
E2E2F5E2F5F5F5F5F5F5E2F5F5F5F5F5F5F5F5F5F5F5F5F5F5F5F5F5F5F5F5F5F5F5F5F5E2E2E2F5F5F5F5F5F5F5F5F5F5F5F5F5F5E2E2E2F5F5F5F5F5F5F5F5F5F5F5F5F5F5F5F5F5F5F5F5F5F5F5F5F5F5F5F5F5F5E2E2E2E2E2E2E2E2E2F5F5F5F5F5F5F5F5F5F5F5F5F5F5F5F5F5F5F5F5F5F5F5F5F5F5F5F5F5F5F5F5
310
F5F5F5F5F5E2E2E2E2E2E2E2E2E2E2E2E2E2E2E2E2E2E2E2E2E2E2E2F5F5F5F5F5F5F5F5F5F5F5F5F5F5F5E2F5F5F5F5F5F5E2F5E2E2E2F5E2F5F5F5F5F5F5E2F5F5F5F5F5F5F5F5F5F5F5F5F5F5F5F5F5F5F5F5F5F5F5F5F5E2E2E2E2F5F5F5F5F5F5F5F5F5F5F5F5E2E2E2E2F5F5F5F5F5F5F5F5F5F5F5F5F5F5F5F5F5F5
310
F5F5F5F5F5F5F5F5F5F5F5F5E2E2F5F5F5F5F5F5E2E2E2E2E2E2E2E2E2E2E2E2E2E2E2E2E2E2E2E2E2E2E2E2E2E2E2E2E2E2E2E2E2E2E2E2E2E2E2E2E2E2E2E2E2E2E2E2E2E2E2E2E2E2E2E2E2E2E2E2E2F5F5F5F5F5F5F5F5F5F5F5F5F5F5F5E2F5F5F5F5F5F5E2F5E2E2E2F5E2F5F5F5F5F5F5E2F5F5F5F5F5F5F5F5F5F5
310
F5F5F5F5F5F5F5F5F5F5F5F5F5F5F5E2F5F5E2E2F5F5F5F5F5F5F5F5F5F5E2E2F5F5E2F5F5F5F5F5F5F5F5F5F5F5F5F5F5F5F5F5F5F5F5F5F5F5F5F5F5F5F5F5F5E2F5F5F5F5F5F5F5E2F5F5F5F5F5F5F5F5F5F5F5F5F5F5F5F5F5F5F5F5F5F5F5F5F5F5F5F5F5F5F5F5F5F5F5F5F5E2F5F5F5F5F5F5F5F5F5F5F5F5F5F5F5
310
F5F5F5F5F5F5E2F5F5F5F5F5F5F5F5F5F5F5F5F5F5F5E2F5F5F5F5F5F5E2F5E2E2E2F5E2F5F5F5F5F5F5E2F5F5F5F5F5F5F5F5F5F5F5F5F5F5F5F5F5F5F5F5F5F5F5F5F5E2F5F5F5E2E2F5F5F5F5F5F5F5F5E2F5F5F5F5E2F5F5F5F5F5F5F5F5F5F5F5F5F5F5F5F5F5F5F5F5F5F5F5F5F5F5F5F5F5F5E2F5F5F5F5F5F5F5E2
310
F5F5F5F5F5F5F5F5F5F5F5F5F5F5F5F5F5F5F5F5F5F5F5F5F5F5F5F5F5F5F5F5F5F5F5F5F5E2F5F5F5F5F5F5F5F5F5F5F5F5F5F5F5F5F5F5F5F5F5E2F5F5F5F5F5F5F5F5F5F5F5F5F5F5F5E2F5F5F5F5F5F5E2F5E2E2E2F5E2F5F5F5F5E2E2E2F5F5F5F5F5F5F5F5F5F5F5F5F5F5F5F5F5F5F5F5F5F5F5F5F5E2F5F5F5F5F5
310
E2E2E2E2E2E2E2E2F5F5F5F5F5E2F5F5F5F5F5F5F5F5F5F5F5F5F5F5F5F5F5F5F5F5F5F5F5F5F5F5F5F5F5F5E2F5F5F5F5F5F5F5E2F5F5F5F5F5F5F5F5F5F5F5F5F5F5F5F5F5F5F5F5F5F5F5F5F5F5F5F5F5F5F5F5F5F5F5F5F5E2F5F5F5F5F5F5F5F5F5F5F5F5F5F5F5F5F5F5F5F5F5E2F5F5F5F5F5F5F5F5F5F5F5F5F5F5
310
F5E2E2E2F5F5F5F5E2F5E2E2E2F5E2F5F5F5F5E2E2E2F5F5F5F5F5F5F5F5F5F5F5F5F5F5F5F5F5F5F5F5F5F5F5F5F5E2F5F5F5F5F5F5E2E2F5E2E2F5F5F5F5F5F5F5E2F5F5F5F5F5F5F5F5F5F5F5F5F5F5F5F5F5F5F5F5F5F5F5F5F5F5F5F5F5F5E2E2F5F5F5F5F5F5E2F5F5F5F5F5F5F5F5F5F5F5F5F5F5F5F5F5F5F5F5F5
310
F5F5F5F5F5F5F5F5F5F5F5F5F5F5F5F5E2F5F5F5F5F5F5F5F5F5F5F5F5F5F5F5F5F5F5F5F5F5E2F5F5F5F5F5F5F5F5F5F5F5F5F5F5F5E2E2E2F5F5F5F5E2F5E2E2E2F5E2F5F5F5F5F5F5E2F5F5F5F5F5F5F5F5F5F5F5F5F5F5F5F5F5F5F5F5F5F5F5F5F5E2F5F5F5F5F5F5F5F5E2F5F5F5F5F5F5F5F5F5E2F5F5F5F5F5F5F5
310
F5F5F5F5F5F5F5F5F5F5F5F5F5F5F5F5F5F5F5F5F5F5F5E2E2E2E2E2E2E2E2E2F5F5F5F5F5F5F5F5F5F5F5F5F5F5F5F5F5F5F5F5F5F5F5F5F5F5F5F5F5F5F5F5F5F5F5F5F5E2F5F5F5F5F5F5F5F5F5F5F5F5F5F5F5F5F5F5F5F5F5E2F5F5F5F5F5F5F5F5F5F5F5F5F5F5F5E2F5F5F5F5F5F5E2F5E2E2E2F5E2F5F5F5F5F5F5
310
E2F5F5F5F5F5F5F5F5F5F5F5F5F5F5F5F5F5F5F5F5F5F5F5F5F5E2F5F5F5F5F5F5F5F5F5F5F5F5F5F5F5F5F5F5E2F5F5F5F5F5F5F5F5F5F5F5F5F5F5F5F5F5F5F5F5F5F5F5F5F5F5F5F5F5F5E2F5F5F5F5F5F5F5E2F5F5F5F5F5F5F5F5F5F5F5F5F5F5F5F5F5F5F5F5F5F5F5F5F5F5F5F5F5F5F5F5F5F5F5F5F5E2E2E2E2E2
310
E2E2E2E2E2E2E2E2E2E2E2E2E2E2E2E2E2E2F5F5F5F5F5F5F5F5F5F5F5F5F5F5F5E2F5F5F5F5F5F5E2F5E2E2E2F5E2F5F5F5F5F5F5E2F5F5F5F5F5F5F5F5F5F5F5F5F5F5F5F5F5F5F5F5F5F5F5F5F5E2F5F5F5F5F5F5F5F5F5F5F5F5F5F5F5F5F5F5E2F5F5F5F5F5F5F5F5F5F5F5F5F5F5F5F5F5F5F5F5F5F5F5F5F5F5F5F5
310
F5F5E2F5F5F5F5F5F5F5E2F5F5F5F5F5F5F5F5F5F5F5F5F5F5F5F5F5F5F5F5F5F5F5F5F5F5F5F5F5F5F5F5F5F5F5F5F5E2F5F5F5F5F5F5F5F5E2E2E2E2F5F5F5F5F5F5F5F5E2E2F5F5F5F5F5F5F5F5F5F5F5F5F5F5F5E2F5F5F5F5F5F5E2F5E2E2E2F5E2F5F5F5F5F5F5E2F5F5F5F5F5F5F5F5F5F5F5F5F5F5F5F5F5F5F5F5
310
F5F5F5F5F5E2F5F5F5F5F5F5F5F5F5F5F5F5F5F5F5F5F5F5E2F5F5F5F5F5F5F5F5F5F5F5F5F5F5F5F5F5F5F5F5F5F5F5F5F5F5F5F5F5F5E2F5F5F5F5F5F5F5E2F5F5F5F5F5F5F5F5F5F5F5F5F5F5F5F5F5F5F5F5F5F5F5F5F5F5F5F5F5F5F5F5F5F5F5F5F5F5F5F5F5F5F5F5F5F5E2E2E2E2F5F5F5F5F5F5F5F5F5E2F5F5F5
310
F5F5F5F5F5F5F5F5F5F5F5F5E2F5F5F5F5F5F5E2F5E2E2E2F5E2F5F5F5F5F5F5E2F5F5F5F5F5F5F5F5F5F5F5F5F5F5F5F5F5F5F5F5F5F5F5F5F5E2F5F5F5F5F5F5F5F5F5F5F5F5F5F5F5F5F5F5E2F5F5F5F5F5F5F5F5F5F5F5F5F5F5F5F5F5F5F5F5F5F5F5F5F5F5F5F5F5F5E2F5F5F5F5F5F5F5E2F5F5F5F5F5F5F5F5F5F5
310
F5F5F5F5F5F5F5F5F5F5F5F5F5F5F5F5F5F5F5F5F5F5F5F5F5F5F5F5F5F5F5F5F5F5F5F5F5F5F5F5F5F5F5F5F5F5F5F5F5E2F5F5F5F5F5F5F5F5F5F5F5F5F5F5F5E2F5F5F5F5F5F5E2F5E2E2E2F5E2F5F5F5F5F5F5E2F5F5F5F5F5F5F5F5F5F5F5F5F5F5F5F5F5F5F5F5F5F5F5F5F5E2F5F5F5F5F5F5F5F5F5F5F5F5F5F5F5
310
F5F5F5E2F5F5F5F5F5F5F5F5F5F5F5F5F5F5F5F5F5F5F5F5F5F5F5F5F5F5F5F5F5F5E2F5F5F5F5F5F5F5E2F5F5F5F5F5F5F5F5F5F5F5F5F5F5F5F5F5F5F5F5F5F5F5F5F5F5F5F5F5F5F5F5F5F5F5F5F5F5F5F5F5F5F5F5F5F5F5F5F5F5F5F5F5F5F5F5F5F5F5E2F5F5F5F5F5F5F5F5F5F5F5F5F5F5F5E2F5F5F5F5F5F5E2F5
310
E2E2E2F5E2F5F5F5F5F5F5E2F5F5F5F5F5F5F5F5F5F5F5F5F5F5F5F5F5F5F5F5F5F5F5F5F5E2F5F5F5F5F5F5F5F5F5F5F5F5F5F5F5F5F5F5E2F5F5F5F5F5F5F5F5F5F5F5F5F5F5F5F5F5F5F5F5F5F5F5F5F5F5F5F5F5F5E2F5F5F5F5F5F5F5E2F5F5F5F5F5F5F5F5F5F5F5F5F5F5F5F5F5F5F5F5F5F5F5F5F5F5F5F5F5F5F5
310
F5F5F5F5F5F5F5F5F5F5F5F5F5F5F5F5F5F5F5F5F5F5F5F5F5F5F5F5E2F5F5F5F5F5F5F5F5F5F5F5F5F5F5F5E2F5F5F5F5F5F5E2F5E2E2E2F5F5F5F5F5F5F5F5E2F5F5F5F5F5F5F5F5F5F5F5F5F5F5F5F5F5F5F5F5F5F5F5F5F5E2F5F5F5F5F5F5F5F5F5F5F5F5F5F5F5F5F5F5E2F5F5F5F5F5F5F5F5F5F5F5F5F5F5F5F5F5
310
F5F5F5F5F5F5F5F5F5F5F5F5F5E2F5F5F5F5F5F5F5E2F5F5F5F5F5F5F5F5F5F5F5F5F5F5F5F5F5F5F5F5F5F5F5F5F5F5F5F5F5F5F5F5F5F5F5F5F5F5F5F5F5F5F5F5F5F5F5F5F5F5F5F5F5F5F5F5F5F5F5E2F5F5F5F5F5F5F5F5F5F5F5F5F5F5F5E2F5F5F5F5F5F5F5F5E2E2E2F5F5F5F5F5F5F5F5E2F5F5F5F5F5F5F5F5F5
310
F5F5F5F5F5F5F5F5F5F5F5F5F5F5F5F5E2F5F5F5F5F5F5F5F5F5F5F5F5F5F5F5F5F5F5E2F5F5F5F5F5F5F5F5F5F5F5F5F5F5F5F5F5F5F5F5F5F5F5F5F5F5F5F5F5F5E2F5F5F5F5F5F5F5E2F5F5F5F5F5F5F5F5F5F5F5F5F5F5F5F5F5F5F5F5F5F5F5F5F5F5F5F5F5F5F5F5F5F5F5F5F5F5F5F5F5F5F5F5F5F5F5F5F5F5F5F5
310
F5F5F5F5F5F5F5E2F5F5F5F5F5F5F5F5F5F5F5F5F5F5F5E2F5F5F5F5F5F5F5F5E2E2E2F5F5F5F5F5F5F5F5E2F5F5F5F5F5F5F5F5F5F5F5F5F5F5F5F5F5F5F5F5F5F5F5F5F5E2E2E2E2E2E2E2E2E2E2E2E2E2E2E2E2E2E2E2E2F5F5F5F5F5F5F5F5F5F5F5F5F5F5F5F5F5F5F5F5F5F5F5F5F5F5F5F5F5F5E2E2E2E2E2E2E2E2
310
E2E2E2E2E2E2E2E2E2E2E2E2E2E2E2E2E2E2E2E2E2E2E2E2E2E2E2E2E2E2E2E2E2E2E2E2E2E2E2E2E2E2E2E2E2E2E2E2E2E2E2E2E2E2E2E2E2E2E2E2E2F5F5F5F5F5F5F5F5F5F5F5F5F5F5F5E2F5F5F5F5F5F5F5F5E2E2E2F5F5F5F5F5F5F5F5E2F5F5F5F5F5F5F5F5F5F5F5F5F5F5F5F5F5F5F5F5F5F5F5F5F5E2F5F5F5F5
310
F5F5F5E2E2E2E2F5F5F5F5F5F5F5E2F5F5F5F5F5F5F5F5F5F5F5F5F5F5F5F5F5F5F5F5F5F5F5F5F5F5F5F5F5F5E2F5F5E2E2E2F5F5E2F5F5F5F5F5F5F5F5F5F5F5F5F5F5F5F5F5F5F5F5F5F5F5F5F5F5F5E2E2E2E2E2F5F5F5F5F5F5F5F5F5F5F5F5F5F5F5F5F5F5F5F5F5F5F5F5F5F5F5E2F5F5F5F5F5F5F5F5F5F5F5F5F5
310
F5F5E2F5F5F5F5F5F5F5F5E2E2E2F5F5F5F5F5F5F5F5E2F5F5F5F5F5F5F5F5F5F5F5F5F5F5F5F5F5F5F5F5F5F5F5F5F5F5F5F5F5F5F5F5F5F5F5F5F5F5F5F5F5F5F5F5F5F5F5F5F5F5F5F5F5F5F5F5F5F5F5F5F5F5F5F5F5F5F5F5F5F5F5F5F5F5F5F5F5F5F5F5F5F5F5F5F5F5F5F5F5F5F5F5F5F5F5F5F5F5F5F5F5F5F5F5
310
F5F5F5F5F5F5F5F5F5F5F5F5F5F5F5F5F5F5F5F5F5F5F5F5F5F5F5F5F5F5F5F5F5F5F5F5F5F5F5F5F5F5F5F5F5F5F5F5F5F5F5F5F5F5F5E2F5F5F5F5F5F5F5F5E2E2E2F5F5F5F5F5F5F5F5E2F5F5F5F5F5F5F5F5F5F5F5F5F5F5F5F5F5F5F5F5F5F5F5F5F5F5F5F5F5F5F5F5F5F5F5F5F5F5F5F5F5F5F5F5F5F5F5F5F5F5F5
310
F5F5F5F5F5F5F5F5F5F5F5F5F5F5F5F5F5F5F5F5F5F5F5F5F5F5F5F5F5F5F5F5F5F5F5F5F5F5F5F5F5F5F5F5F5F5F5F5F5F5F5F5F5F5F5F5F5F5F5F5F5F5F5F5F5F5F5F5F5F5F5F5F5F5F5F5F5F5F5F5F5F5F5F5F5F5F5F5F5F5F5F5F5F5F5F5F5F5F5F5F5F5F5F5F5F5F5F5E2F5F5F5F5F5F5F5F5E2E2E2F5F5F5F5F5E2E2
310
E2E2F5F5F5F5F5F5F5F5F5F5F5F5F5F5F5F5F5F5F5F5F5F5F5F5F5F5F5F5F5F5F5F5F5F5F5F5F5F5F5F5F5F5F5F5F5F5F5F5F5F5F5F5F5F5F5F5F5F5F5F5F5F5F5F5F5F5F5F5F5F5F5F5F5F5F5F5F5F5F5F5F5F5F5F5F5F5F5F5F5F5F5F5F5F5F5F5F5F5F5F5F5F5F5F5F5F5F5F5F5F5F5F5F5F5F5F5F5F5F5F5F5F5F5F5F5
310
F5F5F5F5F5F5F5F5F5F5F5F5F5F5F5F5F5F5F5F5F5F5F5F5F5F5F5F5F5F5F5F5F5F5E2E2E2E2F5F5F5F5F5E2E2E2F5F5F5F5F5F5F5F5E2F5F5F5F5F5F5F5F5F5F5F5F5F5F5F5F5F5F5F5F5F5F5F5F5F5F5F5F5F5F5F5F5F5F5F5F5F5F5F5F5F5F5F5F5F5F5F5F5F5F5F5F5F5F5F5F5F5F5F5F5F5F5F5F5F5F5F5F5F5F5F5F5
310
F5F5F5F5F5F5F5F5F5F5F5F5F5F5F5F5F5F5F5F5F5F5F5F5F5F5F5F5F5F5F5F5F5F5F5F5F5F5F5F5F5F5F5F5F5F5F5F5F5F5F5F5F5F5F5F5F5F5F5F5F5F5F5F5F5F5F5F5F5F5F5F5F5F5F5F5F5F5F5F5F5F5F5F5F5F5F5E2F5F5F5F5F5F5F5F5E2E2E2F5E2F5F5F5F5F5F5E2F5F5F5F5F5F5F5F5F5F5F5F5F5F5F5F5F5F5F5
310
F5F5F5F5F5F5F5F5F5F5F5F5F5F5F5F5F5F5F5F5F5F5F5F5F5F5F5F5F5F5F5F5F5F5F5F5F5F5F5F5F5F5F5F5F5F5F5F5F5F5F5F5F5F5F5F5F5F5F5F5F5F5F5F5F5F5F5F5F5F5F5F5F5F5F5F5F5F5F5F5F5F5F5F5F5F5F5F5F5F5F5F5F5F5F5F5F5F5F5F5F5F5F5F5F5F5F5F5F5F5F5F5F5F5F5F5F5F5F5F5F5F5F5F5F5F5F5
310
F5F5F5F5F5F5F5F5F5F5F5F5F5E2F5F5F5F5F5F5E2F5E2E2E2F5E2F5F5F5F5F5F5E2F5F5F5F5F5F5F5F5F5F5F5F5F5F5F5F5F5F5F5F5F5F5F5F5F5F5F5F5F5F5F5F5F5F5F5F5F5F5F5F5F5F5F5F5F5F5F5F5F5F5F5F5F5F5F5F5F5F5F5F5F5F5F5F5F5F5F5F5F5F5F5F5F5F5F5F5F5F5F5F5F5F5F5F5F5F5F5F5F5F5F5F5F5
310
F5F5F5F5F5F5F5F5F5F5F5F5F5F5F5F5F5F5F5F5F5F5F5F5F5F5F5F5F5F5F5F5F5F5F5F5F5F5F5F5F5F5F5F5F5F5F5F5F5F5F5F5F5F5F5F5F5F5F5F5F5F5F5F5F5F5E2F5F5F5F5F5F5E2F5E2E2E2F5E2F5F5F5F5F5F5E2F5F5F5F5F5F5F5F5F5F5F5F5F5F5F5F5F5F5F5F5F5F5F5F5F5F5F5F5F5F5F5F5F5F5F5F5F5F5F5F5
310
F5F5F5F5F5F5F5F5F5F5F5F5F5F5F5F5F5F5F5F5F5F5F5F5F5F5F5F5F5F5F5F5F5F5F5F5F5F5F5F5F5F5F5F5F5F5F5F5F5F5F5F5F5F5F5F5F5F5F5F5F5F5F5F5F5F5F5F5F5F5F5F5F5F5F5F5F5F5F5F5F5F5F5F5F5F5F5F5F5F5F5F5F5F5F5F5F5F5F5F5F5F5F5F5F5F5F5F5F5F5F5F5F5F5F5F5F5F5F5E2F5F5F5F5F5F5E2
310
F5E2E2E2F5E2F5F5F5F5F5F5E2F5F5F5F5F5F5F5F5F5F5F5F5F5F5F5F5F5F5F5F5F5F5F5F5F5F5F5F5F5F5F5F5F5F5F5F5F5F5F5F5F5F5F5F5F5F5F5F5F5F5F5F5F5F5F5F5F5F5F5F5F5F5F5F5F5F5F5F5F5F5F5F5F5F5F5F5F5F5F5F5F5F5F5F5F5F5F5F5F5F5F5F5F5F5F5F5F5F5F5F5F5F5F5F5F5F5F5F5F5F5F5F5F5F5
310
F5F5F5F5F5F5F5F5F5F5F5F5F5F5F5F5F5F5F5F5F5F5F5F5F5F5F5F5F5F5F5F5F5F5F5F5F5F5F5F5F5F5F5F5F5E2F5F5F5F5F5F5E2F5E2E2E2F5E2F5F5F5F5F5F5E2F5F5F5F5F5F5F5F5F5F5F5F5F5F5F5F5F5F5F5F5F5F5F5F5F5F5F5F5F5F5F5F5F5F5F5F5F5F5F5F5F5F5F5F5F5F5F5F5F5F5F5F5F5F5F5F5F5F5F5F5F5
310
F5F5F5F5F5F5F5F5F5F5F5F5F5F5F5F5F5F5F5F5F5F5F5F5F5F5F5F5F5F5F5F5F5F5F5F5F5F5F5F5F5F5F5F5F5F5F5F5F5F5F5F5F5F5F5F5F5F5F5F5F5F5F5F5F5F5F5F5F5F5F5F5F5F5F5F5F5F5F5F5F5F5F5F5F5F5F5F5F5F5F5F5F5F5F5F5F5F5E2F5F5F5F5F5F5E2F5E2E2E2F5E2F5F5F5F5F5F5E2F5F5F5F5F5F5F5F5
310
F5F5F5F5F5F5F5F5F5F5F5F5F5F5F5F5F5F5F5F5F5F5F5F5F5F5F5F5F5F5F5F5F5F5F5F5F5F5F5F5F5F5F5F5F5F5F5F5F5F5F5F5F5F5F5F5F5F5F5F5F5F5F5F5F5F5F5F5F5F5F5F5F5F5F5F5F5F5F5F5F5F5F5F5F5F5F5F5F5F5F5F5F5F5F5F5F5F5F5F5F5F5F5F5F5F5F5F5F5F5F5F5F5F5F5F5F5F5F5F5F5F5F5F5F5F5F5
310
F5F5F5F5F5F5F5F5F5F5F5F5F5F5F5F5F5F5F5F5F5F5F5F5E2F5F5F5F5F5F5E2F5E2E2E2F5E2F5F5F5F5F5F5E2F5F5F5F5F5F5F5F5F5F5F5F5F5F5F5F5F5F5F5F5F5F5F5F5F5F5F5F5F5F5F5F5F5F5F5F5F5F5F5F5F5F5F5F5F5F5F5F5F5F5F5F5F5F5F5F5F5F5F5F5F5F5F5F5F5F5F5F5F5F5F5F5F5F5F5F5F5F5F5F5F5F5
310
F5F5F5F5F5F5F5F5F5F5F5F5F5F5F5F5F5F5F5F5F5F5F5F5F5F5F5F5F5F5F5F5F5F5F5F5F5F5F5F5F5F5F5F5F5F5F5F5F5F5F5F5F5F5F5F5F5F5F5F5F5F5F5F5F5F5F5F5F5F5F5F5F5F5F5F5F5E2F5F5F5F5F5F5E2F5E2E2E2F5E2F5F5F5F5F5F5E2F5F5F5F5F5F5F5F5F5F5F5F5F5F5F5F5F5F5F5F5F5F5F5F5F5F5F5F5F5
310
F5F5F5F5F5F5F5F5F5F5F5F5F5F5F5F5F5F5F5F5F5F5F5F5F5F5F5F5F5F5F5F5F5F5F5F5F5F5F5F5F5F5F5F5F5F5F5F5F5F5F5F5F5F5F5F5F5F5F5F5F5F5F5F5F5F5F5F5F5F5F5F5F5F5F5F5F5F5F5F5F5F5F5F5F5F5F5F5F5F5F5F5F5F5F5F5F5F5F5F5F5F5F5F5F5F5F5F5F5F5F5F5F5F5F5F5F5F5F5F5F5F5F5F5F5F5F5
310
F5F5F5E2F5F5F5F5F5F5E2F5E2E2E2F5E2F5F5F5F5F5F5E2F5F5F5F5F5F5F5F5F5F5F5F5F5F5F5F5F5F5F5F5F5F5F5F5F5F5F5F5F5F5F5F5F5F5F5F5F5F5F5F5F5F5F5F5F5F5F5F5F5F5F5F5F5F5F5F5F5F5F5F5F5F5F5F5F5F5F5F5F5F5F5F5F5F5F5F5F5F5F5F5F5F5F5F5F5F5F5F5F5F5F5F5F5F5F5F5F5F5F5F5F5F5F5
310
F5F5F5F5F5F5F5F5F5F5F5F5F5F5F5F5F5F5F5F5F5F5F5F5F5F5F5F5F5F5F5F5F5F5F5F5F5F5F5F5F5F5F5F5F5F5F5F5F5F5F5F5F5F5F5F5E2F5F5F5F5F5F5E2F5E2E2E2F5E2F5F5F5F5F5F5E2F5F5F5F5F5F5F5F5F5F5F5F5F5F5F5F5F5F5F5F5F5F5F5F5F5F5F5F5F5F5F5F5F5F5F5F5F5F5F5F5F5F5F5F5F5F5F5F5F5F5
310
F5F5F5F5F5F5F5F5F5F5F5F5F5F5F5F5F5F5F5F5F5F5F5F5F5F5F5F5F5F5F5F5F5F5F5F5F5F5F5F5F5F5F5F5F5F5F5F5F5F5F5F5F5F5F5F5F5F5F5F5F5F5F5F5F5F5F5F5F5F5F5F5F5F5F5F5F5F5F5F5F5F5F5F5F5F5F5F5F5F5F5F5F5F5F5F5F5F5F5F5F5F5F5F5F5F5F5F5F5E2F5F5F5F5F5F5E2F5E2E2E2F5E2F5F5F5F5
310
E2E2E2F5F5F5F5F5F5F5F5F5F5F5F5F5F5F5F5F5F5F5F5F5F5F5F5F5F5F5F5F5F5F5F5F5F5F5F5F5F5F5F5F5F5F5F5F5F5F5F5F5F5F5F5F5F5F5F5F5F5F5F5F5F5F5F5F5F5F5F5F5F5F5F5F5F5F5F5F5F5F5F5F5F5F5F5F5F5F5F5F5F5F5F5F5F5F5F5F5F5F5F5F5F5F5F5F5F5F5F5F5F5F5F5F5F5F5F5F5F5F5F5F5F5F5F5
310
F5F5F5F5F5F5F5F5F5F5F5F5F5F5F5F5F5F5F5F5F5F5F5F5F5F5F5F5F5F5F5F5F5F5F5E2E2E2F5F5F5F5E2F5E2E2E2F5E2F5F5F5F5E2E2E2F5F5F5F5F5F5F5F5F5F5F5F5F5F5F5F5F5F5F5F5F5F5F5F5F5F5F5F5F5F5F5F5F5F5F5F5F5F5F5F5F5F5F5F5F5F5F5F5F5F5F5F5F5F5F5F5F5F5F5F5F5F5F5F5F5F5F5F5F5F5F5
310
F5F5F5F5F5F5F5F5F5F5F5F5F5F5F5F5F5F5F5F5F5F5F5F5F5F5F5F5F5F5F5F5F5F5F5F5F5F5F5F5F5F5F5F5F5F5F5F5F5F5F5F5F5F5F5F5F5F5F5F5F5F5F5F5F5F5F5F5F5F5F5F5F5F5F5F5F5F5F5F5F5F5F5F5F5F5F5F5E2E2E2F5F5F5F5E2F5E2E2E2F5E2F5F5F5F5F5F5E2F5F5F5F5F5F5F5F5F5F5F5F5F5F5F5F5F5F5
310
F5F5F5F5F5F5F5F5F5F5F5F5F5F5F5F5F5F5F5F5F5F5F5F5F5F5F5F5F5F5F5F5F5F5F5F5F5F5F5F5F5F5F5F5F5F5F5F5F5F5F5F5F5F5F5F5F5F5F5F5F5F5F5F5F5F5F5F5F5F5F5F5F5F5F5F5F5F5F5F5F5F5F5F5F5F5F5F5F5F5F5F5F5F5F5F5F5F5F5F5F5F5F5F5F5F5F5F5F5F5F5F5F5F5F5F5F5F5F5F5F5F5F5F5F5F5F5
310
F5F5F5F5F5F5F5F5F5F5F5F5F5F5E2F5F5F5F5F5F5E2F5E2E2E2F5E2F5F5F5F5F5F5E2F5F5F5F5F5F5F5F5F5F5F5F5F5F5F5F5F5F5F5F5F5F5F5F5F5F5F5F5F5F5F5F5F5F5F5F5F5F5F5F5F5F5F5F5F5F5F5F5F5F5F5F5F5F5F5F5F5F5F5F5F5F5F5F5F5F5F5F5F5F5F5F5F5F5F5F5F5F5F5F5F5F5F5F5F5F5F5F5F5F5F5F5
310
F5F5F5F5F5F5F5F5F5F5F5F5F5F5F5F5F5F5F5F5F5F5F5F5F5F5F5F5F5F5F5F5F5F5F5F5F5F5F5F5F5F5F5F5F5F5F5F5F5F5F5F5F5F5F5F5F5F5F5F5F5F5F5F5F5F5F5E2F5F5F5F5F5F5E2F5E2E2E2F5E2F5F5F5F5F5F5E2F5F5F5F5F5F5F5F5F5F5F5F5F5F5F5F5F5F5F5F5F5F5F5F5F5F5F5F5F5F5F5F5F5F5F5F5F5F5F5
310
F5F5F5F5F5F5F5F5F5F5F5F5F5F5F5F5F5F5F5F5F5F5F5F5F5F5F5F5F5F5F5F5F5F5F5F5F5F5F5F5F5F5F5F5F5F5F5F5F5F5F5F5F5F5F5F5F5F5F5F5F5F5F5F5F5F5F5F5F5F5F5F5F5F5F5F5F5F5F5F5F5F5F5F5F5F5F5F5F5F5F5F5F5F5F5F5F5F5F5F5F5F5F5F5F5F5F5F5F5F5F5F5F5F5F5F5F5F5F5F5E2F5F5F5F5F5F5
310
E2F5E2E2E2F5E2F5F5F5F5F5F5E2F5F5F5F5F5F5F5F5F5F5F5F5F5F5F5F5F5F5F5F5F5F5F5F5F5F5F5F5F5F5F5F5F5F5F5F5F5F5F5F5F5F5F5F5F5F5F5F5F5F5F5F5F5F5F5F5F5F5F5F5F5F5F5F5F5F5F5F5F5F5F5F5F5F5F5F5F5F5F5F5F5F5F5F5F5F5F5F5F5F5F5F5F5F5F5F5F5F5F5F5F5F5F5F5F5F5F5F5F5F5F5F5F5
310
F5F5F5F5F5F5F5F5F5F5F5F5F5F5F5F5F5F5F5F5F5F5F5F5F5F5F5F5F5F5F5F5F5F5F5F5F5F5F5F5F5F5F5F5F5F5E2F5F5F5F5F5F5E2F5E2E2E2F5F5F5F5F5F5F5F5E2F5F5F5F5F5F5F5F5F5F5F5F5F5F5F5F5F5F5F5F5F5F5F5F5F5F5F5F5F5F5F5F5F5F5F5F5F5F5F5F5F5F5F5F5F5F5F5F5F5F5F5F5F5F5F5F5F5F5F5F5
310
F5F5F5F5F5F5F5F5F5F5F5F5F5F5F5F5F5F5F5F5F5F5F5F5F5F5F5F5F5F5F5F5F5F5F5F5F5F5F5F5F5F5F5F5F5F5F5F5F5F5F5F5F5F5F5F5F5F5F5F5F5F5F5F5F5F5F5F5F5F5F5F5F5F5F5F5F5F5F5F5F5F5F5F5F5F5F5F5F5F5F5F5F5F5F5F5F5F5F5E2F5F5F5F5F5F5F5F5E2E2E2F5F5F5F5F5F5F5F5E2F5F5F5F5F5F5F5
310
F5F5F5F5F5F5F5F5F5F5F5F5F5F5F5F5F5F5F5F5F5F5F5F5F5F5F5F5F5F5F5F5F5F5F5F5F5F5F5F5F5F5F5F5F5F5F5F5F5F5F5F5F5F5F5F5F5F5F5F5F5F5F5F5F5F5F5F5F5F5F5F5F5F5F5F5F5F5F5F5F5F5F5F5F5F5F5F5F5F5F5F5F5F5F5F5F5F5F5F5F5F5F5F5F5F5F5F5F5F5F5F5F5F5F5F5F5F5F5F5F5F5F5F5F5F5F5
310
F5F5F5F5F5F5F5F5F5F5F5F5F5F5F5F5F5F5F5F5F5F5F5F5F5E2F5F5F5F5F5F5F5F5E2E2E2F5F5F5F5F5F5F5F5E2F5F5F5F5F5F5F5F5F5F5F5F5F5F5F5F5F5F5F5F5F5F5F5F5F5F5F5F5F5F5F5F5F5F5F5F5F5F5F5F5F5F5F5F5F5F5F5F5F5F5F5F5F5F5F5F5F5F5F5F5F5F5F5F5F5F5F5F5F5F5F5F5F5F5F5F5F5F5F5F5F5
310
F5F5F5F5F5F5F5F5F5F5F5F5F5F5F5F5F5F5F5F5F5F5F5F5F5F5F5F5F5F5F5F5F5F5F5F5F5F5F5F5F5F5F5F5F5F5F5F5F5F5F5F5F5F5F5F5F5F5F5F5F5F5F5F5F5F5F5F5F5F5F5F5F5F5F5F5F5F5E2F5F5F5F5F5F5F5F5E2E2E2F5F5F5F5F5F5F5F5E2F5F5F5F5F5F5F5F5F5F5F5F5F5F5F5F5F5F5F5F5F5F5F5F5F5F5F5F5
310
F5F5F5F5F5F5F5F5F5F5F5F5F5F5F5F5F5F5F5F5F5F5F5F5F5F5F5F5F5F5F5F5F5F5F5F5F5F5F5F5F5F5F5F5F5F5F5F5F5F5F5F5F5F5F5F5F5F5F5F5F5F5F5F5F5F5F5F5F5F5F5F5F5F5F5F5F5F5F5F5F5F5F5F5F5F5F5F5F5F5F5F5F5F5F5F5F5F5F5F5F5F5F5F5F5F5F5F5F5F5F5F5F5F5F5F5F5F5F5F5F5F5F5F5F5F5F5
310
F5F5F5F5E2F5F5F5F5F5F5F5F5E2E2E2F5F5F5F5F5F5F5F5E2F5F5F5F5F5F5F5F5F5F5F5F5F5F5F5F5F5F5F5F5F5F5F5F5F5F5F5F5F5F5F5F5F5F5F5F5F5F5F5F5F5F5F5F5F5F5F5F5F5F5F5F5F5F5F5F5F5F5F5F5F5F5F5F5F5F5F5F5F5F5F5F5F5F5F5F5F5F5F5F5F5F5F5F5F5F5F5F5F5F5F5F5F5F5F5F5F5F5F5F5F5F5
310
F5F5F5F5F5F5F5F5F5F5F5F5F5F5F5F5F5F5F5F5F5F5F5F5F5F5F5F5F5F5F5F5F5F5F5F5F5F5F5F5F5F5F5F5F5F5F5F5F5F5F5F5F5F5F5F5F5E2F5F5F5F5F5F5F5F5E2E2E2F5F5F5F5F5F5F5F5E2F5F5F5F5F5F5F5F5F5F5F5F5F5F5F5F5F5F5F5F5F5F5F5F5F5F5F5F5F5F5F5F5F5F5F5F5F5F5F5F5F5F5F5F5F5F5F5F5F5
310
F5F5F5F5F5F5F5F5F5F5F5F5F5F5F5F5F5F5F5F5F5F5F5F5F5F5F5F5F5F5F5F5F5F5F5F5F5F5F5F5F5F5F5F5F5F5F5F5F5F5F5F5F5F5F5F5F5F5F5F5F5F5F5F5F5F5F5F5F5F5F5F5F5F5F5F5F5F5F5F5F5F5F5F5F5F5F5F5F5F5F5F5F5F5F5F5F5F5F5F5F5F5F5F5F5F5F5F5F5F5E2F5F5F5F5F5F5F5F5E2E2E2F5F5F5F5F5
310
F5F5F5E2F5F5F5F5F5F5F5F5F5F5F5F5F5F5F5F5F5F5F5F5F5F5F5F5F5F5F5F5F5F5F5F5F5F5F5F5F5F5F5F5F5F5F5F5F5F5F5F5F5F5F5F5F5F5F5F5F5F5F5F5F5F5F5F5F5F5F5F5F5F5F5F5F5F5F5F5F5F5F5F5F5F5F5F5F5F5F5F5F5F5F5F5F5F5F5F5F5F5F5F5F5F5F5F5F5F5F5F5F5F5F5F5F5F5F5F5F5F5F5F5F5F5F5
310
F5F5F5F5F5F5F5F5F5F5F5F5F5F5F5F5F5F5F5F5F5F5F5F5F5F5F5F5F5F5F5F5F5F5F5F5E2F5F5F5F5F5F5F5F5E2E2E2F5F5F5F5F5F5F5F5E2F5F5F5F5F5F5F5F5F5F5F5F5F5F5F5F5F5F5F5F5F5F5F5F5F5F5F5F5F5F5F5F5F5F5F5F5F5F5F5F5F5F5F5F5F5F5F5F5F5F5F5F5F5F5F5F5F5F5F5F5F5F5F5F5F5F5F5F5F5F5
310
F5F5F5F5F5F5F5F5F5F5F5F5F5F5F5F5F5F5F5F5F5F5F5F5F5F5F5F5F5F5F5F5F5F5F5F5F5F5F5F5F5F5F5F5F5F5F5F5F5F5F5F5F5F5F5F5F5F5F5F5F5F5F5F5F5F5F5F5F5F5F5F5F5F5F5F5F5F5F5F5F5F5F5F5F5F5F5F5F5E2F5F5F5F5F5F5F5F5E2E2E2F5F5F5F5F5F5F5F5E2F5F5F5F5F5F5F5F5F5F5F5F5F5F5F5F5F5
310
F5F5F5F5F5F5F5F5F5F5F5F5F5F5F5F5F5F5F5F5F5F5F5F5F5F5F5F5F5F5F5F5F5F5F5F5F5F5F5F5F5F5F5F5F5F5F5F5F5F5F5F5F5F5F5F5F5F5F5F5F5F5F5F5F5F5F5F5F5F5F5F5F5F5F5F5F5F5F5F5F5F5F5F5F5F5F5F5F5F5F5F5F5F5F5F5F5F5F5F5F5F5F5F5F5F5F5F5F5F5F5F5F5F5F5F5F5F5F5F5F5F5F5F5F5F5F5
310
F5F5F5F5F5F5F5F5F5F5F5F5F5F5F5E2F5F5F5F5F5F5F5F5E2E2E2F5E2F5F5F5F5F5F5E2E2E2E2E2E2E2E2E2E2E2E2E2E2E2E2E2E2E2E2E2E2E2E2E2E2E2E2E2E2E2E2E2E2E2E2E2E2E2E2E2E2E2E2E2E2E2E2E2E2E2E2E2E2E2E2E2E2E2E2E2E2E2E2E2E2E2E2E2E2E2E2E2E2E2E2E2E2E2E2E2E2E2E2E2E2E2E2E2E2E2E2
310
E2E2E2E2E2E2E2E2E2E2E2E2E2E2E2E2E2E2E2E2E2E2E2E2E2E2E2E2E2E2E2E2E2E2E2E2E2E2E2E2E2E2E2E2E2E2E2E2E2E2E2E2E2E2E2E2E2E2E2E2E2E2E2E2E2E2E2E2E2F5F5F5F5F5F5E2F5E2E2E2F5E2F5F5F5F5F5F5F5F5F5F5F5F5F5F5F5F5F5F5F5E2E2F5F5F5F5F5F5F5F5F5F5F5F5E2F5F5F5F5F5F5F5F5F5F5F5
310
F5E2E2F5F5F5F5F5F5F5F5F5F5F5E2F5F5F5F5F5F5F5F5F5F5F5F5E2E2F5F5F5F5F5F5F5F5F5F5F5F5E2F5F5F5F5F5F5F5F5F5F5F5F5E2E2F5F5F5F5F5F5F5F5F5F5F5F5E2F5F5F5F5F5F5F5F5F5F5F5E2E2F5F5F5F5F5F5F5F5F5F5F5F5E2F5F5F5F5F5F5F5F5F5F5F5F5E2E2F5F5F5F5F5F5F5F5F5F5F5F5F5F5F5F5F5F5
310
F5E2F5E2E2E2F5E2F5F5F5F5F5F5F5F5F5F5F5F5F5F5F5F5F5F5F5F5F5F5F5F5F5F5F5F5F5F5F5F5F5E2F5F5F5F5F5F5F5F5F5F5F5F5F5F5F5F5F5F5F5F5F5F5F5F5F5E2F5F5F5F5F5F5F5F5F5F5F5F5F5F5F5F5F5F5F5F5F5F5F5F5F5F5E2F5F5F5F5F5F5F5F5F5F5F5F5F5F5F5F5F5F5F5F5F5F5F5F5F5F5E2F5F5F5F5F5
310
F5F5F5F5F5F5F5F5F5F5F5F5F5F5F5F5F5F5F5F5E2F5F5F5F5F5F5F5F5F5F5F5F5F5F5F5F5F5F5F5F5F5F5F5F5F5F5F5F5F5F5F5F5F5E2F5E2E2E2F5E2F5F5F5F5F5F5F5F5F5F5F5F5F5F5F5F5F5F5F5F5F5F5F5F5F5F5F5F5F5F5F5F5F5E2F5F5F5F5F5F5F5F5F5F5F5F5F5F5F5F5F5F5F5F5F5F5F5F5F5E2F5F5F5F5F5F5
310
F5F5F5F5F5F5F5F5F5F5F5F5F5F5F5F5F5F5F5F5E2F5F5F5F5F5F5F5F5F5F5F5F5F5F5F5F5F5F5F5F5F5F5F5F5F5F5E2F5F5F5F5F5F5F5F5F5F5F5F5F5F5F5F5F5F5F5F5F5F5F5F5F5E2F5F5F5F5F5F5F5F5F5F5F5F5F5F5F5F5F5F5F5F5F5F5F5F5F5F5F5F5F5F5F5F5F5E2F5E2E2E2F5E2F5F5F5F5F5F5F5F5F5F5F5F5F5
310
F5F5F5F5F5F5F5F5F5F5F5F5F5F5F5F5F5F5F5F5F5F5F5F5F5F5F5F5F5F5F5F5F5F5F5F5F5F5F5F5F5F5F5F5F5F5F5F5F5F5F5F5F5F5F5F5F5F5F5F5F5F5F5F5F5F5F5F5F5F5F5F5F5F5F5F5F5F5F5F5F5F5F5F5F5F5F5F5F5F5F5F5F5F5F5F5F5F5F5F5F5F5F5F5F5F5F5F5F5F5F5F5F5F5F5F5F5F5F5F5F5F5F5F5F5F5F5
310
F5F5F5F5F5F5F5F5F5F5F5F5F5F5F5F5F5F5F5F5F5F5F5F5F5F5F5F5F5F5F5F5F5E2F5E2E2E2F5E2F5F5F5F5F5F5F5F5F5F5F5F5F5F5F5F5F5F5F5F5F5F5F5F5F5F5F5F5F5F5F5F5F5F5F5F5F5F5F5F5F5F5F5F5F5F5F5F5F5F5F5F5F5F5F5F5F5F5F5F5F5F5F5F5F5F5F5F5F5F5F5F5F5F5F5F5F5F5F5F5F5F5F5F5F5F5F5
310
F5F5F5F5F5F5F5F5F5F5F5F5F5F5F5F5F5F5F5F5F5F5F5F5F5F5F5F5F5F5F5F5F5F5F5F5F5F5F5F5F5F5F5F5F5F5F5F5F5F5F5F5F5F5F5F5F5F5F5F5F5F5F5F5F5F5F5F5F5F5F5F5F5F5F5F5F5F5F5F5F5F5F5F5F5F5E2F5E2E2E2F5E2F5F5F5F5F5F5F5F5F5F5F5F5F5F5F5F5F5F5F5F5F5F5F5F5F5F5F5F5F5F5F5F5F5F5
310
F5F5F5F5F5F5F5F5F5F5F5F5F5F5F5F5F5F5F5F5F5F5F5F5F5F5F5F5F5F5F5F5F5F5F5F5F5F5F5F5F5F5F5F5F5F5F5F5F5F5F5F5F5F5F5F5F5F5F5F5F5F5F5F5F5F5F5F5F5F5F5F5F5F5F5F5F5F5F5F5F5F5F5F5F5F5F5F5F5F5F5F5F5F5F5F5F5F5F5F5F5F5F5F5F5F5F5F5F5F5F5F5F5F5F5F5F5F5F5F5F5F5F5F5F5F5F5
310
F5F5F5F5F5F5F5F5F5F5F5F5E2F5E2E2E2F5E2E2E2E2E2E2E2E2F5F5F5F5F5F5F5F5F5E2E2E2E2E2E2E2E2E2E2E2E2E2E2E2E2F5F5F5F5F5F5F5F5F5E2E2E2E2E2E2E2E2E2E2E2E2E2E2E2E2F5F5F5F5F5F5F5F5F5E2E2E2E2E2E2E2E2E2E2E2E2E2E2E2E2F5F5F5F5F5F5F5F5F5E2E2E2E2E2E2E2E2E2E2E2E2E2E2E2E2F5
310
F5F5F5F5F5F5F5F5E2E2E2E2E2E2E2E2E2E2E2E2E2E2E2E2F5F5F5F5F5F5F5F5F5E2E2E2E2E2E2E2E2E2E2E2E2E2E2E2E2F5F5F5F5F5F5F5F5F5E2E2E2E2E2E2E2E2F5E2E2E2F5F5F5F5F5F5F5F5F5F5F5F5F5F5F5F5F5F5F5F5F5F5F5F5F5F5F5F5F5F5F5F5F5F5F5F5F5F5F5F5F5F5F5F5F5F5F5F5F5F5F5F5F5F5F5F5F5
310
F5F5F5F5F5F5F5F5F5F5F5F5F5F5F5F5F5F5F5F5F5F5F5F5F5F5F5F5F5F5F5F5F5F5F5F5F5F5F5F5F5F5F5F5F5F5F5F5F5F5F5F5F5F5F5F5F5F5F5F5F5F5F5F5F5F5F5F5F5F5F5F5F5F5F5F5F5F5F5F5F5F5F5F5F5F5F5F5F5F5F5F5F5F5F5F5F5F5F5F5F5F5F5F5F5F5F5F5F5F5F5F5F5F5F5F5F5F5F5F5E2EFE2E2E2E2E2
310
E2E2E2E2E2E2E2E2E2E2E2E2E2E2E2E2E2E2E2E2E2E2E2E2E2E2E2E2E2E2E2E2E2E2E2E2E2E2E2E2E2E2E2E2E2E2E2E2E2E2E2E2E2E2E2E2E2E2E2E2E2E2E2E2E2E2E2E2E2E2E2E2E2E2E2E2E2E2E2E2E2E2E2E2E2E2E2E2E2E2E2E2E2E2E2E2E2E2E2E2E2E2E2E2E2E2E2E2E2E2E2E2E2E2E2E2E2E2E2E2E2E2E2E2E2E2E2
310
E2E2E2E2E2E2E2E2E2E2E2E2E2E2E2E2E2E2E2E2E2E2E2E2E2E2E2E2E2E2E2E2E2E2E2E2E2E2E2E2E2E2E2E2E2E2E2EF
  0
ENDSEC
  0
EOF
